Tags
Language
Tags

VA - Compact Jazz: Best of the Jazz Vocalists (1992)

Posted By: Designol
VA - Compact Jazz: Best of the Jazz Vocalists (1992)

VA - Compact Jazz: Best of the Jazz Vocalists (1992)
EAC | FLAC | Tracks (Cue&Log) ~ 390 Mb | Mp3 (CBR320) ~ 196 Mb | Scans included
Jazz, Vocal Jazz | Label: Verve/Polygram | # 845 466-2 | Time: 01:08:27

From a label with no shortage of first-rate jazz material come this very attractive vocal sampler. Staying true to the Compact Jazz ethos, Best of the Jazz Vocalists favors quality over hits and comes with a budget price tag. The majority of songs are from the label's prime '50s and '60s run, including a cloud-bound "Summertime" by Helen Merrill and one of the all-time great versions of "If You Could See Me Now," compliments of Billy Eckstine. Continuing with this balancing act between the sexes, the collection also includes fine work by Bill Henderson, Ella Fitzgerald, Louis Armstrong, Abbey Lincoln, Jon Hendricks, Shirley Horn, and Anita O'Day; latter-day entries include Lincoln's "I've Got Thunder and It Rings" from her 1990 Verve debut and Horn's "I Got Lost in His Arms" from 1988's Close Enough for Love. Nicely wrapped up with Nina Simone's Afro-percussion clarion call "Come Ye," this Verve roundup works as the perfect primer for more adventurous trips through the label's fertile stores of essential jazz.

Review by Stephen Cook, Allmusic.com

Tracklist:

01. Ella Fitzgerald - It Don't Mean A Thing (If It Ain't Got That Swing) (4:14)
02. Mel Torme - Just In Time (3:28)
03. Helen Merrill - Summertime (4:30)
04. Billy Eckstine - If You Could See Me Now (3:26)
05. Anita O'Day - Sweet Georgia Brown (4:15)
06. Abbey Lincoln - I Got Thunder (And It Rings) (5:47)
07. Bill Henderson - The Folks Who Live On The Hill (3:43)
08. Betty Carter - That Sunday, That Summer (4:57)
09. Louis Armstrong - Blues In The Night (5:14)
10. Sarah Vaughan - How High The Moon (2:38)
11. Shirley Horn - I Got Lost In His Arms (4:14)
12. Jon Hendricks - Shiny Stockings (4:07)
13. Dinah Washington - Blue Gardenia (5:20)
14. Billie Holiday - I Wished On The Moon (3:28)
15. Joe Williams - Too Marvelous For Words (5:28)
16. Nina Simone - Come Ye (3:37)


Exact Audio Copy V1.0 beta 4 from 7. December 2014

EAC extraction logfile from 28. August 2017, 21:39

Various Artists / Best Of The Jazz Vocalists (Compact Jazz)

Used drive : TSSTcorpCDDVDW SH-224DB Adapter: 1 ID: 0

Read mode : Secure
Utilize accurate stream : Yes
Defeat audio cache : Yes
Make use of C2 pointers : No

Read offset correction : 6
Overread into Lead-In and Lead-Out : No
Fill up missing offset samples with silence : Yes
Delete leading and trailing silent blocks : No
Null samples used in CRC calculations : Yes
Used interface : Native Win32 interface for Win NT & 2000
Gap handling : Appended to previous track

Used output format : User Defined Encoder
Selected bitrate : 896 kBit/s
Quality : High
Add ID3 tag : No
Command line compressor : C:\Program Files\Exact Audio Copy\Flac\flac.exe
Additional command line options : -5 -V -T "ARTIST=%artist%" -T "TITLE=%title%" -T "ALBUM=%albumtitle%" -T "DATE=%year%" -T "TRACKNUMBER=%tracknr%" -T "GENRE=%genre%" -T "COMMENT=%comment%" %source% -o %dest%


TOC of the extracted CD

Track | Start | Length | Start sector | End sector
––––––––––––––––––––––––––––-
1 | 0:00.33 | 4:14.37 | 33 | 19119
2 | 4:14.70 | 3:27.38 | 19120 | 34682
3 | 7:42.33 | 4:30.00 | 34683 | 54932
4 | 12:12.33 | 3:26.37 | 54933 | 70419
5 | 15:38.70 | 4:15.25 | 70420 | 89569
6 | 19:54.20 | 5:47.13 | 89570 | 115607
7 | 25:41.33 | 3:43.25 | 115608 | 132357
8 | 29:24.58 | 4:56.50 | 132358 | 154607
9 | 34:21.33 | 5:14.00 | 154608 | 178157
10 | 39:35.33 | 2:38.00 | 178158 | 190007
11 | 42:13.33 | 4:14.00 | 190008 | 209057
12 | 46:27.33 | 4:07.25 | 209058 | 227607
13 | 50:34.58 | 5:20.00 | 227608 | 251607
14 | 55:54.58 | 3:27.50 | 251608 | 267182
15 | 59:22.33 | 5:28.00 | 267183 | 291782
16 | 64:50.33 | 3:37.37 | 291783 | 308094


Track 1

Filename C:\New Folder\01 - Ella Fitzgerald - It Don't Mean A Thing (If It Ain't Got That Swing).wav

Pre-gap length 0:00:02.33

Peak level 78.2 %
Extraction speed 2.0 X
Track quality 100.0 %
Test CRC 69E41A02
Copy CRC 69E41A02
Accurately ripped (confidence 4) [C100196B] (AR v2)
Copy OK

Track 2

Filename C:\New Folder\02 - Mel Torme - Just In Time.wav

Pre-gap length 0:00:01.62

Peak level 85.5 %
Extraction speed 1.7 X
Track quality 99.9 %
Test CRC ED18B2BE
Copy CRC ED18B2BE
Accurately ripped (confidence 4) [4AC9D797] (AR v2)
Copy OK

Track 3

Filename C:\New Folder\03 - Helen Merrill - Summertime.wav

Pre-gap length 0:00:01.38

Peak level 72.4 %
Extraction speed 2.1 X
Track quality 100.0 %
Test CRC E5037CFB
Copy CRC E5037CFB
Accurately ripped (confidence 4) [F8EB4B6F] (AR v2)
Copy OK

Track 4

Filename C:\New Folder\04 - Billy Eckstine - If You Could See Me Now.wav

Pre-gap length 0:00:01.63

Peak level 55.4 %
Extraction speed 1.7 X
Track quality 99.9 %
Test CRC 3C71D302
Copy CRC 3C71D302
Accurately ripped (confidence 4) [5E5BF5F2] (AR v2)
Copy OK

Track 5

Filename C:\New Folder\05 - Anita O'Day - Sweet Georgia Brown.wav

Pre-gap length 0:00:02.25

Peak level 91.4 %
Extraction speed 2.1 X
Track quality 100.0 %
Test CRC 8D8FAC46
Copy CRC 8D8FAC46
Accurately ripped (confidence 4) [5A4AC680] (AR v2)
Copy OK

Track 6

Filename C:\New Folder\06 - Abbey Lincoln - I Got Thunder (And It Rings).wav

Pre-gap length 0:00:02.25

Peak level 85.1 %
Extraction speed 2.1 X
Track quality 100.0 %
Test CRC E2100EB5
Copy CRC E2100EB5
Accurately ripped (confidence 4) [4979E6D1] (AR v2)
Copy OK

Track 7

Filename C:\New Folder\07 - Bill Henderson - The Folks Who Live On The Hill.wav

Pre-gap length 0:00:01.38

Peak level 66.4 %
Extraction speed 2.0 X
Track quality 100.0 %
Test CRC C8C9FC5B
Copy CRC C8C9FC5B
Accurately ripped (confidence 4) [67DADE7C] (AR v2)
Copy OK

Track 8

Filename C:\New Folder\08 - Betty Carter - That Sunday, That Summer.wav

Pre-gap length 0:00:01.63

Peak level 86.4 %
Extraction speed 2.1 X
Track quality 100.0 %
Test CRC 439CADE8
Copy CRC 439CADE8
Accurately ripped (confidence 4) [7D49AE5B] (AR v2)
Copy OK

Track 9

Filename C:\New Folder\09 - Louis Armstrong - Blues In The Night.wav

Pre-gap length 0:00:01.25

Peak level 82.8 %
Extraction speed 2.1 X
Track quality 100.0 %
Test CRC 99BAD2F9
Copy CRC 99BAD2F9
Accurately ripped (confidence 4) [3033C2AE] (AR v2)
Copy OK

Track 10

Filename C:\New Folder\10 - Sarah Vaughan - How High The Moon.wav

Pre-gap length 0:00:01.50

Peak level 68.6 %
Extraction speed 1.6 X
Track quality 99.9 %
Test CRC 602F0355
Copy CRC 602F0355
Accurately ripped (confidence 4) [9DBDF39F] (AR v2)
Copy OK

Track 11

Filename C:\New Folder\11 - Shirley Horn - I Got Lost In His Arms.wav

Pre-gap length 0:00:02.50

Peak level 93.3 %
Extraction speed 2.1 X
Track quality 100.0 %
Test CRC 92C61D0D
Copy CRC 92C61D0D
Accurately ripped (confidence 4) [48986195] (AR v2)
Copy OK

Track 12

Filename C:\New Folder\12 - Jon Hendricks - Shiny Stockings.wav

Pre-gap length 0:00:01.50

Peak level 78.5 %
Extraction speed 1.8 X
Track quality 99.9 %
Test CRC DB221A0F
Copy CRC DB221A0F
Accurately ripped (confidence 4) [C791621F] (AR v2)
Copy OK

Track 13

Filename C:\New Folder\13 - Dinah Washington - Blue Gardenia.wav

Pre-gap length 0:00:01.50

Peak level 59.7 %
Extraction speed 2.0 X
Track quality 99.9 %
Test CRC AE7F3999
Copy CRC AE7F3999
Accurately ripped (confidence 4) [D003EBE3] (AR v2)
Copy OK

Track 14

Filename C:\New Folder\14 - Billie Holiday - I Wished On The Moon.wav

Pre-gap length 0:00:02.00

Peak level 74.0 %
Extraction speed 2.0 X
Track quality 100.0 %
Test CRC 858A22F1
Copy CRC 858A22F1
Accurately ripped (confidence 4) [06808F7C] (AR v2)
Copy OK

Track 15

Filename C:\New Folder\15 - Joe Williams - Too Marvelous For Words.wav

Pre-gap length 0:00:02.00

Peak level 98.3 %
Extraction speed 2.0 X
Track quality 99.9 %
Test CRC 03D4A8AF
Copy CRC 03D4A8AF
Accurately ripped (confidence 4) [9B4CFE77] (AR v2)
Copy OK

Track 16

Filename C:\New Folder\16 - Nina Simone - Come Ye.wav

Pre-gap length 0:00:00.50

Peak level 63.4 %
Extraction speed 1.9 X
Track quality 99.9 %
Test CRC B5676CFB
Copy CRC B5676CFB
Accurately ripped (confidence 4) [FF070856] (AR v2)
Copy OK


All tracks accurately ripped

No errors occurred

End of status report

–– CUETools DB Plugin V2.1.4

[CTDB TOCID: qWIA.RlZpo9r7LTb3k3yka9EtCs-] found
Submit result: qWIA.RlZpo9r7LTb3k3yka9EtCs- has been confirmed
Track | CTDB Status
1 | (4/4) Accurately ripped
2 | (4/4) Accurately ripped
3 | (4/4) Accurately ripped
4 | (4/4) Accurately ripped
5 | (4/4) Accurately ripped
6 | (4/4) Accurately ripped
7 | (4/4) Accurately ripped
8 | (4/4) Accurately ripped
9 | (4/4) Accurately ripped
10 | (4/4) Accurately ripped
11 | (4/4) Accurately ripped
12 | (4/4) Accurately ripped
13 | (4/4) Accurately ripped
14 | (2/4) Accurately ripped
15 | (4/4) Accurately ripped
16 | (4/4) Accurately ripped


==== Log checksum 513804673CDCEDE1D48E6D0F5C19658D78D9C12D8759BEF4423D2CA2471A2CFA ====

foobar2000 1.2 / Dynamic Range Meter 1.1.1
log date: 2017-10-23 20:30:41

––––––––––––––––––––––––––––––––––––––––
Analyzed: Abbey Lincoln / Best Of The Jazz Vocalists (Compact Jazz) (1)
Anita O'Day / Best Of The Jazz Vocalists (Compact Jazz) (2)
Betty Carter / Best Of The Jazz Vocalists (Compact Jazz) (3)
Bill Henderson / Best Of The Jazz Vocalists (Compact Jazz) (4)
Billie Holiday / Best Of The Jazz Vocalists (Compact Jazz) (5)
Billy Eckstine / Best Of The Jazz Vocalists (Compact Jazz) (6)
Dinah Washington / Best Of The Jazz Vocalists (Compact Jazz) (7)
Ella Fitzgerald / Best Of The Jazz Vocalists (Compact Jazz) (8)
Helen Merrill / Best Of The Jazz Vocalists (Compact Jazz) (9)
Joe Williams / Best Of The Jazz Vocalists (Compact Jazz) (10)
Jon Hendricks / Best Of The Jazz Vocalists (Compact Jazz) (11)
Louis Armstrong / Best Of The Jazz Vocalists (Compact Jazz) (12)
Mel Torme / Best Of The Jazz Vocalists (Compact Jazz) (13)
Nina Simone / Best Of The Jazz Vocalists (Compact Jazz) (14)
Sarah Vaughan / Best Of The Jazz Vocalists (Compact Jazz) (15)
Shirley Horn / Best Of The Jazz Vocalists (Compact Jazz) (16)
––––––––––––––––––––––––––––––––––––––––

DR Peak RMS Duration Track
––––––––––––––––––––––––––––––––––––––––
DR13 -1.39 dB -18.71 dB 5:47 06-I Got Thunder (And It Rings)
DR13 -0.78 dB -16.64 dB 4:15 05-Sweet Georgia Brown
DR13 -1.26 dB -16.57 dB 4:57 08-That Sunday, That Summer
DR14 -3.55 dB -22.47 dB 3:43 07-The Folks Who Live On The Hill
DR13 -2.60 dB -17.97 dB 3:28 14-I Wished On The Moon
DR9 -5.12 dB -18.08 dB 3:26 04-If You Could See Me Now
DR12 -4.48 dB -18.81 dB 5:20 13-Blue Gardenia
DR11 -2.13 dB -14.44 dB 4:14 01-It Don't Mean A Thing (If It Ain't Got That Swing)
DR13 -2.80 dB -19.52 dB 4:30 03-Summertime
DR15 -0.14 dB -18.73 dB 5:28 15-Too Marvelous For Words
DR12 -2.09 dB -16.40 dB 4:07 12-Shiny Stockings
DR14 -1.63 dB -18.84 dB 5:14 09-Blues In The Night
DR12 -1.35 dB -17.41 dB 3:28 02-Just In Time
DR14 -3.95 dB -19.46 dB 3:37 16-Come Ye
DR9 -3.27 dB -14.08 dB 2:38 10-How High The Moon
DR21 -0.60 dB -24.31 dB 4:14 11-I Got Lost In His Arms
––––––––––––––––––––––––––––––––––––––––

Number of tracks: 16
Official DR value: DR13

Samplerate: 44100 Hz
Channels: 2
Bits per sample: 16
Bitrate: 722 kbps
Codec: FLAC
================================================================================

VA - Compact Jazz: Best of the Jazz Vocalists (1992)

VA - Compact Jazz: Best of the Jazz Vocalists (1992)

All thanks to original releaser - alekow

More interesting music in My Blog