Subcategories
Tags
Language
Tags

VA - For The Good Times: The Songs Of Kris Kristofferson (2021)

Posted By: ciklon5
VA - For The Good Times: The Songs Of Kris Kristofferson (2021)

VA - For The Good Times: The Songs Of Kris Kristofferson (2021)
FLAC (tracks + .cue,log,scans) / MP3 320 kbps | | 176 / 512 Mb
Genre: Rock, Pop, Country, Soul / Label: Ace

Ace's much acclaimed Songwriter Series rolls into 2021 with a long overdue overview of the work of one of the greatest writers of the 20th Century. Kris Kristofferson's catalogue has been visited and revisited on scores of occasions over the past half century, with almost 1000 covers alone of just three songs one of which For The Good Times gives this new 23-track collection its title. (The others are, of course, Me And Bobby McGee and Help Me Make It Through The Night). He may be primarily thought of as a country writer, but Kris songs have been interpreted by artists as diverse as Isaac Hayes, Dean Martin and Scott Walker all of whom are among those featured here. Although he wrote less as demand for his services as an actor with more than 80 films to his credit increased, more than a decade's worth of superior song-writing is covered in this collection, which also includes tracks by Kris' friends and fellow members of the 1990s project that was The Highwaymen - Johnny Cash, Waylon Jennings and Willie Nelson. Songs you'll know well and songs you'll want to get to know well rub shoulders in this exceptional project, brought to you once again with all the care and attention you have come to expect from the Ace Songwriter Series. As always, many of the tracks are making their UK CD debut here. The inevitable bumper booklet, with track-by-track annotation and a raft of images, more than matches the standard of the music contained in For The Good Times.

Track List:
01. Sammi Smith - Help Me Make It Through The Night (2:30)
02. Sam Baker - Sugarman (3:17)
03. Dianne Steinberg - Enough For You (3:49)
04. Jerry Lee Lewis & Shelby Lynne - Here Comes That Rainbow Again (2:07)
05. Dean Martin - Just The Other Side Of Nowhere (2:22)
06. Roy Orbison - Something They Can't Take Away (3:14)
07. Billy Walker & The Tennessee Walkers - From The Bottle To The Bottom (2:44)
08. Cynthia Sheeler - Nobody Wins (3:53)
09. Roger McGuinn - Rock And Roll Time (2:48)
10. The Everly Brothers - Somebody Nobody Knows (3:37)
11. Kris Kristofferson - The Taker (3:16)
12. Donnie Fritts - Prone To Lean (3:36)
13. George Jones - Why Me, Lord (2:56)
14. Lloyd Charmers - Loving Her Was Easier (3:41)
15. Bobby Osborne & The Rocky Top X-Press - Sunday Morning Coming Down (4:25)
16. Roger Miller - Me And Bobby McGee (4:03)
17. Isaac Hayes - For The Good Times (5:23)
18. Hank Williams Jr. - If You Don't Like Hank Williams (2:54)
19. Joan Osborne - Please Don't Tell Me How The Story Ends (4:01)
20. Willie Nelson with Amy Irving - You Show Me Yours (And I'll Show You Mine) (3:15)
21. Johnny Cash - The Junkie And The Juicehead (Minus Me) (3:00)
22. The Walker Brothers - Got To Have You (3:29)
23. Waylon Jennings - To Beat The Devil (4:05)

Exact Audio Copy V1.3 from 2. September 2016

EAC extraction logfile from 7. May 2021, 17:11

Various Artists / For The Good Times: The Songs Of Kris Kristofferson

Used drive : ASUS SDRW-08D2S-U Adapter: 1 ID: 0

Read mode : Secure
Utilize accurate stream : Yes
Defeat audio cache : Yes
Make use of C2 pointers : No

Read offset correction : 6
Overread into Lead-In and Lead-Out : No
Fill up missing offset samples with silence : Yes
Delete leading and trailing silent blocks : No
Null samples used in CRC calculations : Yes
Used interface : Native Win32 interface for Win NT & 2000
Gap handling : Appended to previous track

Used output format : User Defined Encoder
Selected bitrate : 1024 kBit/s
Quality : High
Add ID3 tag : No
Command line compressor : C:\Program Files (x86)\Exact Audio Copy\Flac\flac.exe
Additional command line options : -8 -V -T "ARTIST=%artist%" -T "TITLE=%title%" -T "ALBUM=%albumtitle%" -T "DATE=%year%" -T "TRACKNUMBER=%tracknr%" -T "GENRE=%genre%" -T "PERFORMER=%albuminterpret%" -T "COMPOSER=%composer%" %haslyrics%–tag-from-file=LYRICS="%lyricsfile%"%haslyrics% -T "ALBUMARTIST=%albumartist%" -T "DISCNUMBER=%cdnumber%" -T "TOTALDISCS=%totalcds%" -T "TOTALTRACKS=%numtracks%" -T "COMMENT=%comment%" %source% -o %dest%


TOC of the extracted CD

Track | Start | Length | Start sector | End sector
––––––––––––––––––––––––––––-
1 | 0:00.00 | 2:30.31 | 0 | 11280
2 | 2:30.31 | 3:17.19 | 11281 | 26074
3 | 5:47.50 | 3:49.05 | 26075 | 43254
4 | 9:36.55 | 2:06.63 | 43255 | 52767
5 | 11:43.43 | 2:22.18 | 52768 | 63435
6 | 14:05.61 | 3:14.37 | 63436 | 78022
7 | 17:20.23 | 2:44.11 | 78023 | 90333
8 | 20:04.34 | 3:53.27 | 90334 | 107835
9 | 23:57.61 | 2:48.34 | 107836 | 120469
10 | 26:46.20 | 3:36.59 | 120470 | 136728
11 | 30:23.04 | 3:15.61 | 136729 | 151414
12 | 33:38.65 | 3:36.33 | 151415 | 167647
13 | 37:15.23 | 2:56.24 | 167648 | 180871
14 | 40:11.47 | 3:40.63 | 180872 | 197434
15 | 43:52.35 | 4:24.70 | 197435 | 217304
16 | 48:17.30 | 4:02.44 | 217305 | 235498
17 | 52:19.74 | 5:22.44 | 235499 | 259692
18 | 57:42.43 | 2:54.19 | 259693 | 272761
19 | 60:36.62 | 4:00.68 | 272762 | 290829
20 | 64:37.55 | 3:14.57 | 290830 | 305436
21 | 67:52.37 | 3:00.23 | 305437 | 318959
22 | 70:52.60 | 3:29.24 | 318960 | 334658
23 | 74:22.09 | 4:04.59 | 334659 | 353017


Track 1

Filename C:\Rips\Various Artists - For The Good Times (2021) [FLAC]\01 - Sammi Smith - Help Me Make It Through The Night.wav

Pre-gap length 0:00:02.00

Peak level 96.6 %
Extraction speed 2.1 X
Track quality 99.9 %
Test CRC E113E386
Copy CRC E113E386
Track not present in AccurateRip database
Copy OK

Track 2

Filename C:\Rips\Various Artists - For The Good Times (2021) [FLAC]\02 - Sam Baker - Sugarman.wav

Pre-gap length 0:00:02.28

Peak level 96.2 %
Extraction speed 3.0 X
Track quality 100.0 %
Test CRC 710A19E2
Copy CRC 710A19E2
Track not present in AccurateRip database
Copy OK

Track 3

Filename C:\Rips\Various Artists - For The Good Times (2021) [FLAC]\03 - Dianne Steinberg - Enough For You.wav

Pre-gap length 0:00:01.62

Peak level 96.2 %
Extraction speed 2.8 X
Track quality 99.9 %
Test CRC 31835247
Copy CRC 31835247
Track not present in AccurateRip database
Copy OK

Track 4

Filename C:\Rips\Various Artists - For The Good Times (2021) [FLAC]\04 - Jerry Lee Lewis & Shelby Lynne - Here Comes That Rainbow Again.wav

Pre-gap length 0:00:01.80

Peak level 96.1 %
Extraction speed 3.1 X
Track quality 100.0 %
Test CRC F8FEA4BD
Copy CRC F8FEA4BD
Track not present in AccurateRip database
Copy OK

Track 5

Filename C:\Rips\Various Artists - For The Good Times (2021) [FLAC]\05 - Dean Martin - Just The Other Side Of Nowhere.wav

Pre-gap length 0:00:02.41

Peak level 96.2 %
Extraction speed 3.3 X
Track quality 100.0 %
Test CRC 2E94E2EE
Copy CRC 2E94E2EE
Track not present in AccurateRip database
Copy OK

Track 6

Filename C:\Rips\Various Artists - For The Good Times (2021) [FLAC]\06 - Roy Orbison - Something They Can't Take Away.wav

Pre-gap length 0:00:02.30

Peak level 96.1 %
Extraction speed 3.7 X
Track quality 100.0 %
Test CRC ECE5D234
Copy CRC ECE5D234
Track not present in AccurateRip database
Copy OK

Track 7

Filename C:\Rips\Various Artists - For The Good Times (2021) [FLAC]\07 - Billy Walker & The Tennessee Walkers - From The Bottle To The Bottom.wav

Pre-gap length 0:00:02.25

Peak level 96.2 %
Extraction speed 3.7 X
Track quality 100.0 %
Test CRC 215199D2
Copy CRC 215199D2
Track not present in AccurateRip database
Copy OK

Track 8

Filename C:\Rips\Various Artists - For The Good Times (2021) [FLAC]\08 - Cynthia Sheeler - Nobody Wins.wav

Pre-gap length 0:00:01.69

Peak level 96.1 %
Extraction speed 3.5 X
Track quality 99.9 %
Test CRC 810051A4
Copy CRC 810051A4
Track not present in AccurateRip database
Copy OK

Track 9

Filename C:\Rips\Various Artists - For The Good Times (2021) [FLAC]\09 - Roger McGuinn - Rock And Roll Time.wav

Pre-gap length 0:00:02.20

Peak level 96.2 %
Extraction speed 4.1 X
Track quality 100.0 %
Test CRC 8D6477CB
Copy CRC 8D6477CB
Track not present in AccurateRip database
Copy OK

Track 10

Filename C:\Rips\Various Artists - For The Good Times (2021) [FLAC]\10 - The Everly Brothers - Somebody Nobody Knows.wav

Pre-gap length 0:00:01.92

Peak level 96.2 %
Extraction speed 3.7 X
Track quality 99.9 %
Test CRC AD703F60
Copy CRC AD703F60
Track not present in AccurateRip database
Copy OK

Track 11

Filename C:\Rips\Various Artists - For The Good Times (2021) [FLAC]\11 - Kris Kristofferson - The Taker.wav

Pre-gap length 0:00:02.05

Peak level 89.8 %
Extraction speed 4.5 X
Track quality 100.0 %
Test CRC 1D62F83D
Copy CRC 1D62F83D
Track not present in AccurateRip database
Copy OK

Track 12

Filename C:\Rips\Various Artists - For The Good Times (2021) [FLAC]\12 - Donnie Fritts - Prone To Lean.wav

Pre-gap length 0:00:01.82

Peak level 96.2 %
Extraction speed 3.9 X
Track quality 99.9 %
Test CRC 5E995E78
Copy CRC 5E995E78
Track not present in AccurateRip database
Copy OK

Track 13

Filename C:\Rips\Various Artists - For The Good Times (2021) [FLAC]\13 - George Jones - Why Me, Lord.wav

Pre-gap length 0:00:01.93

Peak level 96.2 %
Extraction speed 4.6 X
Track quality 100.0 %
Test CRC CC5E6AE5
Copy CRC CC5E6AE5
Track not present in AccurateRip database
Copy OK

Track 14

Filename C:\Rips\Various Artists - For The Good Times (2021) [FLAC]\14 - Lloyd Charmers - Loving Her Was Easier.wav

Pre-gap length 0:00:01.97

Peak level 96.1 %
Extraction speed 4.9 X
Track quality 100.0 %
Test CRC 75ABEEC3
Copy CRC 75ABEEC3
Track not present in AccurateRip database
Copy OK

Track 15

Filename C:\Rips\Various Artists - For The Good Times (2021) [FLAC]\15 - Bobby Osborne & The Rocky Top X-Press - Sunday Morning Coming Down.wav

Pre-gap length 0:00:01.76

Peak level 96.1 %
Extraction speed 4.5 X
Track quality 99.9 %
Test CRC 1ED01A25
Copy CRC 1ED01A25
Track not present in AccurateRip database
Copy OK

Track 16

Filename C:\Rips\Various Artists - For The Good Times (2021) [FLAC]\16 - Roger Miller - Me And Bobby McGee.wav

Pre-gap length 0:00:02.01

Peak level 96.2 %
Extraction speed 5.3 X
Track quality 100.0 %
Test CRC 6AAF8EE3
Copy CRC 6AAF8EE3
Track not present in AccurateRip database
Copy OK

Track 17

Filename C:\Rips\Various Artists - For The Good Times (2021) [FLAC]\17 - Isaac Hayes - For The Good Times.wav

Pre-gap length 0:00:01.38

Peak level 96.2 %
Extraction speed 5.7 X
Track quality 100.0 %
Test CRC B32A501D
Copy CRC B32A501D
Track not present in AccurateRip database
Copy OK

Track 18

Filename C:\Rips\Various Artists - For The Good Times (2021) [FLAC]\18 - Hank Williams Jr. - If You Don't Like Hank Williams.wav

Pre-gap length 0:00:02.41

Peak level 85.7 %
Extraction speed 4.3 X
Track quality 99.9 %
Test CRC 42667207
Copy CRC 42667207
Track not present in AccurateRip database
Copy OK

Track 19

Filename C:\Rips\Various Artists - For The Good Times (2021) [FLAC]\19 - Joan Osborne - Please Don't Tell Me How The Story Ends.wav

Pre-gap length 0:00:02.60

Peak level 88.1 %
Extraction speed 5.8 X
Track quality 100.0 %
Test CRC D8E659B9
Copy CRC D8E659B9
Track not present in AccurateRip database
Copy OK

Track 20

Filename C:\Rips\Various Artists - For The Good Times (2021) [FLAC]\20 - Willie Nelson with Amy Irving - You Show Me Yours (And I'll Show You Mine).wav

Pre-gap length 0:00:00.86

Peak level 96.2 %
Extraction speed 5.7 X
Track quality 100.0 %
Test CRC 9E7E93E4
Copy CRC 9E7E93E4
Track not present in AccurateRip database
Copy OK

Track 21

Filename C:\Rips\Various Artists - For The Good Times (2021) [FLAC]\21 - Johnny Cash - The Junkie And The Juicehead (Minus Me).wav

Pre-gap length 0:00:01.21

Peak level 96.3 %
Extraction speed 5.7 X
Track quality 100.0 %
Test CRC 47AC06E2
Copy CRC 47AC06E2
Track not present in AccurateRip database
Copy OK

Track 22

Filename C:\Rips\Various Artists - For The Good Times (2021) [FLAC]\22 - The Walker Brothers - Got To Have You.wav

Pre-gap length 0:00:02.20

Peak level 80.9 %
Extraction speed 6.0 X
Track quality 100.0 %
Test CRC EC41B7C9
Copy CRC EC41B7C9
Track not present in AccurateRip database
Copy OK

Track 23

Filename C:\Rips\Various Artists - For The Good Times (2021) [FLAC]\23 - Waylon Jennings - To Beat The Devil.wav

Pre-gap length 0:00:02.38

Peak level 96.2 %
Extraction speed 6.2 X
Track quality 100.0 %
Test CRC DBF4CBD3
Copy CRC DBF4CBD3
Track not present in AccurateRip database
Copy OK


None of the tracks are present in the AccurateRip database

No errors occurred

End of status report

–– CUETools DB Plugin V2.1.6

[CTDB TOCID: bMgJUL0RShH2mFiujHg.XAoZpDE-] found
Submit result: bMgJUL0RShH2mFiujHg.XAoZpDE- has been confirmed
Track | CTDB Status
1 | (2/2) Accurately ripped
2 | (2/2) Accurately ripped
3 | (2/2) Accurately ripped
4 | (2/2) Accurately ripped
5 | (2/2) Accurately ripped
6 | (2/2) Accurately ripped
7 | (2/2) Accurately ripped
8 | (2/2) Accurately ripped
9 | (2/2) Accurately ripped
10 | (2/2) Accurately ripped
11 | (2/2) Accurately ripped
12 | (2/2) Accurately ripped
13 | (2/2) Accurately ripped
14 | (2/2) Accurately ripped
15 | (2/2) Accurately ripped
16 | (2/2) Accurately ripped
17 | (2/2) Accurately ripped
18 | (2/2) Accurately ripped
19 | (2/2) Accurately ripped
20 | (2/2) Accurately ripped
21 | (2/2) Accurately ripped
22 | (2/2) Accurately ripped
23 | (2/2) Accurately ripped


==== Log checksum 50E2CFBE5D32A5473096C87F883C90C726C6F524FB4DB712E3E5917D09DB3318 ====