Tags
Language
Tags

VA - Instrumental Greats Of The 60's (1990)

Posted By: Designol
VA - Instrumental Greats Of The 60's (1990)

VA - Instrumental Greats Of The 60's (1990)
EAC | FLAC | Tracks (Cue&Log) ~ 390 Mb | Mp3 (CBR320) ~ 208 Mb | Scans included
Label: EMI Music For Pleasure | # CC 260, CDB 7 94226 2 | Time: 01:12:18
Instrumental Pop/Rock, Surf Rock, Beat, Easy Listening

32 Tracks. The Ventures, The Shadows, John Barry Seven, The Fentones, The Dakotas, Sandy Nelson, The Cannons, The Cougars, Norrie Paramor, The Packabeats, The Piltdown Men, B. Bumble & The Stingers, The Nu-Notes, Johnny Dankworth & His Orchestra, The Federals and many more.

VA - Instrumental Greats Of The 60's (1990)


Tracklist:

01. Ventures - Walk Don't Run (2:07)
02. Fentones - The Breeze And I (2:30)
03. Dakotas - The Cruel Sea (2:15)
04. Sandy Nelson - Let There Be Drums (2:19)
05. Cannons - Bush Fire (2:28)
06. Cougars - Saturday Night At The Duckpond (2:15)
07. Norrie Paramor - Theme From A Summer Place (2:40)
08. Ventures - Hawaii Five O (1:53)
09. Packabeats - Gypsy Beat (2:04)
10. Piltdown Men - McDonald's Cave (2:26)
11. B. Bumble & The Stingers - Nut Rocker (2:00)
12. Nu-Notes - Hall Of Mirrors (2:14)
13. Shadows - Man Of Mystery (2:01)
14. John Barry Seven - Hit And Miss (1:59)
15. Ventures - Perfidia (2:04)
16. Dakotas - O Yeh (2:14)
17. Johnny Dankworth & His Orchestra - African Waltz (2:22)
18. Federals - Boot Hill (2:25)
19. Scorpions - Scorpio (2:11)
20. Nu-Notes - Fury (2:00)
21. Red Price Combo - Danger Man Theme (2:07)
22. Beachcomers - Mad Goose (2:27)
23. Gladiators - Bleakhouse (2:21)
24. John Barry Seven - James Bond Theme (1:58)
25. Outlaws - Swingin' Low (2:04)
26. Staccatos - Topaz (2:10)
27. Outlaws - Ambush (2:24)
28. Shadows - Scotch On The Socks (2:18)
29. Dakotas - Magic Carpet (1:55)
30. Fentones - The Mexican (2:33)
31. Packabeats - Big Man (2:29)
32. Shadows - Tommorows Cancelled (3:05)


Exact Audio Copy V1.0 beta 3 from 29. August 2011

EAC extraction logfile from 1. July 2014, 21:52

Various / Instrumental Greats Of The 60's

Used drive : Optiarc DVD RW AD-7280S Adapter: 3 ID: 0

Read mode : Secure
Utilize accurate stream : Yes
Defeat audio cache : Yes
Make use of C2 pointers : No

Read offset correction : 48
Overread into Lead-In and Lead-Out : No
Fill up missing offset samples with silence : Yes
Delete leading and trailing silent blocks : No
Null samples used in CRC calculations : Yes
Used interface : Native Win32 interface for Win NT & 2000
Gap handling : Appended to previous track

Used output format : User Defined Encoder
Selected bitrate : 768 kBit/s
Quality : High
Add ID3 tag : No
Command line compressor : C:\Program Files\Exact Audio Copy\Flac\flac.exe
Additional command line options : -V -8 -T "Genre=%genre%" -T "Artist=%artist%" -T "Title=%title%" -T "Album=%albumtitle%" -T "Date=%year%" -T "Tracknumber=%tracknr%" -T "Comment=%comment%" %source%


TOC of the extracted CD

Track | Start | Length | Start sector | End sector
––––––––––––––––––––––––––––-
1 | 0:00.33 | 2:07.22 | 33 | 9579
2 | 2:07.55 | 2:29.43 | 9580 | 20797
3 | 4:37.23 | 2:15.30 | 20798 | 30952
4 | 6:52.53 | 2:19.12 | 30953 | 41389
5 | 9:11.65 | 2:27.40 | 41390 | 52454
6 | 11:39.30 | 2:14.45 | 52455 | 62549
7 | 13:54.00 | 2:39.53 | 62550 | 74527
8 | 16:33.53 | 1:52.65 | 74528 | 82992
9 | 18:26.43 | 2:03.72 | 82993 | 92289
10 | 20:30.40 | 2:26.28 | 92290 | 103267
11 | 22:56.68 | 2:00.30 | 103268 | 112297
12 | 24:57.23 | 2:13.62 | 112298 | 122334
13 | 27:11.10 | 2:01.23 | 122335 | 131432
14 | 29:12.33 | 1:59.00 | 131433 | 140357
15 | 31:11.33 | 2:04.37 | 140358 | 149694
16 | 33:15.70 | 2:14.15 | 149695 | 159759
17 | 35:30.10 | 2:21.43 | 159760 | 170377
18 | 37:51.53 | 2:24.42 | 170378 | 181219
19 | 40:16.20 | 2:10.45 | 181220 | 191014
20 | 42:26.65 | 1:59.53 | 191015 | 199992
21 | 44:26.43 | 2:07.32 | 199993 | 209549
22 | 46:34.00 | 2:27.33 | 209550 | 220607
23 | 49:01.33 | 2:20.70 | 220608 | 231177
24 | 51:22.28 | 1:57.65 | 231178 | 240017
25 | 53:20.18 | 2:04.22 | 240018 | 249339
26 | 55:24.40 | 2:10.30 | 249340 | 259119
27 | 57:34.70 | 2:23.48 | 259120 | 269892
28 | 59:58.43 | 2:18.10 | 269893 | 280252
29 | 62:16.53 | 1:54.42 | 280253 | 288844
30 | 64:11.20 | 2:33.20 | 288845 | 300339
31 | 66:44.40 | 2:29.05 | 300340 | 311519
32 | 69:13.45 | 3:05.18 | 311520 | 325412


Track 1

Filename D:\CD\Instrumental Greats Of The 60's\01. Ventures - Walk Don't Run.wav

Pre-gap length 0:00:02.33

Peak level 100.0 %
Extraction speed 2.3 X
Track quality 100.0 %
Test CRC 426CD6E2
Copy CRC 426CD6E2
Accurately ripped (confidence 1) [0D76FEF3] (AR v2)
Copy OK

Track 2

Filename D:\CD\Instrumental Greats Of The 60's\02. Fentones - The Breeze And I.wav

Pre-gap length 0:00:01.15

Peak level 93.8 %
Extraction speed 2.5 X
Track quality 100.0 %
Test CRC DA18CE8A
Copy CRC DA18CE8A
Accurately ripped (confidence 1) [B9AD4973] (AR v2)
Copy OK

Track 3

Filename D:\CD\Instrumental Greats Of The 60's\03. Dakotas - The Cruel Sea.wav

Pre-gap length 0:00:00.68

Peak level 92.5 %
Extraction speed 2.6 X
Track quality 100.0 %
Test CRC 3FA5B624
Copy CRC 3FA5B624
Accurately ripped (confidence 1) [8ED7DABA] (AR v2)
Copy OK

Track 4

Filename D:\CD\Instrumental Greats Of The 60's\04. Sandy Nelson - Let There Be Drums.wav

Pre-gap length 0:00:01.25

Peak level 90.9 %
Extraction speed 2.8 X
Track quality 100.0 %
Test CRC 1A7AE48E
Copy CRC 1A7AE48E
Accurately ripped (confidence 1) [F5A44EA4] (AR v2)
Copy OK

Track 5

Filename D:\CD\Instrumental Greats Of The 60's\05. Cannons - Bush Fire.wav

Pre-gap length 0:00:01.42

Peak level 100.0 %
Extraction speed 2.4 X
Track quality 99.9 %
Test CRC C016D39B
Copy CRC C016D39B
Accurately ripped (confidence 1) [F96A8E6B] (AR v2)
Copy OK

Track 6

Filename D:\CD\Instrumental Greats Of The 60's\06. Cougars - Saturday Night At The Duckpond.wav

Pre-gap length 0:00:01.10

Peak level 90.6 %
Extraction speed 3.0 X
Track quality 100.0 %
Test CRC 56ABEF7B
Copy CRC 56ABEF7B
Accurately ripped (confidence 1) [F75A3280] (AR v2)
Copy OK

Track 7

Filename D:\CD\Instrumental Greats Of The 60's\07. Norrie Paramor - Theme From A Summer Place.wav

Pre-gap length 0:00:01.27

Peak level 100.0 %
Extraction speed 2.7 X
Track quality 99.9 %
Test CRC 2383190D
Copy CRC 2383190D
Accurately ripped (confidence 1) [8480B3BE] (AR v2)
Copy OK

Track 8

Filename D:\CD\Instrumental Greats Of The 60's\08. Ventures - Hawaii Five O.wav

Pre-gap length 0:00:00.63

Peak level 100.0 %
Extraction speed 2.5 X
Track quality 99.9 %
Test CRC 570F3C65
Copy CRC 570F3C65
Accurately ripped (confidence 1) [972664F5] (AR v2)
Copy OK

Track 9

Filename D:\CD\Instrumental Greats Of The 60's\09. Packabeats - Gypsy Beat.wav

Pre-gap length 0:00:01.48

Peak level 100.0 %
Extraction speed 3.2 X
Track quality 100.0 %
Test CRC A15AE650
Copy CRC A15AE650
Accurately ripped (confidence 1) [B92F652F] (AR v2)
Copy OK

Track 10

Filename D:\CD\Instrumental Greats Of The 60's\10. Piltdown Men - McDonald's Cave.wav

Pre-gap length 0:00:01.50

Peak level 84.8 %
Extraction speed 3.4 X
Track quality 100.0 %
Test CRC F14CBB71
Copy CRC F14CBB71
Accurately ripped (confidence 1) [29FDEDF3] (AR v2)
Copy OK

Track 11

Filename D:\CD\Instrumental Greats Of The 60's\11. B. Bumble & The Stingers - Nut Rocker.wav

Pre-gap length 0:00:01.05

Peak level 88.8 %
Extraction speed 3.4 X
Track quality 100.0 %
Test CRC 54BE82DE
Copy CRC 54BE82DE
Accurately ripped (confidence 1) [0B0CD378] (AR v2)
Copy OK

Track 12

Filename D:\CD\Instrumental Greats Of The 60's\12. Nu-Notes - Hall Of Mirrors.wav

Pre-gap length 0:00:01.05

Peak level 89.8 %
Extraction speed 3.5 X
Track quality 100.0 %
Test CRC DE1884A0
Copy CRC DE1884A0
Accurately ripped (confidence 1) [AB5D2059] (AR v2)
Copy OK

Track 13

Filename D:\CD\Instrumental Greats Of The 60's\13. Shadows - Man Of Mystery.wav

Pre-gap length 0:00:01.15

Peak level 91.7 %
Extraction speed 3.5 X
Track quality 100.0 %
Test CRC 0226A152
Copy CRC 0226A152
Accurately ripped (confidence 1) [B83958A3] (AR v2)
Copy OK

Track 14

Filename D:\CD\Instrumental Greats Of The 60's\14. John Barry Seven - Hit And Miss.wav

Pre-gap length 0:00:01.00

Peak level 89.0 %
Extraction speed 3.6 X
Track quality 100.0 %
Test CRC 401C82E7
Copy CRC 401C82E7
Accurately ripped (confidence 1) [131B1DE1] (AR v2)
Copy OK

Track 15

Filename D:\CD\Instrumental Greats Of The 60's\15. Ventures - Perfidia.wav

Pre-gap length 0:00:01.15

Peak level 100.0 %
Extraction speed 3.0 X
Track quality 99.9 %
Test CRC 618DBDB6
Copy CRC 618DBDB6
Accurately ripped (confidence 1) [2078EE72] (AR v2)
Copy OK

Track 16

Filename D:\CD\Instrumental Greats Of The 60's\16. Dakotas - O Yeh.wav

Pre-gap length 0:00:01.05

Peak level 93.6 %
Extraction speed 3.8 X
Track quality 100.0 %
Test CRC 805AC435
Copy CRC 805AC435
Accurately ripped (confidence 1) [B9F82D1D] (AR v2)
Copy OK

Track 17

Filename D:\CD\Instrumental Greats Of The 60's\17. Johnny Dankworth & His Orchestra - African Waltz.wav

Pre-gap length 0:00:01.25

Peak level 93.2 %
Extraction speed 3.9 X
Track quality 100.0 %
Test CRC 9572F831
Copy CRC 9572F831
Accurately ripped (confidence 1) [C657DAC0] (AR v2)
Copy OK

Track 18

Filename D:\CD\Instrumental Greats Of The 60's\18. Federals - Boot Hill.wav

Pre-gap length 0:00:01.03

Peak level 92.9 %
Extraction speed 4.1 X
Track quality 100.0 %
Test CRC 66F392B5
Copy CRC 66F392B5
Accurately ripped (confidence 1) [C85B4191] (AR v2)
Copy OK

Track 19

Filename D:\CD\Instrumental Greats Of The 60's\19. Scorpions - Scorpio.wav

Pre-gap length 0:00:01.37

Peak level 98.3 %
Extraction speed 4.1 X
Track quality 100.0 %
Test CRC C9238978
Copy CRC C9238978
Accurately ripped (confidence 1) [30456E9F] (AR v2)
Copy OK

Track 20

Filename D:\CD\Instrumental Greats Of The 60's\20. Nu-Notes - Fury.wav

Pre-gap length 0:00:00.72

Peak level 88.4 %
Extraction speed 4.1 X
Track quality 100.0 %
Test CRC 15CEF565
Copy CRC 15CEF565
Accurately ripped (confidence 1) [41F8FBA8] (AR v2)
Copy OK

Track 21

Filename D:\CD\Instrumental Greats Of The 60's\21. Red Price Combo - Danger Man Theme.wav

Pre-gap length 0:00:00.63

Peak level 88.3 %
Extraction speed 4.2 X
Track quality 100.0 %
Test CRC 6DFB5D76
Copy CRC 6DFB5D76
Accurately ripped (confidence 1) [8292DE68] (AR v2)
Copy OK

Track 22

Filename D:\CD\Instrumental Greats Of The 60's\22. Beachcomers - Mad Goose.wav

Pre-gap length 0:00:01.00

Peak level 82.4 %
Extraction speed 4.4 X
Track quality 100.0 %
Test CRC EAF5947C
Copy CRC EAF5947C
Accurately ripped (confidence 1) [83599340] (AR v2)
Copy OK

Track 23

Filename D:\CD\Instrumental Greats Of The 60's\23. Gladiators - Bleakhouse.wav

Pre-gap length 0:00:01.53

Peak level 86.9 %
Extraction speed 4.4 X
Track quality 100.0 %
Test CRC AB0CC102
Copy CRC AB0CC102
Accurately ripped (confidence 1) [7E01B70A] (AR v2)
Copy OK

Track 24

Filename D:\CD\Instrumental Greats Of The 60's\24. John Barry Seven - James Bond Theme.wav

Pre-gap length 0:00:01.18

Peak level 64.3 %
Extraction speed 3.5 X
Track quality 99.9 %
Test CRC B4074825
Copy CRC B4074825
Accurately ripped (confidence 1) [1968EC14] (AR v2)
Copy OK

Track 25

Filename D:\CD\Instrumental Greats Of The 60's\25. Outlaws - Swingin' Low.wav

Pre-gap length 0:00:01.15

Peak level 95.6 %
Extraction speed 4.4 X
Track quality 100.0 %
Test CRC 3F68C546
Copy CRC 3F68C546
Accurately ripped (confidence 1) [874BFD19] (AR v2)
Copy OK

Track 26

Filename D:\CD\Instrumental Greats Of The 60's\26. Staccatos - Topaz.wav

Pre-gap length 0:00:01.42

Peak level 91.0 %
Extraction speed 4.6 X
Track quality 100.0 %
Test CRC 56782F4C
Copy CRC 56782F4C
Accurately ripped (confidence 1) [379112C2] (AR v2)
Copy OK

Track 27

Filename D:\CD\Instrumental Greats Of The 60's\27. Outlaws - Ambush.wav

Pre-gap length 0:00:01.02

Peak level 96.4 %
Extraction speed 4.7 X
Track quality 100.0 %
Test CRC 7E1BFD31
Copy CRC 7E1BFD31
Accurately ripped (confidence 1) [329994AB] (AR v2)
Copy OK

Track 28

Filename D:\CD\Instrumental Greats Of The 60's\28. Shadows - Scotch On The Socks.wav

Pre-gap length 0:00:00.68

Peak level 100.0 %
Extraction speed 4.0 X
Track quality 99.9 %
Test CRC B484A7C7
Copy CRC B484A7C7
Accurately ripped (confidence 1) [A08FCFD3] (AR v2)
Copy OK

Track 29

Filename D:\CD\Instrumental Greats Of The 60's\29. Dakotas - Magic Carpet.wav

Pre-gap length 0:00:01.25

Peak level 95.6 %
Extraction speed 4.5 X
Track quality 100.0 %
Test CRC 27EF7696
Copy CRC 27EF7696
Accurately ripped (confidence 1) [31A44A49] (AR v2)
Copy OK

Track 30

Filename D:\CD\Instrumental Greats Of The 60's\30. Fentones - The Mexican.wav

Pre-gap length 0:00:01.47

Peak level 91.9 %
Extraction speed 4.9 X
Track quality 100.0 %
Test CRC 82651211
Copy CRC 82651211
Accurately ripped (confidence 1) [AC0E656F] (AR v2)
Copy OK

Track 31

Filename D:\CD\Instrumental Greats Of The 60's\31. Packabeats - Big Man.wav

Pre-gap length 0:00:01.45

Peak level 96.6 %
Extraction speed 4.2 X
Track quality 99.9 %
Test CRC 35AF8AF0
Copy CRC 35AF8AF0
Accurately ripped (confidence 1) [2951D164] (AR v2)
Copy OK

Track 32

Filename D:\CD\Instrumental Greats Of The 60's\32. Shadows - Tommorows Cancelled.wav

Pre-gap length 0:00:01.47

Peak level 97.5 %
Extraction speed 4.5 X
Track quality 99.9 %
Test CRC 53EF2E78
Copy CRC 53EF2E78
Accurately ripped (confidence 1) [03D64620] (AR v2)
Copy OK


All tracks accurately ripped

No errors occurred

End of status report

==== Log checksum 343D37D28B43B3AADF523A7EFED2F604D80349BC9123F53B2D756CBBBA3AC894 ====

[CUETools log; Date: 30.06.2018 4:15:28; Version: 2.1.4]
Pregap length 00:00:33.
[CTDB TOCID: 7PWJf8k8Xj8kD4AUI90VOUcbEUk-] found.
Track | CTDB Status
1 | (10/10) Accurately ripped
2 | (10/10) Accurately ripped
3 | (10/10) Accurately ripped
4 | (10/10) Accurately ripped
5 | (10/10) Accurately ripped
6 | (10/10) Accurately ripped
7 | (10/10) Accurately ripped
8 | (10/10) Accurately ripped
9 | (10/10) Accurately ripped
10 | ( 9/10) Accurately ripped
11 | (10/10) Accurately ripped
12 | (10/10) Accurately ripped
13 | (10/10) Accurately ripped
14 | (10/10) Accurately ripped
15 | ( 9/10) Accurately ripped
16 | (10/10) Accurately ripped
17 | (10/10) Accurately ripped
18 | (10/10) Accurately ripped
19 | (10/10) Accurately ripped
20 | (10/10) Accurately ripped
21 | (10/10) Accurately ripped
22 | ( 9/10) Accurately ripped
23 | (10/10) Accurately ripped
24 | (10/10) Accurately ripped
25 | (10/10) Accurately ripped
26 | (10/10) Accurately ripped
27 | (10/10) Accurately ripped
28 | (10/10) Accurately ripped
29 | (10/10) Accurately ripped
30 | (10/10) Accurately ripped
31 | (10/10) Accurately ripped
32 | (10/10) Accurately ripped
[AccurateRip ID: 00511b49-0729a970-e610f220] found.
Track [ CRC | V2 ] Status
01 [32e3847f|0d76fef3] (0+4/6) Accurately ripped
02 [f9ab8a5a|b9ad4973] (0+4/6) Accurately ripped
03 [65ceb01b|8ed7daba] (0+4/6) Accurately ripped
04 [95b24810|f5a44ea4] (0+4/6) Accurately ripped
05 [b3a9c97d|f96a8e6b] (0+4/6) Accurately ripped
06 [775d2834|f75a3280] (0+4/6) Accurately ripped
07 [7a61639c|8480b3be] (0+4/6) Accurately ripped
08 [f3c30b9b|972664f5] (0+4/6) Accurately ripped
09 [f1d2ff45|b92f652f] (0+4/6) Accurately ripped
10 [123aedd7|29fdedf3] (0+4/6) Accurately ripped
11 [cf8082c1|0b0cd378] (0+4/6) Accurately ripped
12 [bfe613dd|ab5d2059] (0+4/6) Accurately ripped
13 [46e6947c|b83958a3] (0+4/6) Accurately ripped
14 [c0d3dbd2|131b1de1] (0+4/6) Accurately ripped
15 [ed387888|2078ee72] (0+4/6) Accurately ripped
16 [0928522e|b9f82d1d] (0+4/6) Accurately ripped
17 [b22e14f2|c657dac0] (0+4/6) Accurately ripped
18 [9aaec66c|c85b4191] (0+4/6) Accurately ripped
19 [b776e78e|30456e9f] (0+4/6) Accurately ripped
20 [9cf80eba|41f8fba8] (0+4/6) Accurately ripped
21 [01efe730|8292de68] (0+4/6) Accurately ripped
22 [6539b6e1|83599340] (0+4/6) Accurately ripped
23 [79596e1a|7e01b70a] (0+4/6) Accurately ripped
24 [0db09e9e|1968ec14] (0+4/6) Accurately ripped
25 [02f9623e|874bfd19] (0+4/6) Accurately ripped
26 [59809f95|379112c2] (0+4/6) Accurately ripped
27 [0d71afbb|329994ab] (0+4/6) Accurately ripped
28 [5453e559|a08fcfd3] (0+4/6) Accurately ripped
29 [b87f9fc7|31a44a49] (0+4/6) Accurately ripped
30 [2cbf822c|ac0e656f] (0+4/6) Accurately ripped
31 [a101197c|2951d164] (0+4/6) Accurately ripped
32 [86a222e0|03d64620] (0+4/6) Accurately ripped
Offsetted by 143:
01 [6136ca8d] (0/6) No match (V2 was not tested)
02 [9a43eb75] (0/6) No match (V2 was not tested)
03 [f50faea6] (0/6) No match (V2 was not tested)
04 [fe2b0d25] (0/6) No match (V2 was not tested)
05 [aaf204fc] (0/6) No match (V2 was not tested)
06 [62b29b80] (0/6) No match (V2 was not tested)
07 [b55a31cf] (0/6) No match (V2 was not tested)
08 [08fcc7a5] (0/6) No match (V2 was not tested)
09 [c8a5b245] (0/6) No match (V2 was not tested)
10 [55ffc452] (0/6) No match (V2 was not tested)
11 [209eac8c] (0/6) No match (V2 was not tested)
12 [56fb3942] (0/6) No match (V2 was not tested)
13 [15a68b20] (0/6) No match (V2 was not tested)
14 [6053ee93] (0/6) No match (V2 was not tested)
15 [32b4d947] (0/6) No match (V2 was not tested)
16 [433f773f] (0/6) No match (V2 was not tested)
17 [6f806a9b] (0/6) No match (V2 was not tested)
18 [cf1592ac] (0/6) No match (V2 was not tested)
19 [6b3bf6ed] (0/6) No match (V2 was not tested)
20 [5354bdbf] (0/6) No match (V2 was not tested)
21 [7863bbe3] (0/6) No match (V2 was not tested)
22 [e66f7160] (0/6) No match (V2 was not tested)
23 [cc6bd345] (0/6) No match (V2 was not tested)
24 [ebf5700d] (0/6) No match (V2 was not tested)
25 [bb5deb50] (0/6) No match (V2 was not tested)
26 [cc1499cb] (0/6) No match (V2 was not tested)
27 [6126ac02] (0/6) No match (V2 was not tested)
28 [7d2b326e] (0/6) No match (V2 was not tested)
29 [d67bead2] (0/6) No match (V2 was not tested)
30 [8663548d] (0/6) No match (V2 was not tested)
31 [874d5dc7] (0/6) No match (V2 was not tested)
32 [ba754ead] (0/6) No match (V2 was not tested)
Offsetted by 416:
01 [454a21bf] (0/6) No match (V2 was not tested)
02 [ccdb307a] (0/6) No match (V2 was not tested)
03 [d800203b] (0/6) No match (V2 was not tested)
04 [0b6eb3f0] (0/6) No match (V2 was not tested)
05 [f764a51d] (0/6) No match (V2 was not tested)
06 [0cb2d4b4] (0/6) No match (V2 was not tested)
07 [6bc0d2bc] (0/6) No match (V2 was not tested)
08 [48c8175b] (0/6) No match (V2 was not tested)
09 [1cf21f45] (0/6) No match (V2 was not tested)
10 [eea617f7] (0/6) No match (V2 was not tested)
11 [bb7b2ae1] (0/6) No match (V2 was not tested)
12 [bd3addbd] (0/6) No match (V2 was not tested)
13 [5a8961fc] (0/6) No match (V2 was not tested)
14 [edeb5832] (0/6) No match (V2 was not tested)
15 [cea24c28] (0/6) No match (V2 was not tested)
16 [2682ec8e] (0/6) No match (V2 was not tested)
17 [7bd7c852] (0/6) No match (V2 was not tested)
18 [d6085e6c] (0/6) No match (V2 was not tested)
19 [93e2b72e] (0/6) No match (V2 was not tested)
20 [3b1cf49a] (0/6) No match (V2 was not tested)
21 [cee3c650] (0/6) No match (V2 was not tested)
22 [ae903281] (0/6) No match (V2 was not tested)
23 [2531da3a] (0/6) No match (V2 was not tested)
24 [7d04743e] (0/6) No match (V2 was not tested)
25 [787af0fe] (0/6) No match (V2 was not tested)
26 [3274ebd5] (0/6) No match (V2 was not tested)
27 [8c97765b] (0/6) No match (V2 was not tested)
28 [cb235139] (0/6) No match (V2 was not tested)
29 [8417bfe7] (0/6) No match (V2 was not tested)
30 [ebb35a8c] (0/6) No match (V2 was not tested)
31 [84c7b19c] (0/6) No match (V2 was not tested)
32 [a90873c0] (0/6) No match (V2 was not tested)

Track Peak [ CRC32 ] [W/O NULL] [ LOG ]
– 100,0 [422729BD] [A9FA6116]
01 100,0 [426CD6E2] [06636FA6] CRC32
02 93,8 [DA18CE8A] [B8720FCA] CRC32
03 92,5 [3FA5B624] [7BA7FD96] CRC32
04 90,9 [1A7AE48E] [0F627802] CRC32
05 100,0 [C016D39B] [C2A8F0C7] CRC32
06 90,6 [56ABEF7B] [BFE10261] CRC32
07 100,0 [2383190D] [38BC5607] CRC32
08 100,0 [570F3C65] [39C5A511] CRC32
09 100,0 [A15AE650] [37B098E7] CRC32
10 84,8 [F14CBB71] [282BDA6A] CRC32
11 88,8 [54BE82DE] [AE7057A5] CRC32
12 89,8 [DE1884A0] [906B406C] CRC32
13 91,7 [0226A152] [1A51387F] CRC32
14 89,0 [401C82E7] [61DAC8D5] CRC32
15 100,0 [618DBDB6] [20644060] CRC32
16 93,6 [805AC435] [2DB71912] CRC32
17 93,2 [9572F831] [7A824351] CRC32
18 92,9 [66F392B5] [93423F6C] CRC32
19 98,3 [C9238978] [ACA8BBB0] CRC32
20 88,4 [15CEF565] [71EA37FB] CRC32
21 88,3 [6DFB5D76] [8A147F4F] CRC32
22 82,4 [EAF5947C] [F69BD3F3] CRC32
23 86,9 [AB0CC102] [F7A7A6DE] CRC32
24 64,3 [B4074825] [047663A9] CRC32
25 95,6 [3F68C546] [5384B2DE] CRC32
26 91,0 [56782F4C] [08C1AF4A] CRC32
27 96,4 [7E1BFD31] [2F073CD5] CRC32
28 100,0 [B484A7C7] [80F4242E] CRC32
29 95,6 [27EF7696] [5CE42F52] CRC32
30 91,9 [82651211] [E156E606] CRC32
31 96,6 [35AF8AF0] [88142568] CRC32
32 97,5 [53EF2E78] [0383AA6C] CRC32

foobar2000 1.2 / Dynamic Range Meter 1.1.1
log date: 2018-06-30 04:34:13

––––––––––––––––––––––––––––––––––––––––
Analyzed: B. Bumble & The Stingers / Instrumental Greats Of The 60's (1)
Beachcomers / Instrumental Greats Of The 60's (2)
Cannons / Instrumental Greats Of The 60's (3)
Cougars / Instrumental Greats Of The 60's (4)
Dakotas / Instrumental Greats Of The 60's (5-7)
Federals / Instrumental Greats Of The 60's (8)
Fentones / Instrumental Greats Of The 60's (9-10)
Gladiators / Instrumental Greats Of The 60's (11)
John Barry Seven / Instrumental Greats Of The 60's (12-13)
Johnny Dankworth & His Orchestra / Instrumental Greats Of The 60's (14)
Norrie Paramor / Instrumental Greats Of The 60's (15)
Nu-Notes / Instrumental Greats Of The 60's (16-17)
Outlaws / Instrumental Greats Of The 60's (18-19)
Packabeats / Instrumental Greats Of The 60's (20-21)
Piltdown Men / Instrumental Greats Of The 60's (22)
Red Price Combo / Instrumental Greats Of The 60's (23)
Sandy Nelson / Instrumental Greats Of The 60's (24)
Scorpions / Instrumental Greats Of The 60's (25)
Shadows / Instrumental Greats Of The 60's (26-28)
Staccatos / Instrumental Greats Of The 60's (29)
Ventures / Instrumental Greats Of The 60's (30-32)
––––––––––––––––––––––––––––––––––––––––

DR Peak RMS Duration Track
––––––––––––––––––––––––––––––––––––––––
DR11 -1.03 dB -13.27 dB 2:00 11-Nut Rocker
DR11 -1.68 dB -14.04 dB 2:27 22-Mad Goose
DR11 0.00 dB -13.10 dB 2:28 05-Bush Fire
DR11 -0.85 dB -14.12 dB 2:15 06-Saturday Night At The Duckpond
DR9 -0.67 dB -11.60 dB 2:15 03-The Cruel Sea
DR10 -0.57 dB -12.53 dB 2:14 16-O Yeh
DR11 -0.38 dB -12.70 dB 1:55 29-Magic Carpet
DR11 -0.63 dB -14.92 dB 2:25 18-Boot Hill
DR11 -0.55 dB -12.62 dB 2:30 02-The Breeze And I
DR11 -0.73 dB -13.27 dB 2:33 30-The Mexican
DR11 -1.21 dB -14.09 dB 2:21 23-Bleakhouse
DR10 -1.00 dB -12.98 dB 1:59 14-Hit And Miss
DR8 -3.83 dB -14.83 dB 1:58 24-James Bond Theme
DR10 -0.61 dB -13.35 dB 2:22 17-African Waltz
DR12 0.00 dB -15.92 dB 2:40 07-Theme From A Summer Place
DR10 -0.93 dB -12.33 dB 2:14 12-Hall Of Mirrors
DR11 -1.07 dB -13.38 dB 2:00 20-Fury
DR11 -0.39 dB -13.20 dB 2:04 25-Swingin' Low
DR12 -0.32 dB -13.92 dB 2:24 27-Ambush
DR15 0.00 dB -16.83 dB 2:04 09-Gypsy Beat
DR15 -0.29 dB -16.77 dB 2:29 31-Big Man
DR13 -1.43 dB -16.27 dB 2:26 10-McDonald's Cave
DR12 -1.08 dB -14.97 dB 2:07 21-Danger Man Theme
DR12 -0.82 dB -14.81 dB 2:19 04-Let There Be Drums
DR12 -0.14 dB -13.46 dB 2:11 19-Scorpio
DR10 -0.75 dB -12.99 dB 2:01 13-Man Of Mystery
DR13 0.00 dB -13.91 dB 2:18 28-Scotch On The Socks
DR14 -0.22 dB -16.29 dB 3:05 32-Tommorows Cancelled
DR11 -0.82 dB -13.85 dB 2:10 26-Topaz
DR12 0.00 dB -13.13 dB 2:07 01-Walk Don't Run
DR13 0.00 dB -14.66 dB 1:53 08-Hawaii Five O
DR13 0.00 dB -15.85 dB 2:04 15-Perfidia
––––––––––––––––––––––––––––––––––––––––

Number of tracks: 32
Official DR value: DR12

Samplerate: 44100 Hz
Channels: 2
Bits per sample: 16
Bitrate: 854 kbps
Codec: FLAC
================================================================================

VA - Instrumental Greats Of The 60's (1990)

VA - Instrumental Greats Of The 60's (1990)

All thanks to original releaser - bachelor-62

More interesting music in My Blog