Subcategories

VA - Lost Highway: Original Soundtrack (1997) [Re-Up]

Posted By: Efgrapha
VA - Lost Highway: Original Soundtrack (1997) [Re-Up]

VA - Lost Highway: Original Soundtrack (1997)
EAC | FLAC (Tracks) + cue.+log ~ 437 Mb | Mp3, CBR320 kbps ~ 168 Mb | Scans included
Soundtrack, Score, Rock, Industrial | Label: Nothing/Interscope | # INTD-90090 | Time: 01:12:07

The soundtrack to David Lynch's brilliant Lost Highway highlights the evocative gothic nightmares of producer Trent Reznor, whose Nine Inch Nails contribute the single "The Perfect Drug." Along with material from longtime Lynch collaborator Angelo Badalamenti, the set also includes new music from the Smashing Pumpkins, Marilyn Manson and Lou Reed, who offers a taut cover of the Doc Pomus classic "This Magic Moment."

Review by Jason Ankeny, Allmusic.com

~ Film at IMDB
~ Film at Wiki

Tracklist:

01. David Bowie - I'm Deranged [Edit] (02:37)
02. Trent Reznor - Videodrones; Questions (00:44)
03. Nine Inch Nails - The Perfect Drug (05:15)
04. Angelo Badalamenti - Red Bats With Teeth (02:57)
05. Angelo Badalamenti - Haunting & Heartbreaking (02:09)
06. The Smashing Pumpkins - Eye (04:51)
07. Angelo Badalamenti - Dub Driving (03:43)
08. Barry Adamson - Mr. Eddy's Theme 1 (03:31)
09. Lou Reed - This Magic Moment (03:23)
10. Barry Adamson - Mr. Eddy's Theme 2 (02:13)
11. Angelo Badalamenti - Fred & Renee Make Love (02:04)
12. Marilyn Manson - Apple of Sodom (04:26)
13. Antonio Carlos Jobim - Insensatez (02:53)
14. Barry Adamson - Something Wicked This Way Comes [Edit] (02:54)
15. Marilyn Manson - I Put a Spell on You (03:30)
16. Angelo Badalamenti - Fats Revisited (02:31)
17. Angelo Badalamenti - Fred's World (03:01)
18. Rammstein - Rammstein [Edit] (03:26)
19. Barry Adamson - Hollywood Sunset (02:01)
20. Rammstein - Hierate Mich [Edit] (03:02)
21. Angelo Badalamenti - Police (01:40)
22. Trent Reznor - Driver Down (05:18)
23. David Bowie - I'm Deranged (Reprise) (03:48)


EAC extraction logfile from 10. April 2007, 4:59 for CD
Various / Lost Highway

Used drive : HL-DT-STDVDRAM GSA-H10L Adapter: 1 ID: 1
Read mode : Secure with NO C2, accurate stream, disable cache
Read offset correction : 667
Overread into Lead-In and Lead-Out : No

Used output format : C:\Program Files\Exact Audio Copy\FLAC\flac.exe (User Defined Encoder)
192 kBit/s
Additional command line options : -V -8 -T "artist=%a" -T "title=%t" -T "album=%g" -T "date=%y" -T "tracknumber=%n" -T "genre=%m" %s

Other options :
Fill up missing offset samples with silence : Yes
Delete leading and trailing silent blocks : No
Native Win32 interface for Win NT & 2000


Track 1
Filename C:\Documents and Settings\xp\My Documents\filelib\FLAC Rips\Various Artists - Lost Highway\01 - I'm Deranged [Edit].wav

Pre-gap length 0:00:02.00

Peak level 97.7 %
Track quality 99.9 %
Test CRC 96543B01
Copy CRC 96543B01
Copy OK

Track 2
Filename C:\Documents and Settings\xp\My Documents\filelib\FLAC Rips\Various Artists - Lost Highway\02 - Videodrones; Questions.wav

Peak level 97.7 %
Track quality 100.0 %
Test CRC E171E785
Copy CRC E171E785
Copy OK

Track 3
Filename C:\Documents and Settings\xp\My Documents\filelib\FLAC Rips\Various Artists - Lost Highway\03 - The Perfect Drug.wav

Peak level 100.0 %
Track quality 99.9 %
Test CRC A0DB3A56
Copy CRC A0DB3A56
Copy OK

Track 4
Filename C:\Documents and Settings\xp\My Documents\filelib\FLAC Rips\Various Artists - Lost Highway\04 - Red Bats With Teeth.wav

Peak level 97.7 %
Track quality 100.0 %
Test CRC C889C4C7
Copy CRC C889C4C7
Copy OK

Track 5
Filename C:\Documents and Settings\xp\My Documents\filelib\FLAC Rips\Various Artists - Lost Highway\05 - Haunting & Heartbreaking.wav

Peak level 74.4 %
Track quality 100.0 %
Test CRC 08725F38
Copy CRC 08725F38
Copy OK

Track 6
Filename C:\Documents and Settings\xp\My Documents\filelib\FLAC Rips\Various Artists - Lost Highway\06 - Eye.wav

Peak level 97.7 %
Track quality 99.9 %
Test CRC A6DD2D88
Copy CRC A6DD2D88
Copy OK

Track 7
Filename C:\Documents and Settings\xp\My Documents\filelib\FLAC Rips\Various Artists - Lost Highway\07 - Dub Driving.wav

Peak level 100.0 %
Track quality 100.0 %
Test CRC 6156F650
Copy CRC 6156F650
Copy OK

Track 8
Filename C:\Documents and Settings\xp\My Documents\filelib\FLAC Rips\Various Artists - Lost Highway\08 - Mr. Eddy's Theme 1.wav

Peak level 97.7 %
Track quality 100.0 %
Test CRC 7F1B8FAF
Copy CRC 7F1B8FAF
Copy OK

Track 9
Filename C:\Documents and Settings\xp\My Documents\filelib\FLAC Rips\Various Artists - Lost Highway\09 - This Magic Moment.wav

Peak level 96.7 %
Track quality 100.0 %
Test CRC 71EAB152
Copy CRC 71EAB152
Copy OK

Track 10
Filename C:\Documents and Settings\xp\My Documents\filelib\FLAC Rips\Various Artists - Lost Highway\10 - Mr. Eddy's Theme 2.wav

Peak level 97.7 %
Track quality 100.0 %
Test CRC 46576AD9
Copy CRC 46576AD9
Copy OK

Track 11
Filename C:\Documents and Settings\xp\My Documents\filelib\FLAC Rips\Various Artists - Lost Highway\11 - Fred & Renee Make Love.wav

Peak level 97.7 %
Track quality 100.0 %
Test CRC 0173BF5E
Copy CRC 0173BF5E
Copy OK

Track 12
Filename C:\Documents and Settings\xp\My Documents\filelib\FLAC Rips\Various Artists - Lost Highway\12 - Apple of Sodom.wav

Peak level 97.7 %
Track quality 100.0 %
Test CRC 980C2EB7
Copy CRC 980C2EB7
Copy OK

Track 13
Filename C:\Documents and Settings\xp\My Documents\filelib\FLAC Rips\Various Artists - Lost Highway\13 - Insensatez.wav

Pre-gap length 0:00:01.47

Peak level 62.8 %
Track quality 100.0 %
Test CRC 8082600E
Copy CRC 8082600E
Copy OK

Track 14
Filename C:\Documents and Settings\xp\My Documents\filelib\FLAC Rips\Various Artists - Lost Highway\14 - Something Wicked This Way Comes [Edit].wav

Peak level 97.7 %
Track quality 100.0 %
Test CRC 9F7B31F6
Copy CRC 9F7B31F6
Copy OK

Track 15
Filename C:\Documents and Settings\xp\My Documents\filelib\FLAC Rips\Various Artists - Lost Highway\15 - I Put a Spell on You.wav

Pre-gap length 0:00:00.01

Peak level 97.7 %
Track quality 100.0 %
Test CRC C5C16374
Copy CRC C5C16374
Copy OK

Track 16
Filename C:\Documents and Settings\xp\My Documents\filelib\FLAC Rips\Various Artists - Lost Highway\16 - Fats Revisited.wav

Peak level 97.7 %
Track quality 100.0 %
Test CRC 97CB2858
Copy CRC 97CB2858
Copy OK

Track 17
Filename C:\Documents and Settings\xp\My Documents\filelib\FLAC Rips\Various Artists - Lost Highway\17 - Fred's World.wav

Peak level 99.9 %
Track quality 100.0 %
Test CRC A747B97E
Copy CRC A747B97E
Copy OK

Track 18
Filename C:\Documents and Settings\xp\My Documents\filelib\FLAC Rips\Various Artists - Lost Highway\18 - Rammstein [Edit].wav

Peak level 99.6 %
Track quality 100.0 %
Test CRC BD5BC4FA
Copy CRC BD5BC4FA
Copy OK

Track 19
Filename C:\Documents and Settings\xp\My Documents\filelib\FLAC Rips\Various Artists - Lost Highway\19 - Hollywood Sunset.wav

Peak level 97.7 %
Track quality 100.0 %
Test CRC 6DA6DCC0
Copy CRC 6DA6DCC0
Copy OK

Track 20
Filename C:\Documents and Settings\xp\My Documents\filelib\FLAC Rips\Various Artists - Lost Highway\20 - Hierate Mich [Edit].wav

Peak level 97.7 %
Track quality 99.9 %
Test CRC 28378828
Copy CRC 28378828
Copy OK

Track 21
Filename C:\Documents and Settings\xp\My Documents\filelib\FLAC Rips\Various Artists - Lost Highway\21 - Police.wav

Peak level 49.9 %
Track quality 100.0 %
Test CRC B962B6FC
Copy CRC B962B6FC
Copy OK

Track 22
Filename C:\Documents and Settings\xp\My Documents\filelib\FLAC Rips\Various Artists - Lost Highway\22 - Driver Down.wav

Peak level 97.7 %
Track quality 100.0 %
Test CRC DDB2999F
Copy CRC DDB2999F
Copy OK

Track 23
Filename C:\Documents and Settings\xp\My Documents\filelib\FLAC Rips\Various Artists - Lost Highway\23 - I'm Deranged (Reprise).wav

Peak level 100.0 %
Track quality 100.0 %
Test CRC 2F47E30A
Copy CRC 2F47E30A
Copy OK

No errors occured


End of status report

[CUETools log; Date: 15.01.2014 18:27:59; Version: 2.1.4]
[CTDB TOCID: otXB6uLUEOYQv33k0jUMK_.dylA-] found.
Track | CTDB Status
1 | (58/62) Accurately ripped, or (4/62) differs in 2879 samples @00:00:28-00:00:31
2 | (61/62) Accurately ripped
3 | (60/62) Accurately ripped
4 | (57/62) Accurately ripped, or (4/62) differs in 43 samples @02:06:06
5 | (60/62) Accurately ripped
6 | (60/62) Accurately ripped
7 | (60/62) Accurately ripped
8 | (61/62) Accurately ripped
9 | (59/62) Accurately ripped
10 | (61/62) Accurately ripped
11 | (59/62) Accurately ripped
12 | (59/62) Accurately ripped
13 | (60/62) Accurately ripped
14 | (59/62) Accurately ripped
15 | (58/62) Accurately ripped
16 | (59/62) Accurately ripped
17 | (58/62) Accurately ripped
18 | (57/62) Accurately ripped
19 | (59/62) Accurately ripped
20 | (56/62) Accurately ripped
21 | (57/62) Accurately ripped
22 | (54/62) Accurately ripped
23 | (51/62) Accurately ripped, or (1/62) differs in 4269 samples @00:38:67-00:38:68,00:39:13-00:39:14,00:39:34-00:39:35,00:39:55-00:39:56,00:40:01-00:40:02,00:40:22-00:40:23,00:40:42-00:40:43,00:40:63-00:40:64,00:41:09-00:41:10,00:41:30-00:41:31,00:41:51-00:41:52,00:41:72-00:41:73,00:42:18-00:42:19,00:42:39-00:42:40,00:42:60-00:42:61,00:43:05-00:43:06,00:43:26-00:43:27,00:43:47-00:43:48
[AccurateRip ID: 003a8ca4-03d32102-5d10e617] found.
Track [ CRC | V2 ] Status
01 [96e24ce4|b2a75f9d] (047+025/307) Accurately ripped
02 [8995174f|93b09b18] (047+025/317) Accurately ripped
03 [b4519f81|447c7679] (050+025/324) Accurately ripped
04 [541768be|a6e41a7c] (045+025/307) Accurately ripped
05 [d8473843|cb9f98ab] (045+025/310) Accurately ripped
06 [2eadd076|5c707d20] (047+025/316) Accurately ripped
07 [91897a10|8fa5a6c3] (043+025/308) Accurately ripped
08 [ddd225c7|e7fcb3f7] (047+025/309) Accurately ripped
09 [d24fe0e5|6edaf893] (046+024/308) Accurately ripped
10 [bb1f78e9|3a095f1c] (046+025/310) Accurately ripped
11 [46b370d1|5673d8a3] (045+025/310) Accurately ripped
12 [6f5538be|cf1ec314] (045+025/302) Accurately ripped
13 [98f3cf7f|8ecc924d] (046+024/304) Accurately ripped
14 [4d796566|4687d532] (045+024/306) Accurately ripped
15 [ded12f89|aced43b9] (046+025/307) Accurately ripped
16 [d25f7c80|2281fe9e] (045+025/304) Accurately ripped
17 [729f22a0|142ab0f0] (045+024/301) Accurately ripped
18 [2bc91813|3735c503] (046+025/298) Accurately ripped
19 [c847d07a|4b136a9d] (045+025/301) Accurately ripped
20 [b4b19b3e|2099a9f9] (045+024/301) Accurately ripped
21 [2ca2305b|b0329a8a] (046+024/294) Accurately ripped
22 [9b98beb4|6f832060] (042+023/286) Accurately ripped
23 [fdf7a7ee|9108dd1e] (042+024/269) Accurately ripped
Offsetted by 878:
01 [080666cc] (012/307) Accurately ripped
02 [fb86e741] (014/317) Accurately ripped
03 [2a269d35] (013/324) Accurately ripped
04 [692fa3b9] (013/307) Accurately ripped
05 [58b6b90d] (013/310) Accurately ripped
06 [2a9cc9dd] (013/316) Accurately ripped
07 [5a2fdb38] (012/308) Accurately ripped
08 [9e2842bd] (013/309) Accurately ripped
09 [d41fe56e] (012/308) Accurately ripped
10 [fcd5cd79] (012/310) Accurately ripped
11 [6ec96c9e] (013/310) Accurately ripped
12 [60d2e0a0] (012/302) Accurately ripped
13 [274d51eb] (012/304) Accurately ripped
14 [1c48f32e] (013/306) Accurately ripped
15 [3f6e1ac5] (013/307) Accurately ripped
16 [ee1b6f80] (013/304) Accurately ripped
17 [4892a0ad] (012/301) Accurately ripped
18 [ae0834e5] (012/298) Accurately ripped
19 [452f5d2e] (013/301) Accurately ripped
20 [5fbc7a23] (012/301) Accurately ripped
21 [681383c8] (013/294) Accurately ripped
22 [8af4831f] (013/286) Accurately ripped
23 [575f71dc] (012/269) Accurately ripped
Offsetted by 890:
01 [dae54c74] (005/307) Accurately ripped
02 [3c4ad919] (007/317) Accurately ripped
03 [a9d816cd] (007/324) Accurately ripped
04 [bb31f0fc] (005/307) Accurately ripped
05 [ba8b7dc5] (005/310) Accurately ripped
06 [e723d067] (005/316) Accurately ripped
07 [73904479] (005/308) Accurately ripped
08 [1eeaf4f7] (005/309) Accurately ripped
09 [b309f808] (005/308) Accurately ripped
10 [a6dde010] (005/310) Accurately ripped
11 [d38f71b6] (005/310) Accurately ripped
12 [99204c6f] (005/302) Accurately ripped
13 [17ae7b04] (005/304) Accurately ripped
14 [2086913f] (005/306) Accurately ripped
15 [34d6e882] (005/307) Accurately ripped
16 [af890880] (005/304) Accurately ripped
17 [9a561ba5] (005/301) Accurately ripped
18 [f827c3a2] (005/298) Accurately ripped
19 [b368ca9c] (005/301) Accurately ripped
20 [e47e910b] (005/301) Accurately ripped
21 [65938191] (005/294) Accurately ripped
22 [ad898386] (007/286) Accurately ripped
23 [3c0ca84a] (005/269) Accurately ripped
Offsetted by 900:
01 [c3f76513] (118/307) Accurately ripped
02 [09bc703c] (120/317) Accurately ripped
03 [f9e24987] (124/324) Accurately ripped
04 [b54cf97f] (118/307) Accurately ripped
05 [435f6a42] (117/310) Accurately ripped
06 [0e0314d4] (122/316) Accurately ripped
07 [5228775b] (119/308) Accurately ripped
08 [e969ba31] (116/309) Accurately ripped
09 [11d46dcd] (119/308) Accurately ripped
10 [479ab6d2] (119/310) Accurately ripped
11 [2fedf7f1] (118/310) Accurately ripped
12 [d8d1a1f8] (118/302) Accurately ripped
13 [e6cc1cd4] (118/304) Accurately ripped
14 [54647ed4] (119/306) Accurately ripped
15 [b53310de] (119/307) Accurately ripped
16 [609407ee] (118/304) Accurately ripped
17 [d0dfefe3] (116/301) Accurately ripped
18 [9214716f] (114/298) Accurately ripped
19 [6449a4bf] (118/301) Accurately ripped
20 [77531732] (118/301) Accurately ripped
21 [e9cda535] (111/294) Accurately ripped
22 [cdc42e02] (108/286) Accurately ripped
23 [81a812e8] (099/269) Accurately ripped
Offsetted by 2565:
01 [dc128b2d] (000/307) No match (V2 was not tested)
02 [ecc34f3c] (028/317) Accurately ripped
03 [43092bf4] (028/324) Accurately ripped
04 [bbbe2c46] (000/307) No match (V2 was not tested)
05 [1b030d55] (029/310) Accurately ripped
06 [a6a2fc35] (028/316) Accurately ripped
07 [a9c07970] (029/308) Accurately ripped
08 [6c9f31f9] (028/309) Accurately ripped
09 [f5a1a820] (028/308) Accurately ripped
10 [77a2d01a] (028/310) Accurately ripped
11 [509746a6] (029/310) Accurately ripped
12 [37f05813] (026/302) Accurately ripped
13 [417f7f86] (026/304) Accurately ripped
14 [ffe2f64f] (028/306) Accurately ripped
15 [68550b32] (028/307) Accurately ripped
16 [aa836aba] (027/304) Accurately ripped
17 [d0ce83d8] (027/301) Accurately ripped
18 [1959841e] (026/298) Accurately ripped
19 [6842c6f7] (025/301) Accurately ripped
20 [b0d82734] (026/301) Accurately ripped
21 [3e30d71d] (026/294) Accurately ripped
22 [9eb3c117] (025/286) Accurately ripped
23 [3e74bff3] (023/269) Accurately ripped

Track Peak [ CRC32 ] [W/O NULL]
– 99,9 [5F7A2CD1] [73FBC268]
01 97,7 [96543B01] [8AD5A752]
02 97,7 [E171E785] [46AFF0F9]
03 99,9 [A0DB3A56] [0918B9FE]
04 97,7 [C889C4C7] [420DF227]
05 74,4 [08725F38] [A9B6C091]
06 97,7 [A6DD2D88] [518FB794]
07 99,9 [6156F650] [050FDAD2]
08 97,7 [7F1B8FAF] [1A67F92C]
09 96,7 [71EAB152] [AE162A9C]
10 97,7 [46576AD9] [316DC460]
11 97,7 [0173BF5E] [44F2C2EF]
12 97,7 [980C2EB7] [C7E0B18D]
13 62,8 [8082600E] [C11C9C35]
14 97,7 [9F7B31F6] [53EBBAF8]
15 97,7 [C5C16374] [8C733904]
16 97,7 [97CB2858] [14DCC5A3]
17 99,9 [A747B97E] [CDBCB782]
18 99,6 [BD5BC4FA] [0A216460]
19 97,7 [6DA6DCC0] [93FF372A]
20 97,7 [28378828] [0346DBCC]
21 49,9 [B962B6FC] [E702F37D]
22 97,7 [DDB2999F] [601543DA]
23 99,9 [2F47E30A] [7D2566EE]

foobar2000 1.2 / Dynamic Range Meter 1.1.1
log date: 2014-01-15 17:18:30

––––––––––––––––––––––––––––––––––––––––
Analyzed: Angelo Badalamenti / Lost Highway (1-7)
Antonio Carlos Jobim / Lost Highway (8)
Barry Adamson / Lost Highway (9-12)
David Bowie / Lost Highway (13-14)
Lou Reed / Lost Highway (15)
Marilyn Manson / Lost Highway (16-17)
Nine Inch Nails / Lost Highway (18)
Rammstein / Lost Highway (19-20)
The Smashing Pumpkins / Lost Highway (21)
Trent Reznor / Lost Highway (22-23)
––––––––––––––––––––––––––––––––––––––––

DR Peak RMS Duration Track
––––––––––––––––––––––––––––––––––––––––
DR9 -0.20 dB -13.40 dB 2:57 04-Red Bats With Teeth
DR10 -2.57 dB -18.98 dB 2:09 05-Haunting & Heartbreaking
DR15 0.00 dB -17.32 dB 3:43 07-Dub Driving
DR9 -0.20 dB -14.09 dB 2:05 11-Fred & Renee Make Love
DR9 -0.20 dB -12.97 dB 2:32 16-Fats Revisited
DR10 -0.01 dB -14.15 dB 3:01 17-Fred's World
DR11 -6.04 dB -23.18 dB 1:40 21-Police
DR10 -4.03 dB -17.52 dB 2:53 13-Insensatez
DR9 -0.20 dB -12.76 dB 3:31 08-Mr. Eddy's Theme 1
DR12 -0.20 dB -15.91 dB 2:14 10-Mr. Eddy's Theme 2
DR9 -0.20 dB -9.66 dB 2:55 14-Something Wicked This Way Comes [Edit]
DR10 -0.20 dB -11.66 dB 2:01 19-Hollywood Sunset
DR8 -0.20 dB -10.11 dB 2:37 01-I'm Deranged [Edit]
DR8 0.00 dB -10.02 dB 3:48 23-I'm Deranged (Reprise)
DR9 -0.29 dB -10.66 dB 3:24 09-This Magic Moment
DR8 -0.20 dB -10.01 dB 4:27 12-Apple of Sodom
DR5 -0.20 dB -8.56 dB 3:31 15-I Put a Spell on You
DR7 0.00 dB -11.19 dB 5:15 03-The Perfect Drug
DR9 -0.03 dB -10.37 dB 3:26 18-Rammstein [Edit]
DR8 -0.20 dB -9.81 dB 3:03 20-Hierate Mich [Edit]
DR10 -0.20 dB -11.67 dB 4:52 06-Eye
DR7 -0.20 dB -18.14 dB 0:44 02-Videodrones; Questions
DR8 -0.20 dB -10.59 dB 5:18 22-Driver Down
––––––––––––––––––––––––––––––––––––––––

Number of tracks: 23
Official DR value: DR9

Samplerate: 44100 Hz
Channels: 2
Bits per sample: 16
Bitrate: 913 kbps
Codec: FLAC
================================================================================

VA - Lost Highway: Original Soundtrack (1997) [Re-Up]

VA - Lost Highway: Original Soundtrack (1997) [Re-Up]

All thanks to original uploader

More Movies & Soundtracks in Efgrapha Blog