Subcategories

VA - T2 Trainspotting: Original Motion Picture Soundtrack (2017)

Posted By: Designol
VA - T2 Trainspotting: Original Motion Picture Soundtrack (2017)

VA - T2 Trainspotting: Original Motion Picture Soundtrack (2017)
XLD | FLAC | Tracks (Cue&Log) ~ 415 Mb | Scans included | Time: 00:58:44
Soundtrack, Electronic, Rock, Hip-Hop, Rave | Label: Polydor | # 5737941

Like its parent film, T2 Trainspotting’s soundtrack eschews cosy Cool Britannia nostalgia for something weirder and better. The original soundtrack was a sharp mix of cult classics and of-the-moment artists. Rather than get Blur and co back, Danny Boyle has called on a more leftfield lineup of young guns, the likes of Mercury-winning Edinburgh alt hip-hop trio Young Fathers, Brixton scuzz rockers Fat White Family and deliciously demented Irish rappers Rubberbandits. The classic side of things is held up by Queen, Run DMC, Blondie and more, with the whole bookended by Trainspotting’s biggest tracks reborn: a mad-dog Prodigy remix of Iggy’s Lust for Life and Underworld’s Slow Slippy. In our retromaniac world, it might not attain the original’s classic status, but it’s all the better for its bravery.

Review by Emily Mackay, The Guardian

Alongside albums like Blur's Parklife, Massive Attack's Blue Lines, Pulp's Different Class, Portishead's Dummy, and Radiohead's OK Computer, the original Trainspotting soundtrack stands firmly as one of the era-defining records of the '90s. British culture was experiencing a real boom at the time with the establishment-baiting work of Young British Artists like Tracey Emin and Damien Hirst, the rise of influential designers like John Galliano and Alexander McQueen, and the advent of Brit-pop. All of which led to a swathe of self-congratulatory headlines declaring the return and rise of "Cool Britannia." In addition to Danny Boyle's blistering film, the Trainspotting soundtrack seemed to distill a great deal of what made the '90s such a thrilling decade. The heroin chic aesthetic (troublingly popular at the time) was matched by a track listing that resurrected masters of the past while celebrating contemporary rave culture and guitar music. It wasn't just the soundtrack to a film; it was the soundtrack to the hedonism of the final chapter of the 20th century.

Arguably, the cultural homogeny of the '90s has now been replaced with a more fractured, yet nonetheless liberating range in culture. So how have the filmmakers attempted to reconcile the essence of the original with a very different modern landscape? Quite simply, they haven't. The track listing mirrors the original in that it's bookended by Iggy Pop's "Lust for Life" and an alternate take on Underworld's "Born Slippy." The Prodigy's remix of Pop's track isn't a radical departure, and its muscular maximalism undermines the playful sass of the original, and Underworld's sardonically titled "Slow Slippy" is a plodding nod to the original's youthful vim and vigor. Undoubtedly, these re-workings are a deliberate gesture to signal the 20-year gap that now finds our heroes in middle-age. The soundtrack also apes the original in its use of older material, although compared to Lou Reed and New Order, it uses more established pop-bangers like Frankie Goes to Hollywood's "Relax," and Queen's "Radio Ga Ga." Being the filmmaker that he is, Danny Boyle was never going to allow the music to be entirely nostalgic, and one of his most inspired contemporary picks is Fat White Family, who lend their sleazy, ramshackle, psych-punk to the affair with "Whitest Boy on the Beach." Musically and visually, they're the perfect fit for the amoral escapades of a bunch of heroin addicts. Grunge simulators Wolf Alice are also pitched perfectly, providing one of the quieter moments on the record with the excellent "Silk," and Irish comedy hip-hop duo Rubberbandits' "Dad's Best Friend" humorously encapsulates how pathetic middle-age hedonism can be. But the stars of the show are Young Fathers. Their thrilling, visceral, experimental hip-hop feels, appropriately, like the wheels could fall off at any moment, as both the previously released "Get Up " and "Rise or Shine" attest – added to which they contribute the excellent new track "Only God Knows," which is as energized and emotionally invested as anything they've produced. So does it capture the zeitgeist again? Probably not, but it is likely to authentically reignite memories of more wild and youthful times for a certain generation.

Review by Bekki Bemrose, Allmusic.com

VA - T2 Trainspotting: Original Motion Picture Soundtrack (2017)



Tracklist:

01. Iggy Pop - Lust For Life (The Prodigy Remix) [05:00]
02. High Contrast - Shotgun Mouthwash [02:53]
03. Wolf Alice - Silk [04:05]
04. Young Fathers - Get Up [03:50]
05. Frankie Goes To Hollywood - Relax [03:57]
06. Underworld & Ewen Bremner - Eventually But (Spud's Letter To Gail) [02:25]
07. Young Fathers - Only God Knows feat. Leith Congregational Choir [03:52]
08. The Rubberbandits - Dad's Best Friend [03:04]
09. Blondie - Dreaming [03:06]
10. Queen - Radio Ga Ga [05:43]
11. Run-D.M.C. - It's Like That (Run-D.M.C. vs. Jason Nevins) [04:09]
12. The Clash - (White Man) In Hammersmith Palais [04:00]
13. Young Fathers - Rain Or Shine [03:50]
14. Fat White Family - Whitest Boy On The Beach [04:53]
15. Underworld - Slow Slippy [03:50]


X Lossless Decoder version 20161007 (149.3)

XLD extraction logfile from 2017-02-07 17:51:03 +0100

Verschiedene Interpreten / T2 Trainspotting (Original Motion Picture Soundtrack)

Used drive : TS8XDVDS TRANSCEND (revision TW00)
Media type : Pressed CD

Ripper mode : XLD Secure Ripper
Disable audio cache : OK for the drive with a cache less than 1375KiB
Make use of C2 pointers : NO
Read offset correction : 6
Max retry count : 100
Gap status : Analyzed, Appended (except HTOA)

TOC of the extracted CD
Track | Start | Length | Start sector | End sector
––––––––––––––––––––––––––––-
1 | 00:00:00 | 05:00:10 | 0 | 22509
2 | 05:00:10 | 02:53:67 | 22510 | 35551
3 | 07:54:02 | 04:05:14 | 35552 | 53940
4 | 11:59:16 | 03:50:34 | 53941 | 71224
5 | 15:49:50 | 03:57:28 | 71225 | 89027
6 | 19:47:03 | 02:24:73 | 89028 | 99900
7 | 22:12:01 | 03:52:41 | 99901 | 117341
8 | 26:04:42 | 03:04:65 | 117342 | 131206
9 | 29:09:32 | 03:06:09 | 131207 | 145165
10 | 32:15:41 | 05:43:39 | 145166 | 170929
11 | 37:59:05 | 04:09:43 | 170930 | 189647
12 | 42:08:48 | 04:00:38 | 189648 | 207685
13 | 46:09:11 | 03:50:48 | 207686 | 224983
14 | 49:59:59 | 04:53:30 | 224984 | 246988
15 | 54:53:14 | 03:50:57 | 246989 | 264295

AccurateRip Summary
Disc not found in AccurateRip DB.

All Tracks
Album gain : -10.43 dB
Peak : 0.989746
Statistics
Read error : 0
Jitter error (maybe fixed) : 0
Retry sector count : 0
Damaged sector count : 0

Track 01
Filename : /Volumes/LaCie 1 DL/VA -2017- T2 Trainspotting (FLAC)/01 - Lust For Life (The Prodigy Remix).flac
Pre-gap length : 00:02:00

Track gain : -8.38 dB
Peak : 0.989746
CRC32 hash (test run) : 224F34B6
CRC32 hash : 224F34B6
CRC32 hash (skip zero) : 054D9A76
AccurateRip v1 signature : 4FD349C0
AccurateRip v2 signature : B8A71A3B
->Track not present in AccurateRip database.
Statistics
Read error : 0
Jitter error (maybe fixed) : 0
Retry sector count : 0
Damaged sector count : 0

Track 02
Filename : /Volumes/LaCie 1 DL/VA -2017- T2 Trainspotting (FLAC)/02 - Shotgun Mouthwash.flac

Track gain : -9.41 dB
Peak : 0.989746
CRC32 hash (test run) : 3BA34F60
CRC32 hash : 3BA34F60
CRC32 hash (skip zero) : 4D4D40CE
AccurateRip v1 signature : AF954A89
AccurateRip v2 signature : 3B880DC1
->Track not present in AccurateRip database.
Statistics
Read error : 0
Jitter error (maybe fixed) : 0
Retry sector count : 0
Damaged sector count : 0

Track 03
Filename : /Volumes/LaCie 1 DL/VA -2017- T2 Trainspotting (FLAC)/03 - Silk.flac

Track gain : -9.34 dB
Peak : 0.989746
CRC32 hash (test run) : 5D04BBA1
CRC32 hash : 5D04BBA1
CRC32 hash (skip zero) : 8AE31E2C
AccurateRip v1 signature : 0081BE67
AccurateRip v2 signature : 250AB339
->Track not present in AccurateRip database.
Statistics
Read error : 0
Jitter error (maybe fixed) : 0
Retry sector count : 0
Damaged sector count : 0

Track 04
Filename : /Volumes/LaCie 1 DL/VA -2017- T2 Trainspotting (FLAC)/04 - Get Up.flac

Track gain : -9.25 dB
Peak : 0.944092
CRC32 hash (test run) : 7FB044AF
CRC32 hash : 7FB044AF
CRC32 hash (skip zero) : C8B073AC
AccurateRip v1 signature : 7AC91353
AccurateRip v2 signature : 9B815CF4
->Track not present in AccurateRip database.
Statistics
Read error : 0
Jitter error (maybe fixed) : 0
Retry sector count : 0
Damaged sector count : 0

Track 05
Filename : /Volumes/LaCie 1 DL/VA -2017- T2 Trainspotting (FLAC)/05 - Relax.flac

Track gain : -10.09 dB
Peak : 0.989746
CRC32 hash (test run) : C807D79E
CRC32 hash : C807D79E
CRC32 hash (skip zero) : BFBCCEA8
AccurateRip v1 signature : 4B01EDF3
AccurateRip v2 signature : 19AF5E52
->Track not present in AccurateRip database.
Statistics
Read error : 0
Jitter error (maybe fixed) : 0
Retry sector count : 0
Damaged sector count : 0

Track 06
Filename : /Volumes/LaCie 1 DL/VA -2017- T2 Trainspotting (FLAC)/06 - Eventually But (Spud's Letter To Gail).flac

Track gain : -6.72 dB
Peak : 0.960449
CRC32 hash (test run) : 3F872625
CRC32 hash : 3F872625
CRC32 hash (skip zero) : 93B42BF0
AccurateRip v1 signature : 47C84F86
AccurateRip v2 signature : 0DB128BC
->Track not present in AccurateRip database.
Statistics
Read error : 0
Jitter error (maybe fixed) : 0
Retry sector count : 0
Damaged sector count : 0

Track 07
Filename : /Volumes/LaCie 1 DL/VA -2017- T2 Trainspotting (FLAC)/07 - Only God Knows.flac

Track gain : -10.09 dB
Peak : 0.861053
CRC32 hash (test run) : 6CE6877F
CRC32 hash : 6CE6877F
CRC32 hash (skip zero) : A820AFF8
AccurateRip v1 signature : 6027A37A
AccurateRip v2 signature : 5FE3D7A4
->Track not present in AccurateRip database.
Statistics
Read error : 0
Jitter error (maybe fixed) : 0
Retry sector count : 0
Damaged sector count : 0

Track 08
Filename : /Volumes/LaCie 1 DL/VA -2017- T2 Trainspotting (FLAC)/08 - Dad's Best Friend.flac

Track gain : -7.86 dB
Peak : 0.861023
CRC32 hash (test run) : 372E9B42
CRC32 hash : 372E9B42
CRC32 hash (skip zero) : 1B834D35
AccurateRip v1 signature : 7F51B2F6
AccurateRip v2 signature : 2B86B2BA
->Track not present in AccurateRip database.
Statistics
Read error : 0
Jitter error (maybe fixed) : 0
Retry sector count : 0
Damaged sector count : 0

Track 09
Filename : /Volumes/LaCie 1 DL/VA -2017- T2 Trainspotting (FLAC)/09 - Dreaming.flac

Track gain : -10.14 dB
Peak : 0.989746
CRC32 hash (test run) : 1428D5F3
CRC32 hash : 1428D5F3
CRC32 hash (skip zero) : AD0FF8DD
AccurateRip v1 signature : E16217E7
AccurateRip v2 signature : A9AF92A3
->Track not present in AccurateRip database.
Statistics
Read error : 0
Jitter error (maybe fixed) : 0
Retry sector count : 0
Damaged sector count : 0

Track 10
Filename : /Volumes/LaCie 1 DL/VA -2017- T2 Trainspotting (FLAC)/10 - Radio Ga Ga.flac

Track gain : -8.99 dB
Peak : 0.989746
CRC32 hash (test run) : 504E2816
CRC32 hash : 504E2816
CRC32 hash (skip zero) : BD9FB960
AccurateRip v1 signature : FD6F6197
AccurateRip v2 signature : 6FB6E9C2
->Track not present in AccurateRip database.
Statistics
Read error : 0
Jitter error (maybe fixed) : 0
Retry sector count : 0
Damaged sector count : 0

Track 11
Filename : /Volumes/LaCie 1 DL/VA -2017- T2 Trainspotting (FLAC)/11 - It's Like That (Run DMC Vs. Jason Nevins).flac

Track gain : -11.47 dB
Peak : 0.863983
CRC32 hash (test run) : 3DE541B9
CRC32 hash : 3DE541B9
CRC32 hash (skip zero) : 9A2EAF82
AccurateRip v1 signature : 74C170A0
AccurateRip v2 signature : 93EBCF6B
->Track not present in AccurateRip database.
Statistics
Read error : 0
Jitter error (maybe fixed) : 0
Retry sector count : 0
Damaged sector count : 0

Track 12
Filename : /Volumes/LaCie 1 DL/VA -2017- T2 Trainspotting (FLAC)/12 - (White Man) In Hammersmith Palais.flac

Track gain : -11.62 dB
Peak : 0.989746
CRC32 hash (test run) : 6D118269
CRC32 hash : 6D118269
CRC32 hash (skip zero) : 80A2E37A
AccurateRip v1 signature : 52BCE06E
AccurateRip v2 signature : B3EEC549
->Track not present in AccurateRip database.
Statistics
Read error : 0
Jitter error (maybe fixed) : 0
Retry sector count : 0
Damaged sector count : 0

Track 13
Filename : /Volumes/LaCie 1 DL/VA -2017- T2 Trainspotting (FLAC)/13 - Rain Or Shine.flac

Track gain : -10.85 dB
Peak : 0.891296
CRC32 hash (test run) : EC5EC57E
CRC32 hash : EC5EC57E
CRC32 hash (skip zero) : CD740093
AccurateRip v1 signature : B08D6526
AccurateRip v2 signature : DAA93A9E
->Track not present in AccurateRip database.
Statistics
Read error : 0
Jitter error (maybe fixed) : 0
Retry sector count : 0
Damaged sector count : 0

Track 14
Filename : /Volumes/LaCie 1 DL/VA -2017- T2 Trainspotting (FLAC)/14 - Whitest Boy On The Beach.flac

Track gain : -11.94 dB
Peak : 0.989746
CRC32 hash (test run) : BA1A320D
CRC32 hash : BA1A320D
CRC32 hash (skip zero) : A5F2086D
AccurateRip v1 signature : E7F29A00
AccurateRip v2 signature : 267D95FA
->Track not present in AccurateRip database.
Statistics
Read error : 0
Jitter error (maybe fixed) : 0
Retry sector count : 0
Damaged sector count : 0

Track 15
Filename : /Volumes/LaCie 1 DL/VA -2017- T2 Trainspotting (FLAC)/15 - Slow Slippy.flac

Track gain : -6.66 dB
Peak : 0.976440
CRC32 hash (test run) : E980702A
CRC32 hash : E980702A
CRC32 hash (skip zero) : 2C4D3EFA
AccurateRip v1 signature : 0977140E
AccurateRip v2 signature : 3A6DC31A
->Track not present in AccurateRip database.
Statistics
Read error : 0
Jitter error (maybe fixed) : 0
Retry sector count : 0
Damaged sector count : 0

No errors occurred

End of status report

––-BEGIN XLD SIGNATURE––-
laqk7Ml5_zI127ZhBbeS5ogajcRm6ovKudwSvdyNAEpLrq1U6_0MW0gSI3zI4E5aYzHSTsXUp9AVX9e9hiRf3MDWh7OaqmoBmkiqiAq
––-END XLD SIGNATURE––-

foobar2000 1.2 / Dynamic Range Meter 1.1.1
log date: 2017-02-16 06:20:30

––––––––––––––––––––––––––––––––––––––––
Analyzed: Blondie / T2 Trainspotting (Original Motion Picture Soundtrack) (1)
Fat White Family / T2 Trainspotting (Original Motion Picture Soundtrack) (2)
Frankie Goes To Hollywood / T2 Trainspotting (Original Motion Picture Soundtrack) (3)
High Contrast / T2 Trainspotting (Original Motion Picture Soundtrack) (4)
Iggy Pop / T2 Trainspotting (Original Motion Picture Soundtrack) (5)
Queen / T2 Trainspotting (Original Motion Picture Soundtrack) (6)
Run-D.M.C. Vs. Jason Nevins / T2 Trainspotting (Original Motion Picture Soundtrack) (7)
The Clash / T2 Trainspotting (Original Motion Picture Soundtrack) (8)
The Rubberbandits / T2 Trainspotting (Original Motion Picture Soundtrack) (9)
Underworld & Ewen Bremner / T2 Trainspotting (Original Motion Picture Soundtrack) (10)
Underworld / T2 Trainspotting (Original Motion Picture Soundtrack) (11)
Wolf Alice / T2 Trainspotting (Original Motion Picture Soundtrack) (12)
Young Fathers / T2 Trainspotting (Original Motion Picture Soundtrack) (13-15)
––––––––––––––––––––––––––––––––––––––––

DR Peak RMS Duration Track
––––––––––––––––––––––––––––––––––––––––
DR6 -0.09 dB -7.62 dB 3:06 09-Dreaming
DR4 -0.09 dB -6.20 dB 4:53 14-Whitest Boy On The Beach
DR5 -0.09 dB -7.73 dB 3:57 05-Relax
DR6 -0.09 dB -7.54 dB 2:54 02-Shotgun Mouthwash
DR6 -0.09 dB -7.27 dB 5:00 01-Lust For Life (The Prodigy Remix)
DR7 -0.09 dB -8.52 dB 5:44 10-Radio Ga Ga
DR3 -1.27 dB -5.59 dB 4:10 11-It's Like That (Run DMC Vs. Jason Nevins)
DR5 -0.09 dB -7.73 dB 4:01 12-(White Man) In Hammersmith Palais
DR5 -1.30 dB -7.18 dB 3:05 08-Dad's Best Friend
DR9 -0.35 dB -12.45 dB 2:25 06-Eventually But (Spud's Letter To Gail)
DR8 -0.21 dB -10.88 dB 3:51 15-Slow Slippy
DR6 -0.09 dB -10.07 dB 4:05 03-Silk
DR6 -0.50 dB -8.31 dB 3:50 04-Get Up
DR4 -1.30 dB -6.89 dB 3:53 07-Only God Knows
DR4 -1.00 dB -6.09 dB 3:51 13-Rain Or Shine
––––––––––––––––––––––––––––––––––––––––

Number of tracks: 15
Official DR value: DR6

Samplerate: 44100 Hz
Channels: 2
Bits per sample: 16
Bitrate: 954 kbps
Codec: FLAC
================================================================================

VA - T2 Trainspotting: Original Motion Picture Soundtrack (2017)

VA - T2 Trainspotting: Original Motion Picture Soundtrack (2017)

All thanks to original releaser - g3rider

More interesting music in My Blog