Subcategories

VA - The Ultimate Christmas Album, WCBS-FM 101.1, Vol. 4 (1998)

Posted By: Designol
VA - The Ultimate Christmas Album, WCBS-FM 101.1, Vol. 4 (1998)

VA - The Ultimate Christmas Album, WCBS-FM 101.1, Vol. 4 (1998)
25 MORE Great Songs for the 25th of December

EAC | FLAC | Tracks (Cue&Log) ~ 376 Mb | Mp3 (CBR320) ~ 162 Mb | Scans ~ 45 Mb
Label: Collectables Records | # COL-CD-2517 | Time: 01:10:41
Holidays, Pop/Rock, R&B, Rock & Roll, Vocal Pop, Soul

Another installment in Collectables' The Ultimate Christmas Album series, volume four gathers a mix of well-known and offbeat holiday tunes, including Elvis Presley's "Blue Christmas," the Platters' "Winter Wonderland," and Perry Como's "It's Beginning to Look a Lot Like Christmas." Brook Benton's "You're All I Want for Christmas," Percy Faith's "Christmas Is," and Otis Redding's "Merry Christmas Baby" are some of the collection's soulful highlights, while Santo & Johnny's "Twistin' Bells" and Stan Freberg's "Christmas Dragnet" add some novelty to the festivities. Though it's a somewhat uneven collection, The Ultimate Christmas Album, Vol. 4: WCBS 101.1 has enough interesting and classic moments to make it worthwhile for anyone looking to go beyond the season's basic music.

Heather Phares, All Music Guide

With the exception of this past year(1999), from '94-98 New York's Oldies Station's Ultimate Christmas Albums have become an annual holiday event. Each collection contains music we've all grown up with & some songs are rarities you might be hearing for the first time. Vol. 4 opens with Elvis' golden chestnut, Blue Christmas, & also included are Merry Christmas Baby as sung by Otis Redding, plus a hard to find version of Peace On Earth/Little Drummer Boy by David Bowie & Bing Crosby. I could go on & list every tune but won't, you'll just have to take my word for it that this is a great collection that you'll enjoy for many Christmases to come. This month Ultimate Christmas Album 5 will be released, and I anxiously look forward to adding it to my own collection. Get these collections & you're sure to have a really Cool Yule. Highly recommended.

Kim K, Amazon.com

Tracklist:

01. Elvis Presley - Blue Christmas (02:09)
02. The Beach Boys - The Man With All The Toys (01:31)
03. Otis Redding - Merry Christmas Baby (02:30)
04. David Bowie and Bing Crosby - The Little Drummer Boy (02:38)
05. Johnny Maestro & The Brooklyn Bridge - Christmas Is (04:05)
06. Santo & Johnny - Twistin' Bells (02:19)
07. Dodie Stevens - Merry Merry Christmas Baby (02:14)
08. Ray Conniff - The Twelve Days Of Christmas (04:18)
09. Patti LaBelle & The Bluebelles - White Christmas (02:25)
10. Gene Autry - If It Doesn't Snow On Christmas Day (02:45)
11. Brenda Lee - Santa Claus Is Comin' To Town (02:12)
12. John Denver - A Baby Just Like You (02:50)
13. Carla Thomas - Gee Whiz, It's Christmas (02:43)
14. Bobby Vinton - Christmas Eve In My Home Town (02:43)
15. Brook Benton - You're All I Want For Christmas (02:27)
16. Leroy Anderson - Sleigh Ride (02:47)
17. The Platters - Winter Wonderland (02:16)
18. The Lettermen - What Can I Give You This Christmas (02:43)
19. Larry Chance & The Earls - Jingle Bell Rock (02:22)
20. Perry Como (with The Fontane Sisters) - It's Beginning To Look A Lot Like Christmas (02:38)
21. Johnny Maestro & The Brooklyn Bridge - O Holy Night (02:07)
22. Percy Faith - Christmas Is (02:57)
23. Lou Rawls - Have Yourself A Merry Little Christmas (03:39)
24. Frankie Lymon - Silent Night (02:32)
25. Stan Freberg - Christmas Dragnet (06:39)


Exact Audio Copy V1.0 beta 6 from 9. April 2015

EAC extraction logfile from 8. December 2015, 3:59

Various Artists / The Ultimate Christmas Album Volume 4

Used drive : hp DVD-RAM GH82N Adapter: 1 ID: 0

Read mode : Secure
Utilize accurate stream : Yes
Defeat audio cache : Yes
Make use of C2 pointers : No

Read offset correction : 667
Overread into Lead-In and Lead-Out : No
Fill up missing offset samples with silence : Yes
Delete leading and trailing silent blocks : No
Null samples used in CRC calculations : Yes
Used interface : Native Win32 interface for Win NT & 2000
Gap handling : Appended to previous track

Used output format : User Defined Encoder
Selected bitrate : 1024 kBit/s
Quality : High
Add ID3 tag : No
Command line compressor : C:\Program Files (x86)\Exact Audio Copy\Flac\flac.exe
Additional command line options : -8 -V -T "ARTIST=%artist%" -T "TITLE=%title%" -T "ALBUM=%albumtitle%" -T "DATE=%year%" -T "TRACKNUMBER=%tracknr%" -T "TOTALTRACKS=%numtracks%" -T "GENRE=%genre%" -T "ALBUMARTIST=%albumartist%" -T "ALBUM ARTIST=%albumartist%" -T "COMMENT=EAC Secure Mode, Test & Copy, AccurateRip, FLAC -8" %source%


TOC of the extracted CD

Track | Start | Length | Start sector | End sector
––––––––––––––––––––––––––––-
1 | 0:00.30 | 2:09.29 | 30 | 9733
2 | 2:09.59 | 1:31.67 | 9734 | 16625
3 | 3:41.51 | 2:30.59 | 16626 | 27934
4 | 6:12.35 | 2:38.47 | 27935 | 39831
5 | 8:51.07 | 4:05.07 | 39832 | 58213
6 | 12:56.14 | 2:19.50 | 58214 | 68688
7 | 15:15.64 | 2:14.43 | 68689 | 78781
8 | 17:30.32 | 4:18.59 | 78782 | 98190
9 | 21:49.16 | 2:25.73 | 98191 | 109138
10 | 24:15.14 | 2:45.01 | 109139 | 121514
11 | 27:00.15 | 2:12.50 | 121515 | 131464
12 | 29:12.65 | 2:50.11 | 131465 | 144225
13 | 32:03.01 | 2:43.74 | 144226 | 156524
14 | 34:47.00 | 2:43.08 | 156525 | 168757
15 | 37:30.08 | 2:27.08 | 168758 | 179790
16 | 39:57.16 | 2:47.70 | 179791 | 192385
17 | 42:45.11 | 2:16.12 | 192386 | 202597
18 | 45:01.23 | 2:43.69 | 202598 | 214891
19 | 47:45.17 | 2:22.15 | 214892 | 225556
20 | 50:07.32 | 2:38.53 | 225557 | 237459
21 | 52:46.10 | 2:07.21 | 237460 | 247005
22 | 54:53.31 | 2:57.29 | 247006 | 260309
23 | 57:50.60 | 3:39.63 | 260310 | 276797
24 | 61:30.48 | 2:32.13 | 276798 | 288210
25 | 64:02.61 | 6:39.33 | 288211 | 318168


Track 1

Filename C:\EAC\01 - Elvis Presley - Blue Christmas.wav

Pre-gap length 0:00:02.30

Peak level 99.6 %
Extraction speed 1.6 X
Track quality 100.0 %
Test CRC 2A127DC9
Copy CRC 2A127DC9
Accurately ripped (confidence 3) [C38FF56E] (AR v2)
Copy OK

Track 2

Filename C:\EAC\02 - The Beach Boys - The Man With All The Toys.wav

Peak level 100.0 %
Extraction speed 1.5 X
Track quality 100.0 %
Test CRC 09E67B41
Copy CRC 09E67B41
Accurately ripped (confidence 3) [6F4B8186] (AR v2)
Copy OK

Track 3

Filename C:\EAC\03 - Otis Redding - Merry Christmas Baby.wav

Peak level 100.0 %
Extraction speed 1.8 X
Track quality 100.0 %
Test CRC 0570105E
Copy CRC 0570105E
Accurately ripped (confidence 3) [4C435374] (AR v2)
Copy OK

Track 4

Filename C:\EAC\04 - David Bowie and Bing Crosby - The Little Drummer Boy.wav

Peak level 100.0 %
Extraction speed 1.9 X
Track quality 100.0 %
Test CRC 5DCB21E3
Copy CRC 5DCB21E3
Accurately ripped (confidence 3) [E6352025] (AR v2)
Copy OK

Track 5

Filename C:\EAC\05 - Johnny Maestro & The Brooklyn Bridge - Christmas Is.wav

Peak level 100.0 %
Extraction speed 2.3 X
Track quality 100.0 %
Test CRC 524AED30
Copy CRC 524AED30
Accurately ripped (confidence 3) [61900993] (AR v2)
Copy OK

Track 6

Filename C:\EAC\06 - Santo & Johnny - Twistin' Bells.wav

Peak level 100.0 %
Extraction speed 2.1 X
Track quality 100.0 %
Test CRC 016AF843
Copy CRC 016AF843
Accurately ripped (confidence 3) [66B5C632] (AR v2)
Copy OK

Track 7

Filename C:\EAC\07 - Dodie Stevens - Merry Merry Christmas Baby.wav

Peak level 100.0 %
Extraction speed 2.2 X
Track quality 100.0 %
Test CRC 173447EE
Copy CRC 173447EE
Accurately ripped (confidence 3) [D4BD2C7A] (AR v2)
Copy OK

Track 8

Filename C:\EAC\08 - Ray Conniff - The Twelve Days Of Christmas.wav

Peak level 98.7 %
Extraction speed 2.6 X
Track quality 100.0 %
Test CRC C040C47E
Copy CRC C040C47E
Accurately ripped (confidence 3) [879BDD33] (AR v2)
Copy OK

Track 9

Filename C:\EAC\09 - Patti LaBelle & The Bluebelles - White Christmas.wav

Peak level 100.0 %
Extraction speed 2.4 X
Track quality 100.0 %
Test CRC E2996D59
Copy CRC E2996D59
Accurately ripped (confidence 3) [D132DD8E] (AR v2)
Copy OK

Track 10

Filename C:\EAC\10 - Gene Autry - If It Doesn't Snow On Christmas Day.wav

Peak level 100.0 %
Extraction speed 2.2 X
Track quality 99.9 %
Test CRC 4938CC9F
Copy CRC 4938CC9F
Accurately ripped (confidence 3) [4695013A] (AR v2)
Copy OK

Track 11

Filename C:\EAC\11 - Brenda Lee - Santa Claus Is Comin' To Town.wav

Peak level 100.0 %
Extraction speed 2.5 X
Track quality 100.0 %
Test CRC 332D1A1F
Copy CRC 332D1A1F
Accurately ripped (confidence 3) [9198BE0C] (AR v2)
Copy OK

Track 12

Filename C:\EAC\12 - John Denver - A Baby Just Like You.wav

Peak level 100.0 %
Extraction speed 2.8 X
Track quality 100.0 %
Test CRC CF7792B8
Copy CRC CF7792B8
Accurately ripped (confidence 3) [DB31909B] (AR v2)
Copy OK

Track 13

Filename C:\EAC\13 - Carla Thomas - Gee Whiz, It's Christmas.wav

Peak level 100.0 %
Extraction speed 2.3 X
Track quality 99.9 %
Test CRC DD0D5E3E
Copy CRC DD0D5E3E
Accurately ripped (confidence 3) [339D0001] (AR v2)
Copy OK

Track 14

Filename C:\EAC\14 - Bobby Vinton - Christmas Eve In My Home Town.wav

Peak level 100.0 %
Extraction speed 2.8 X
Track quality 100.0 %
Test CRC 43884262
Copy CRC 43884262
Accurately ripped (confidence 3) [D1952443] (AR v2)
Copy OK

Track 15

Filename C:\EAC\15 - Brook Benton - You're All I Want For Christmas.wav

Peak level 100.0 %
Extraction speed 2.8 X
Track quality 100.0 %
Test CRC 32E42C88
Copy CRC 32E42C88
Accurately ripped (confidence 3) [012DF122] (AR v2)
Copy OK

Track 16

Filename C:\EAC\16 - Leroy Anderson - Sleigh Ride.wav

Peak level 97.9 %
Extraction speed 2.9 X
Track quality 100.0 %
Test CRC AF2006C9
Copy CRC AF2006C9
Accurately ripped (confidence 3) [F403019E] (AR v2)
Copy OK

Track 17

Filename C:\EAC\17 - The Platters - Winter Wonderland.wav

Peak level 86.2 %
Extraction speed 3.0 X
Track quality 100.0 %
Test CRC D84F9417
Copy CRC D84F9417
Accurately ripped (confidence 3) [B9429B94] (AR v2)
Copy OK

Track 18

Filename C:\EAC\18 - The Lettermen - What Can I Give You This Christmas.wav

Peak level 100.0 %
Extraction speed 3.0 X
Track quality 100.0 %
Test CRC D8485E13
Copy CRC D8485E13
Accurately ripped (confidence 3) [935D2FF0] (AR v2)
Copy OK

Track 19

Filename C:\EAC\19 - Larry Chance & The Earls - Jingle Bell Rock.wav

Peak level 99.4 %
Extraction speed 3.1 X
Track quality 100.0 %
Test CRC A0B0A328
Copy CRC A0B0A328
Accurately ripped (confidence 3) [83944F16] (AR v2)
Copy OK

Track 20

Filename C:\EAC\20 - Perry Como (with The Fontane Sisters) - It's Beginning To Look A Lot Like Christmas.wav

Peak level 87.9 %
Extraction speed 2.6 X
Track quality 99.9 %
Test CRC 91B117CB
Copy CRC 91B117CB
Accurately ripped (confidence 3) [728AF853] (AR v2)
Copy OK

Track 21

Filename C:\EAC\21 - Johnny Maestro & The Brooklyn Bridge - O Holy Night.wav

Peak level 99.8 %
Extraction speed 3.1 X
Track quality 100.0 %
Test CRC 32DFE711
Copy CRC 32DFE711
Accurately ripped (confidence 3) [F5AE90FE] (AR v2)
Copy OK

Track 22

Filename C:\EAC\22 - Percy Faith - Christmas Is.wav

Peak level 99.2 %
Extraction speed 3.4 X
Track quality 100.0 %
Test CRC C1FACD86
Copy CRC C1FACD86
Accurately ripped (confidence 3) [FEDC43DF] (AR v2)
Copy OK

Track 23

Filename C:\EAC\23 - Lou Rawls - Have Yourself A Merry Little Christmas.wav

Peak level 100.0 %
Extraction speed 3.6 X
Track quality 100.0 %
Test CRC 9E9E3C18
Copy CRC 9E9E3C18
Accurately ripped (confidence 3) [C2FDBC07] (AR v2)
Copy OK

Track 24

Filename C:\EAC\24 - Frankie Lymon - Silent Night.wav

Peak level 100.0 %
Extraction speed 3.5 X
Track quality 100.0 %
Test CRC BCE8F4A1
Copy CRC BCE8F4A1
Accurately ripped (confidence 3) [B261840A] (AR v2)
Copy OK

Track 25

Filename C:\EAC\25 - Stan Freberg - Christmas Dragnet.wav

Peak level 100.0 %
Extraction speed 4.0 X
Track quality 100.0 %
Test CRC 6DC9DF5C
Copy CRC 6DC9DF5C
Accurately ripped (confidence 3) [94EEDD4D] (AR v2)
Copy OK


All tracks accurately ripped

No errors occurred

End of status report

–– CUETools DB Plugin V2.1.6

[CTDB TOCID: ecDlIdI1c7CSyc_jQJV_3gu1xDI-] found
Submit result: already submitted
Track | CTDB Status
1 | (2/9) Accurately ripped, or (6/9) differs in 2182 samples @00:00:39-00:00:42
2 | (9/9) Accurately ripped
3 | (9/9) Accurately ripped
4 | (9/9) Accurately ripped
5 | (8/9) Accurately ripped
6 | (9/9) Accurately ripped
7 | (9/9) Accurately ripped
8 | (9/9) Accurately ripped
9 | (9/9) Accurately ripped
10 | (9/9) Accurately ripped
11 | (9/9) Accurately ripped
12 | (9/9) Accurately ripped
13 | (9/9) Accurately ripped
14 | (9/9) Accurately ripped
15 | (8/9) Accurately ripped
16 | (9/9) Accurately ripped
17 | (9/9) Accurately ripped
18 | (8/9) Accurately ripped
19 | (9/9) Accurately ripped
20 | (9/9) Accurately ripped
21 | (9/9) Accurately ripped
22 | (9/9) Accurately ripped
23 | (9/9) Accurately ripped
24 | (9/9) Accurately ripped
25 | (9/9) Accurately ripped
If you are sure that your rip contains errors, you can use CUETools to repair it.


==== Log checksum C9E9DB3A90C6DA38ECB329FF14769E7AD5B649E4DE58E566922146BCB165ACE4 ====

foobar2000 1.2 / Dynamic Range Meter 1.1.1
log date: 2016-12-01 19:06:51

––––––––––––––––––––––––––––––––––––––––
Analyzed: Bobby Vinton / The Ultimate Christmas Album Volume 4 (1)
Brenda Lee / The Ultimate Christmas Album Volume 4 (2)
Brook Benton / The Ultimate Christmas Album Volume 4 (3)
Carla Thomas / The Ultimate Christmas Album Volume 4 (4)
David Bowie and Bing Crosby / The Ultimate Christmas Album Volume 4 (5)
Dodie Stevens / The Ultimate Christmas Album Volume 4 (6)
Elvis Presley / The Ultimate Christmas Album Volume 4 (7)
Frankie Lymon / The Ultimate Christmas Album Volume 4 (8)
Gene Autry / The Ultimate Christmas Album Volume 4 (9)
John Denver / The Ultimate Christmas Album Volume 4 (10)
Johnny Maestro & The Brooklyn Bridge / The Ultimate Christmas Album Volume 4 (11-12)
Larry Chance & The Earls / The Ultimate Christmas Album Volume 4 (13)
Leroy Anderson / The Ultimate Christmas Album Volume 4 (14)
Lou Rawls / The Ultimate Christmas Album Volume 4 (15)
Otis Redding / The Ultimate Christmas Album Volume 4 (16)
Patti LaBelle & The Bluebelles / The Ultimate Christmas Album Volume 4 (17)
Percy Faith / The Ultimate Christmas Album Volume 4 (18)
Perry Como (with The Fontane Sisters) / The Ultimate Christmas Album Volume 4 (19)
Ray Conniff / The Ultimate Christmas Album Volume 4 (20)
Santo & Johnny / The Ultimate Christmas Album Volume 4 (21)
Stan Freberg / The Ultimate Christmas Album Volume 4 (22)
The Beach Boys / The Ultimate Christmas Album Volume 4 (23)
The Lettermen / The Ultimate Christmas Album Volume 4 (24)
The Platters / The Ultimate Christmas Album Volume 4 (25)
––––––––––––––––––––––––––––––––––––––––

DR Peak RMS Duration Track
––––––––––––––––––––––––––––––––––––––––
DR11 0.00 dB -14.28 dB 2:43 14-Christmas Eve In My Home Town
DR13 0.00 dB -15.51 dB 2:13 11-Santa Claus Is Comin' To Town
DR10 0.00 dB -12.45 dB 2:27 15-You're All I Want For Christmas
DR12 0.00 dB -14.13 dB 2:44 13-Gee Whiz, It's Christmas
DR8 0.00 dB -9.50 dB 2:39 04-The Little Drummer Boy
DR12 0.00 dB -14.23 dB 2:15 07-Merry Merry Christmas Baby
DR11 -0.03 dB -12.31 dB 2:09 01-Blue Christmas
DR10 0.00 dB -14.38 dB 2:32 24-Silent Night
DR11 0.00 dB -12.96 dB 2:45 10-If It Doesn't Snow On Christmas Day
DR11 0.00 dB -13.52 dB 2:50 12-A Baby Just Like You
DR14 0.00 dB -16.72 dB 4:05 05-Christmas Is
DR11 -0.02 dB -14.36 dB 2:07 21-O Holy Night
DR14 -0.04 dB -15.96 dB 2:22 19-Jingle Bell Rock
DR8 -0.18 dB -11.09 dB 2:48 16-Sleigh Ride
DR9 0.00 dB -12.38 dB 3:40 23-Have Yourself A Merry Little Christmas
DR10 0.00 dB -11.70 dB 2:31 03-Merry Christmas Baby
DR9 0.00 dB -13.01 dB 2:26 09-White Christmas
DR8 -0.06 dB -10.50 dB 2:57 22-Christmas Is
DR10 -1.11 dB -12.71 dB 2:39 20-It's Beginning To Look A Lot Like Christmas
DR11 -0.11 dB -13.71 dB 4:19 08-The Twelve Days Of Christmas
DR11 0.00 dB -12.89 dB 2:20 06-Twistin' Bells
DR12 0.00 dB -14.73 dB 6:39 25-Christmas Dragnet
DR12 0.00 dB -14.12 dB 1:32 02-The Man With All The Toys
DR12 0.00 dB -14.28 dB 2:44 18-What Can I Give You This Christmas
DR9 -1.28 dB -12.16 dB 2:16 17-Winter Wonderland
––––––––––––––––––––––––––––––––––––––––

Number of tracks: 25
Official DR value: DR11

Samplerate: 44100 Hz
Channels: 2
Bits per sample: 16
Bitrate: 879 kbps
Codec: FLAC
================================================================================

VA - The Ultimate Christmas Album, WCBS-FM 101.1, Vol. 4 (1998)

VA - The Ultimate Christmas Album, WCBS-FM 101.1, Vol. 4 (1998)