Subcategories

VA - Venus Jazz Wine Bar: Amazing Jazz & Tasty Wine (2013) 2CDs [Re-Up]

Posted By: Designol
VA - Venus Jazz Wine Bar: Amazing Jazz & Tasty Wine (2013) 2CDs [Re-Up]

VA - Venus Jazz Wine Bar: Amazing Jazz & Tasty Wine (2013) 2CDs
EAC | FLAC | Image (Cue&Log) ~ 863 Mb | Mp3 (CBR320) ~ 316 Mb | Scans ~ 49 Mb
Label: Venus | # VHCD-1108 | Time: 02:17:59
Jazz, Lounge, Bop, Cool, Mainstream Jazz, Vocal Jazz

A nice compilation of jazz lounge, to spend the evening with a glass of fine wine.

Tracklist:

CD1:

01. Eddie Higgins Quartet - You'd Be So Nice To Come Home To (06:59)
02. Steve Kuhn Trio - Charade (05:48)
03. Ken Peplowski Quartet - Memories Of You (06:54)
04. Rachel Z Trio - First Time Ever I Saw Your Face (08:01)
05. Aaron Heick - And I Love Her (05:22)
06. Peter Bernstein - Stranger In Paradise (06:48)
07. Ted Rosenthal Trio - Alone Together (05:13)
08. Eddie Higgins With Strings - Moonlight Becomes You (04:43)
09. Eddie Alen Quintet - It's The Night I Like (07:54)
10. Tessa Souter - Beyond The Blue (05:59)
11. Nicki Parrott - Crazy (03:37)
12. Eddie Higgins Trio - Caravan (03:54)

CD2:

01. Phil Woods With Strings - I Get Along Without You Very Well (04:51)
02. Bob Kindred Quartet - In A Sentimental Mood (05:16)
03. Enrico Rava Quartet - Dear Old Stockholm (05:48)
04. Renato Sellani Trio - Besame Mucho (06:49)
05. Barney Wilen - Parlez-moi d'Amour (03:24)
06. Simone Kopmajer - Palace Lights (04:43)
07. Eddie Higgins Quartet - My Foolish Heart (05:27)
08. Cyrille Aimee & Diego Figueiredo - Samois a Moi (03:33)
09. New York Trio & Ken Peplowski - Summertime (07:52)
10. Dino Rubino - The Old Country (06:29)
11. Alexis Cole - When You Wish Upon A Star (04:39)
12. One For All - Whisper Not (07:48)


Exact Audio Copy V1.0 beta 3 from 29. August 2011

EAC extraction logfile from 13. March 2013, 18:37

Various Artists / Venus Jazz Wine Bar (CD 1)

Used drive : Optiarc DVD RW AD-5280S Adapter: 0 ID: 4

Read mode : Secure
Utilize accurate stream : Yes
Defeat audio cache : Yes
Make use of C2 pointers : No

Read offset correction : 48
Overread into Lead-In and Lead-Out : No
Fill up missing offset samples with silence : Yes
Delete leading and trailing silent blocks : No
Null samples used in CRC calculations : Yes
Used interface : Native Win32 interface for Win NT & 2000

Used output format : User Defined Encoder
Selected bitrate : 1024 kBit/s
Quality : High
Add ID3 tag : No
Command line compressor : C:\Program Files (x86)\Exact Audio Copy\Flac\flac.exe
Additional command line options : -V -8 -T "Date=%year%" -T "Genre=%genre%" %source%


TOC of the extracted CD

Track | Start | Length | Start sector | End sector
––––––––––––––––––––––––––––-
1 | 0:00.00 | 6:59.01 | 0 | 31425
2 | 6:59.01 | 5:48.58 | 31426 | 57583
3 | 12:47.59 | 6:54.01 | 57584 | 88634
4 | 19:41.60 | 8:01.02 | 88635 | 124711
5 | 27:42.62 | 5:22.22 | 124712 | 148883
6 | 33:05.09 | 6:48.59 | 148884 | 179542
7 | 39:53.68 | 5:12.74 | 179543 | 203016
8 | 45:06.67 | 4:43.26 | 203017 | 224267
9 | 49:50.18 | 7:54.01 | 224268 | 259818
10 | 57:44.19 | 5:59.18 | 259819 | 286761
11 | 63:43.37 | 3:37.26 | 286762 | 303062
12 | 67:20.63 | 3:54.17 | 303063 | 320629


Range status and errors

Selected range

Filename T:\music_FLAC\Various Artists - Venus Jazz Wine Bar (CD 1).wav

Peak level 100.0 %
Extraction speed 4.6 X
Range quality 100.0 %
Test CRC CC0D45DE
Copy CRC CC0D45DE
Copy OK

No errors occurred


AccurateRip summary

Track 1 not present in database
Track 2 not present in database
Track 3 not present in database
Track 4 not present in database
Track 5 not present in database
Track 6 not present in database
Track 7 not present in database
Track 8 not present in database
Track 9 not present in database
Track 10 not present in database
Track 11 not present in database
Track 12 not present in database

None of the tracks are present in the AccurateRip database

End of status report

–– CUETools DB Plugin V2.1.4

[CTDB TOCID: e70vd6u3oC2OH2h1x7qWntTZIB0-] found
Submit result: already submitted
Track | CTDB Status
1 | (1/1) Accurately ripped
2 | (1/1) Accurately ripped
3 | (1/1) Accurately ripped
4 | (1/1) Accurately ripped
5 | (1/1) Accurately ripped
6 | (1/1) Accurately ripped
7 | (1/1) Accurately ripped
8 | (1/1) Accurately ripped
9 | (1/1) Accurately ripped
10 | (1/1) Accurately ripped
11 | (1/1) Accurately ripped
12 | (1/1) Accurately ripped


==== Log checksum AE3671693D7E621B4E2EB5D675603AD4964333098A5BC0BF5A09F041BB9EF84A ====

foobar2000 1.2 / Dynamic Range Meter 1.1.1
log date: 2013-10-11 19:50:47

––––––––––––––––––––––––––––––––––––––––
Analyzed: Aaron Heick / Venus Jazz Wine Bar (CD 1) (1)
Eddie Alen Quintet / Venus Jazz Wine Bar (CD 1) (2)
––––––––––––––––––––––––––––––––––––––––

DR Peak RMS Duration Track
––––––––––––––––––––––––––––––––––––––––
DR7 0.00 dB -9.02 dB 5:22 05-And I Love Her
DR7 0.00 dB -9.53 dB 7:54 09-It's The Night I Like
––––––––––––––––––––––––––––––––––––––––

Number of tracks: 2
Official DR value: DR7

Samplerate: 44100 Hz
Channels: 2
Bits per sample: 16
Bitrate: 886 kbps
Codec: FLAC
================================================================================

––––––––––––––––––––––––––––––––––––––––
Analyzed: Eddie Higgins Quartet / Venus Jazz Wine Bar (CD 1) (1)
Eddie Higgins Trio / Venus Jazz Wine Bar (CD 1) (2)
––––––––––––––––––––––––––––––––––––––––

DR Peak RMS Duration Track
––––––––––––––––––––––––––––––––––––––––
DR6 0.00 dB -8.32 dB 6:59 01-You'd Be So Nice To Come Home To
DR6 0.00 dB -7.69 dB 3:54 12-Caravan
––––––––––––––––––––––––––––––––––––––––

Number of tracks: 2
Official DR value: DR6

Samplerate: 44100 Hz
Channels: 2
Bits per sample: 16
Bitrate: 886 kbps
Codec: FLAC
================================================================================

––––––––––––––––––––––––––––––––––––––––
Statistics for: 08-Moonlight Becomes You
Number of samples: 12495588
Duration: 4:43
––––––––––––––––––––––––––––––––––––––––

Left Right

Peak Value: 0.00 dB –- -0.05 dB
Avg RMS: -7.89 dB –- -9.72 dB
DR channel: 6.29 dB –- 7.95 dB
––––––––––––––––––––––––––––––––––––––––

Official DR Value: DR7

Samplerate: 44100 Hz
Channels: 2
Bits per sample: 16
Bitrate: 886 kbps
Codec: FLAC
================================================================================
––––––––––––––––––––––––––––––––––––––––
Analyzed: Ken Peplowski Quartet / Venus Jazz Wine Bar (CD 1) (1)
Nicki Parrott / Venus Jazz Wine Bar (CD 1) (2)
––––––––––––––––––––––––––––––––––––––––

DR Peak RMS Duration Track
––––––––––––––––––––––––––––––––––––––––
DR7 -0.03 dB -10.25 dB 6:54 03-Memories Of You
DR6 0.00 dB -7.22 dB 3:37 11-Crazy
––––––––––––––––––––––––––––––––––––––––

Number of tracks: 2
Official DR value: DR7

Samplerate: 44100 Hz
Channels: 2
Bits per sample: 16
Bitrate: 886 kbps
Codec: FLAC
================================================================================

––––––––––––––––––––––––––––––––––––––––
Statistics for: 06-Stranger In Paradise
Number of samples: 18027492
Duration: 6:49
––––––––––––––––––––––––––––––––––––––––

Left Right

Peak Value: 0.00 dB –- 0.00 dB
Avg RMS: -8.59 dB –- -9.30 dB
DR channel: 6.09 dB –- 6.43 dB
––––––––––––––––––––––––––––––––––––––––

Official DR Value: DR6

Samplerate: 44100 Hz
Channels: 2
Bits per sample: 16
Bitrate: 886 kbps
Codec: FLAC
================================================================================
––––––––––––––––––––––––––––––––––––––––
Statistics for: 04-First Time Ever I Saw Your Face
Number of samples: 21213276
Duration: 8:01
––––––––––––––––––––––––––––––––––––––––

Left Right

Peak Value: 0.00 dB –- 0.00 dB
Avg RMS: -8.88 dB –- -9.77 dB
DR channel: 6.85 dB –- 7.74 dB
––––––––––––––––––––––––––––––––––––––––

Official DR Value: DR7

Samplerate: 44100 Hz
Channels: 2
Bits per sample: 16
Bitrate: 886 kbps
Codec: FLAC
================================================================================
––––––––––––––––––––––––––––––––––––––––
Analyzed: Steve Kuhn Trio / Venus Jazz Wine Bar (CD 1) (1)
Ted Rosenthal Trio / Venus Jazz Wine Bar (CD 1) (2)
Tessa Souter / Venus Jazz Wine Bar (CD 1) (3)
––––––––––––––––––––––––––––––––––––––––

DR Peak RMS Duration Track
––––––––––––––––––––––––––––––––––––––––
DR7 0.00 dB -9.77 dB 5:49 02-Charade
DR8 -0.07 dB -10.38 dB 5:13 07-Alone Together
DR6 -0.24 dB -8.23 dB 5:59 10-Beyond The Blue
––––––––––––––––––––––––––––––––––––––––

Number of tracks: 3
Official DR value: DR7

Samplerate: 44100 Hz
Channels: 2
Bits per sample: 16
Bitrate: 886 kbps
Codec: FLAC
================================================================================


Exact Audio Copy V1.0 beta 3 from 29. August 2011

EAC extraction logfile from 13. March 2013, 19:49

Various Artists / Venus Jazz Wine Bar (CD 2)

Used drive : Optiarc DVD RW AD-5280S Adapter: 0 ID: 4

Read mode : Secure
Utilize accurate stream : Yes
Defeat audio cache : Yes
Make use of C2 pointers : No

Read offset correction : 48
Overread into Lead-In and Lead-Out : No
Fill up missing offset samples with silence : Yes
Delete leading and trailing silent blocks : No
Null samples used in CRC calculations : Yes
Used interface : Native Win32 interface for Win NT & 2000

Used output format : User Defined Encoder
Selected bitrate : 1024 kBit/s
Quality : High
Add ID3 tag : No
Command line compressor : C:\Program Files (x86)\Exact Audio Copy\Flac\flac.exe
Additional command line options : -V -8 -T "Date=%year%" -T "Genre=%genre%" %source%


TOC of the extracted CD

Track | Start | Length | Start sector | End sector
––––––––––––––––––––––––––––-
1 | 0:00.00 | 4:51.03 | 0 | 21827
2 | 4:51.03 | 5:16.01 | 21828 | 45528
3 | 10:07.04 | 5:48.69 | 45529 | 71697
4 | 15:55.73 | 6:49.27 | 71698 | 102399
5 | 22:45.25 | 3:24.64 | 102400 | 117763
6 | 26:10.14 | 4:43.40 | 117764 | 139028
7 | 30:53.54 | 5:27.13 | 139029 | 163566
8 | 36:20.67 | 3:33.63 | 163567 | 179604
9 | 39:54.55 | 7:52.05 | 179605 | 215009
10 | 47:46.60 | 6:29.00 | 215010 | 244184
11 | 54:15.60 | 4:39.43 | 244185 | 265152
12 | 58:55.28 | 7:48.18 | 265153 | 300270


Range status and errors

Selected range

Filename T:\music_FLAC\Various Artists - Venus Jazz Wine Bar (CD 2).wav

Peak level 100.0 %
Extraction speed 4.3 X
Range quality 99.9 %
Test CRC CDC04B26
Copy CRC CDC04B26
Copy OK

No errors occurred


AccurateRip summary

Track 1 not present in database
Track 2 not present in database
Track 3 not present in database
Track 4 not present in database
Track 5 not present in database
Track 6 not present in database
Track 7 not present in database
Track 8 not present in database
Track 9 not present in database
Track 10 not present in database
Track 11 not present in database
Track 12 not present in database

None of the tracks are present in the AccurateRip database

End of status report

–– CUETools DB Plugin V2.1.4

[CTDB TOCID: kyh0DUZgUbvQsX6jmMN0TQAugEA-] disk not present in database
Submit result: kyh0DUZgUbvQsX6jmMN0TQAugEA- has been uploaded


==== Log checksum A666E3EC2F57A3674DAF0FD0B3D71DF8D0C5E31554723988934B35A16A80BAF6 ====

foobar2000 1.2 / Dynamic Range Meter 1.1.1
log date: 2013-10-11 19:51:06

––––––––––––––––––––––––––––––––––––––––
Statistics for: 05-Parlez-moi d'Amour
Number of samples: 9034032
Duration: 3:25
––––––––––––––––––––––––––––––––––––––––

Left Right

Peak Value: -0.07 dB –- -0.18 dB
Avg RMS: -7.70 dB –- -7.63 dB
DR channel: 6.37 dB –- 6.41 dB
––––––––––––––––––––––––––––––––––––––––

Official DR Value: DR6

Samplerate: 44100 Hz
Channels: 2
Bits per sample: 16
Bitrate: 862 kbps
Codec: FLAC
================================================================================
––––––––––––––––––––––––––––––––––––––––
Analyzed: Bob Kindred Quartet / Venus Jazz Wine Bar (CD 2) (1)
Cyrille Aimee & Diego Figueiredo / Venus Jazz Wine Bar (CD 2) (2)
Dino Rubino / Venus Jazz Wine Bar (CD 2) (3)
––––––––––––––––––––––––––––––––––––––––

DR Peak RMS Duration Track
––––––––––––––––––––––––––––––––––––––––
DR7 0.00 dB -9.20 dB 5:16 02-In A Sentimental Mood
DR6 -0.16 dB -7.57 dB 3:34 08-Samois a Moi
DR7 0.00 dB -8.86 dB 6:29 10-The Old Country
––––––––––––––––––––––––––––––––––––––––

Number of tracks: 3
Official DR value: DR7

Samplerate: 44100 Hz
Channels: 2
Bits per sample: 16
Bitrate: 862 kbps
Codec: FLAC
================================================================================

––––––––––––––––––––––––––––––––––––––––
Statistics for: 07-My Foolish Heart
Number of samples: 14428344
Duration: 5:27
––––––––––––––––––––––––––––––––––––––––

Left Right

Peak Value: 0.00 dB –- 0.00 dB
Avg RMS: -9.62 dB –- -10.50 dB
DR channel: 7.20 dB –- 7.62 dB
––––––––––––––––––––––––––––––––––––––––

Official DR Value: DR7

Samplerate: 44100 Hz
Channels: 2
Bits per sample: 16
Bitrate: 862 kbps
Codec: FLAC
================================================================================
––––––––––––––––––––––––––––––––––––––––
Analyzed: Enrico Rava Quartet / Venus Jazz Wine Bar (CD 2) (1)
New York Trio & Ken Peplowski / Venus Jazz Wine Bar (CD 2) (2)
One For All / Venus Jazz Wine Bar (CD 2) (3)
––––––––––––––––––––––––––––––––––––––––

DR Peak RMS Duration Track
––––––––––––––––––––––––––––––––––––––––
DR6 0.00 dB -7.57 dB 5:49 03-Dear Old Stockholm
DR8 0.00 dB -9.94 dB 7:52 09-Summertime
DR5 0.00 dB -7.15 dB 7:48 12-Whisper Not
––––––––––––––––––––––––––––––––––––––––

Number of tracks: 3
Official DR value: DR6

Samplerate: 44100 Hz
Channels: 2
Bits per sample: 16
Bitrate: 862 kbps
Codec: FLAC
================================================================================

––––––––––––––––––––––––––––––––––––––––
Analyzed: Phil Woods With Strings / Venus Jazz Wine Bar (CD 2) (1)
Renato Sellani Trio / Venus Jazz Wine Bar (CD 2) (2)
Simone Kopmajer / Venus Jazz Wine Bar (CD 2) (3)
––––––––––––––––––––––––––––––––––––––––

DR Peak RMS Duration Track
––––––––––––––––––––––––––––––––––––––––
DR8 0.00 dB -9.38 dB 4:51 01-I Get Along Without You Very Well
DR7 -0.07 dB -8.96 dB 6:49 04-Besame Mucho
DR7 -0.13 dB -8.21 dB 4:44 06-Palace Lights
––––––––––––––––––––––––––––––––––––––––

Number of tracks: 3
Official DR value: DR7

Samplerate: 44100 Hz
Channels: 2
Bits per sample: 16
Bitrate: 862 kbps
Codec: FLAC
================================================================================
foobar2000 1.2 / Dynamic Range Meter 1.1.1
log date: 2013-10-11 19:51:05

––––––––––––––––––––––––––––––––––––––––
Statistics for: 11-When You Wish Upon A Star
Number of samples: 12329184
Duration: 4:40
––––––––––––––––––––––––––––––––––––––––

Left Right

Peak Value: -0.15 dB –- -0.23 dB
Avg RMS: -9.06 dB –- -9.69 dB
DR channel: 6.56 dB –- 6.68 dB
––––––––––––––––––––––––––––––––––––––––

Official DR Value: DR7

Samplerate: 44100 Hz
Channels: 2
Bits per sample: 16
Bitrate: 862 kbps
Codec: FLAC
================================================================================

VA - Venus Jazz Wine Bar: Amazing Jazz & Tasty Wine (2013) 2CDs [Re-Up]

VA - Venus Jazz Wine Bar: Amazing Jazz & Tasty Wine (2013) 2CDs [Re-Up]

All thanks to original releaser - interdude

More interesting music in My Blog