Subcategories

VA - Exile On Blues Street (2003)

Posted By: Designol
VA - Exile On Blues Street (2003)

VA - Exile On Blues Street (2003)
EAC | FLAC | Image (Cue&Log) ~ 349 Mb | Mp3 (CBR320) ~ 144 Mb | Scans included
Modern Electric Blues, Blues-Rock | Label: Teldec | # CD-83571 | Time: 00:50:14

This disc is an integral part of a series Telarc is doing – taking albums that were big sellers by prominent artists and having an innovative group of solid blues players do their interpretations of a variety of the songs from the original album. They have done this with the Beatles' White Album (calling it The Blues White Album) and Bob Dylan's Blonde on Blonde with good success, which will probably continue with this new interpretation of the Stones' 1972 vintage album. Telarc put together a dynamite "house" band, including Brian Stoltz (ex-Neville Brothers) on guitar and former Double Trouble rhythm section members Tommy Shannon and Chris Layton, and then pulled in many more celebrated artists to handle the leads. the Stones, who started out as a blues and R&B band, always maintained those roots; thus, many of the songs keep their original shape. This is a solid retooling of this classic Stones LP. Telarc has taken the original double disc and picked the songs the artists felt remained truest to their respective traditions and packaged it as a ten-song disc, complete with a cover notes that make it look the same. You probably won't be surprised by the tunes; however, there are some great takes here that will make the listener want to investigate some of the artists they used. Give a listen to Lucky Peterson's version of "Ventilator Blues," or maybe Jeff Lang's rendition of "Sweet Virginia." The contribution of the backing band is solid all the way through. A strong addition to this potentially wonderful series.

Allmusic.com

Tracklist:

01. Lucky Peterson - Ventilator Blues (05:39)
02. Christine Ohlman - All Down The Line (04:24)
03. Tommy Castro - Rip This Joint (03:30)
04. Otis Taylor, Cassie Taylor - Sweet Black Angel (04:03)
05. Jeff Lang - Sweet Virginia (06:17)
06. Andrea Re, Colin James - Tumbling Dice (04:17)
07. Tab Benoit - Shake Your Hips (06:08)
08. Joe Louis Walker - Shine A Light (05:53)
09. Deborah Coleman - Happy (03:20)
10. Jimmy Thackery - Rocks Off (06:37)


Exact Audio Copy V1.0 beta 6 from 9. April 2015

Отчёт EAC об извлечении, выполненном 7. июня 2015, 15:53

VA / Exile On Blues St

Дисковод: SONY CD-RW CRX230ED Adapter: 1 ID: 0

Режим чтения : Достоверность
Использование точного потока : Да
Отключение кэша аудио : Да
Использование указателей C2 : Нет

Коррекция смещения при чтении : 6
Способность читать области Lead-in и Lead-out : Нет
Заполнение пропущенных сэмплов тишиной : Да
Удаление блоков с тишиной в начале и конце : Нет
При вычислениях CRC использовались нулевые сэмплы : Да
Интерфейс : Встроенный Win32-интерфейс для Win NT/2000

Выходной формат : Внутренние WAV-операции
Формат сэмплов : 44.100 Гц; 16 бит; стерео


TOC извлечённого CD

Трек | Старт | Длительность | Начальный сектор | Конечный сектор
––––––––––––––––––––––––––––––––––-
1 | 0:00.00 | 5:39.66 | 0 | 25490
2 | 5:39.66 | 4:24.64 | 25491 | 45354
3 | 10:04.55 | 3:30.53 | 45355 | 61157
4 | 13:35.33 | 4:03.26 | 61158 | 79408
5 | 17:38.59 | 6:17.55 | 79409 | 107738
6 | 23:56.39 | 4:17.50 | 107739 | 127063
7 | 28:14.14 | 6:08.56 | 127064 | 154719
8 | 34:22.70 | 5:53.37 | 154720 | 181231
9 | 40:16.32 | 3:20.09 | 181232 | 196240
10 | 43:36.41 | 6:37.39 | 196241 | 226054


Характеристики диапазона извлечения и сообщения об ошибках

Выбранный диапазон

Имя файла F:\MusicCD\Torrent\VA - Exile On Blues St\VA - Exile On Blues St.wav

Пиковый уровень 100.0 %
Скорость извлечения 8.1 X
Качество диапазона 100.0 %
CRC теста 424078F2
CRC копии 424078F2
Копирование… OK

Ошибок не произошло


AccurateRip: сводка

Трек 1 : извлечено точно (доверие 5) [F50E9632] (AR v2)
Трек 2 : извлечено точно (доверие 5) [222F63B5] (AR v2)
Трек 3 : извлечено точно (доверие 5) [5C528C03] (AR v2)
Трек 4 : извлечено точно (доверие 5) [3DA7B4BD] (AR v2)
Трек 5 : извлечено точно (доверие 5) [E4F066A9] (AR v2)
Трек 6 : извлечено точно (доверие 5) [4A74D660] (AR v2)
Трек 7 : извлечено точно (доверие 5) [12559DB8] (AR v2)
Трек 8 : извлечено точно (доверие 5) [2D98192E] (AR v2)
Трек 9 : извлечено точно (доверие 5) [094B7D9F] (AR v2)
Трек 10 : извлечено точно (доверие 5) [75F47656] (AR v2)

Все треки извлечены точно

Конец отчёта

–– CUETools DB Plugin V2.1.6

[CTDB TOCID: m9SyK0fUn6q.imJNBn..YwnaYvs-] found
Submit result: m9SyK0fUn6q.imJNBn..YwnaYvs- has been confirmed
Track | CTDB Status
1 | (7/7) Accurately ripped
2 | (7/7) Accurately ripped
3 | (7/7) Accurately ripped
4 | (7/7) Accurately ripped
5 | (7/7) Accurately ripped
6 | (7/7) Accurately ripped
7 | (7/7) Accurately ripped
8 | (7/7) Accurately ripped
9 | (7/7) Accurately ripped
10 | (7/7) Accurately ripped


==== Контрольная сумма отчёта 74681937EDADC8B3172742A62B283764F5C00EA84FDDC3A637A6C9F35B300981 ====

foobar2000 1.3.8 / Dynamic Range Meter 1.1.1
log date: 2015-06-08 15:33:30

––––––––––––––––––––––––––––––––––––––––
Analyzed: Christine Ohlman / Exile On Blues St (1)
Deborah Coleman / Exile On Blues St (2)
––––––––––––––––––––––––––––––––––––––––

DR Peak RMS Duration Track
––––––––––––––––––––––––––––––––––––––––
DR10 0.00 dB -11.36 dB 4:25 02-All Down The Line
DR11 0.00 dB -12.06 dB 3:20 09-Happy
––––––––––––––––––––––––––––––––––––––––

Number of tracks: 2
Official DR value: DR10

Samplerate: 44100 Hz
Channels: 2
Bits per sample: 16
Bitrate: 889 kbps
Codec: FLAC
================================================================================

––––––––––––––––––––––––––––––––––––––––
Analyzed: Jeff Lang / Exile On Blues St (1)
Jimmy Thackery / Exile On Blues St (2)
––––––––––––––––––––––––––––––––––––––––

DR Peak RMS Duration Track
––––––––––––––––––––––––––––––––––––––––
DR10 0.00 dB -12.45 dB 6:18 05-Sweet Virginia
DR10 0.00 dB -11.69 dB 6:38 10-Rocks Off
––––––––––––––––––––––––––––––––––––––––

Number of tracks: 2
Official DR value: DR10

Samplerate: 44100 Hz
Channels: 2
Bits per sample: 16
Bitrate: 889 kbps
Codec: FLAC
================================================================================

––––––––––––––––––––––––––––––––––––––––
Statistics for: 08-Shine A Light
Number of samples: 15589056
Duration: 5:53
––––––––––––––––––––––––––––––––––––––––

Left Right

Peak Value: 0.00 dB –- 0.00 dB
Avg RMS: -11.68 dB –- -11.27 dB
DR channel: 9.26 dB –- 8.84 dB
––––––––––––––––––––––––––––––––––––––––

Official DR Value: DR9

Samplerate: 44100 Hz
Channels: 2
Bits per sample: 16
Bitrate: 889 kbps
Codec: FLAC
================================================================================
––––––––––––––––––––––––––––––––––––––––
Analyzed: Lucky Peterson / Exile On Blues St (1)
Otis Taylor, Cassie Taylor / Exile On Blues St (2)
Tab Benoit / Exile On Blues St (3)
––––––––––––––––––––––––––––––––––––––––

DR Peak RMS Duration Track
––––––––––––––––––––––––––––––––––––––––
DR10 0.00 dB -12.86 dB 5:40 01-Ventilator Blues
DR12 0.00 dB -13.98 dB 4:03 04-Sweet Black Angel
DR10 0.00 dB -10.97 dB 6:09 07-Shake Your Hips
––––––––––––––––––––––––––––––––––––––––

Number of tracks: 3
Official DR value: DR11

Samplerate: 44100 Hz
Channels: 2
Bits per sample: 16
Bitrate: 889 kbps
Codec: FLAC
================================================================================

––––––––––––––––––––––––––––––––––––––––
Statistics for: 03-Rip This Joint
Number of samples: 9292164
Duration: 3:31
––––––––––––––––––––––––––––––––––––––––

Left Right

Peak Value: 0.00 dB –- 0.00 dB
Avg RMS: -11.64 dB –- -11.30 dB
DR channel: 10.72 dB –- 10.41 dB
––––––––––––––––––––––––––––––––––––––––

Official DR Value: DR11

Samplerate: 44100 Hz
Channels: 2
Bits per sample: 16
Bitrate: 889 kbps
Codec: FLAC
================================================================================
foobar2000 1.3.8 / Dynamic Range Meter 1.1.1
log date: 2015-06-08 15:33:23

––––––––––––––––––––––––––––––––––––––––
Statistics for: 06-Tumbling Dice
Number of samples: 11363100
Duration: 4:18
––––––––––––––––––––––––––––––––––––––––

Left Right

Peak Value: 0.00 dB –- 0.00 dB
Avg RMS: -11.91 dB –- -11.99 dB
DR channel: 10.38 dB –- 10.41 dB
––––––––––––––––––––––––––––––––––––––––

Official DR Value: DR10

Samplerate: 44100 Hz
Channels: 2
Bits per sample: 16
Bitrate: 889 kbps
Codec: FLAC
================================================================================

VA - Exile On Blues Street (2003)

VA - Exile On Blues Street (2003)

All thanks to original releaser - squirr

More interesting music in My Blog