Tags
Language
Tags

VA - While My Guitar Gently Weeps 2: 32 Guitar Ballads (2002) 2CDs [Re-Up]

Posted By: Designol
VA - While My Guitar Gently Weeps 2: 32 Guitar Ballads (2002) 2CDs [Re-Up]

VA - While My Guitar Gently Weeps 2: 32 Guitar Ballads (2002) 2CDs
EAC | FLAC | Image (Cue&Log) ~ 973 Mb | Mp3 (CBR320) ~ 364 Mb
Label: Universal TV | # 069 254-2 | Time: 02:33:39 | Scans included
Classic Rock, Blues-Rock, Folk-Rock, Blues

32 tracks from guitar legends such as Mark Knopfler, Lynyrd Skynyrd, Eric Clapton, Stevie Ray Vaughan, Allman Brothers Band, B.B. King, Fleetwood Mac, Ry Cooder, ZZ Top, Gary Moore, Chris Rea, Santana and more, all help make this 2 CD set a sure fire hit.

Tracklist:

CD1:

01. Mark Knopfler - What It Is (04:56)
02. Eric Clapton - Old Love (06:23)
03. Robert Cray - Sonny (04:45)
04. Stevie Ray Vaughan & Double Trouble - Little Wing (06:48)
05. Fleetwood Mac - Need Your Love So Bad (03:54)
06. B.B. King - Ain't Nobody Home (03:28)
07. John Hiatt - I'll Never Get Over You (04:37)
08. Bread - The Guitar Man (03:43)
09. Joe Satriani - Cryin' (05:43)
10. J.J. Cale - City Girls (02:49)
11. Peter Green - Carry My Love (04:59)
12. Bad English - Time Stood Still (05:23)
13. Tony Joe White - Cold Fingers (04:30)
14. Toto - Out of Love (04:22)
15. Gerry Rafferty - Moonlight And Gold (06:08)
16. Mr. Big - To Be With You (03:26)

CD2:

01. Santana - Song For Europe (Earth's Cry Heaven's Smile) (05:03)
02. Chris Rea - The Road To Hell (Part 2) (04:32)
03. Steve Miller - The Joker (03:40)
04. Ry Cooder - Dark End Of The Street (03:28)
05. Extreme - More Than Words (03:46)
06. Whitesnake - Is This Love (04:46)
07. Fleetwood Mac - Albatross (03:11)
08. ZZ Top - Rough Boy (04:53)
09. Jeff Beck - Where Were You (03:19)
10. Stevie Ray Vaughan - Texas Flood (07:17)
11. Gary Moore - As The Years Go Passing By (07:46)
12. Allman Brothers Band - Ramblin' Man (04:44)
13. Keb 'Mo' - More Than One Way Home (04:55)
14. Eric Clapton - Let It Grow (04:59)
15. B.B. King - The Thrill Is Gone (05:28)
16. Thin Lizzy - Stil In Love With You (05:41)


Exact Audio Copy V1.0 beta 6 from 9. April 2015

EAC extraction logfile from 31. May 2015, 18:32

Various / While My Guitar Gently Weeps (2) - CD 1

Used drive : ASUS SDRW-08D1S-U Adapter: 1 ID: 1

Read mode : Secure
Utilize accurate stream : Yes
Defeat audio cache : Yes
Make use of C2 pointers : No

Read offset correction : 667
Overread into Lead-In and Lead-Out : No
Fill up missing offset samples with silence : Yes
Delete leading and trailing silent blocks : No
Null samples used in CRC calculations : Yes
Used interface : Native Win32 interface for Win NT & 2000

Used output format : User Defined Encoder
Selected bitrate : 128 kBit/s
Quality : High
Add ID3 tag : No
Command line compressor : C:\Program Files (x86)\Exact Audio Copy\Flac\flac.exe
Additional command line options : -V -8 -T "Date=%year%" -T "Genre=%genre%" %source%


TOC of the extracted CD

Track | Start | Length | Start sector | End sector
––––––––––––––––––––––––––––-
1 | 0:00.00 | 4:56.38 | 0 | 22237
2 | 4:56.38 | 6:23.55 | 22238 | 51017
3 | 11:20.18 | 4:45.70 | 51018 | 72462
4 | 16:06.13 | 6:48.17 | 72463 | 103079
5 | 22:54.30 | 3:54.70 | 103080 | 120699
6 | 26:49.25 | 3:28.53 | 120700 | 136352
7 | 30:18.03 | 4:37.00 | 136353 | 157127
8 | 34:55.03 | 3:43.67 | 157128 | 173919
9 | 38:38.70 | 5:43.25 | 173920 | 199669
10 | 44:22.20 | 2:49.25 | 199670 | 212369
11 | 47:11.45 | 4:59.50 | 212370 | 234844
12 | 52:11.20 | 5:23.45 | 234845 | 259114
13 | 57:34.65 | 4:30.25 | 259115 | 279389
14 | 62:05.15 | 4:22.45 | 279390 | 299084
15 | 66:27.60 | 6:08.49 | 299085 | 326733
16 | 72:36.34 | 3:26.46 | 326734 | 342229


Range status and errors

Selected range

Filename C:\Users\Олег\Desktop\WMGGW - 2\cd 1\Various - While My Guitar Gently Weeps (2) - CD 1.wav

Peak level 100.0 %
Extraction speed 4.2 X
Range quality 100.0 %
Test CRC BDEB241F
Copy CRC BDEB241F
Copy OK

No errors occurred


AccurateRip summary

Track 1 accurately ripped (confidence 3) [4B7CA721] (AR v1)
Track 2 accurately ripped (confidence 3) [8DEE770C] (AR v1)
Track 3 accurately ripped (confidence 3) [853B1D4D] (AR v1)
Track 4 accurately ripped (confidence 3) [CD323EB6] (AR v1)
Track 5 accurately ripped (confidence 3) [BF0E97F8] (AR v1)
Track 6 accurately ripped (confidence 3) [7626DE3A] (AR v1)
Track 7 accurately ripped (confidence 3) [84B348DB] (AR v1)
Track 8 accurately ripped (confidence 3) [7B639C54] (AR v1)
Track 9 accurately ripped (confidence 3) [E89CE70A] (AR v1)
Track 10 accurately ripped (confidence 3) [3987CC99] (AR v1)
Track 11 accurately ripped (confidence 3) [1AE730EF] (AR v1)
Track 12 accurately ripped (confidence 3) [DBF12780] (AR v1)
Track 13 accurately ripped (confidence 2) [44949539] (AR v1)
Track 14 accurately ripped (confidence 3) [8464FFCF] (AR v1)
Track 15 accurately ripped (confidence 2) [341AABE4] (AR v1)
Track 16 accurately ripped (confidence 3) [EB953EDB] (AR v1)

All tracks accurately ripped

End of status report

–– CUETools DB Plugin V2.1.6

[CTDB TOCID: nclDQjexXoNyq.MBs3WICHE8i5M-] found
Submit result: nclDQjexXoNyq.MBs3WICHE8i5M- has been confirmed
Track | CTDB Status
1 | (6/6) Accurately ripped
2 | (6/6) Accurately ripped
3 | (6/6) Accurately ripped
4 | (6/6) Accurately ripped
5 | (6/6) Accurately ripped
6 | (6/6) Accurately ripped
7 | (6/6) Accurately ripped
8 | (6/6) Accurately ripped
9 | (6/6) Accurately ripped
10 | (6/6) Accurately ripped
11 | (6/6) Accurately ripped
12 | (6/6) Accurately ripped
13 | (6/6) Accurately ripped
14 | (6/6) Accurately ripped
15 | (6/6) Accurately ripped
16 | (6/6) Accurately ripped


==== Log checksum CDA07DB1A1CEA8114C23929E2A116AC9545C0CF22DCE98944FC062BDC0701E7F ====

foobar2000 1.3.8 / Dynamic Range Meter 1.1.1
log date: 2015-06-01 16:49:33

––––––––––––––––––––––––––––––––––––––––
Analyzed: B.B. King / While My Guitar Gently Weeps (2) - CD 1 (1)
Bad English / While My Guitar Gently Weeps (2) - CD 1 (2)
––––––––––––––––––––––––––––––––––––––––

DR Peak RMS Duration Track
––––––––––––––––––––––––––––––––––––––––
DR8 -0.05 dB -10.15 dB 3:29 06-Ain't Nobody Home
DR8 -0.01 dB -10.04 dB 5:24 12-Time Stood Still
––––––––––––––––––––––––––––––––––––––––

Number of tracks: 2
Official DR value: DR8

Samplerate: 44100 Hz
Channels: 2
Bits per sample: 16
Bitrate: 889 kbps
Codec: FLAC
================================================================================

––––––––––––––––––––––––––––––––––––––––
Statistics for: 08-The Guitar Man
Number of samples: 9873696
Duration: 3:44
––––––––––––––––––––––––––––––––––––––––

Left Right

Peak Value: -0.05 dB –- -0.33 dB
Avg RMS: -9.79 dB –- -9.98 dB
DR channel: 8.29 dB –- 8.13 dB
––––––––––––––––––––––––––––––––––––––––

Official DR Value: DR8

Samplerate: 44100 Hz
Channels: 2
Bits per sample: 16
Bitrate: 889 kbps
Codec: FLAC
================================================================================
––––––––––––––––––––––––––––––––––––––––
Analyzed: Eric Clapton / While My Guitar Gently Weeps (2) - CD 1 (1)
Fleetwood Mac / While My Guitar Gently Weeps (2) - CD 1 (2)
Gerry Rafferty / While My Guitar Gently Weeps (2) - CD 1 (3)
––––––––––––––––––––––––––––––––––––––––

DR Peak RMS Duration Track
––––––––––––––––––––––––––––––––––––––––
DR11 -0.02 dB -13.26 dB 6:24 02-Old Love
DR9 0.00 dB -11.70 dB 3:55 05-Need Your Love So Bad
DR9 0.00 dB -10.49 dB 6:09 15-Moonlight And Gold
––––––––––––––––––––––––––––––––––––––––

Number of tracks: 3
Official DR value: DR9

Samplerate: 44100 Hz
Channels: 2
Bits per sample: 16
Bitrate: 889 kbps
Codec: FLAC
================================================================================

––––––––––––––––––––––––––––––––––––––––
Statistics for: 10-City Girls
Number of samples: 7467600
Duration: 2:49
––––––––––––––––––––––––––––––––––––––––

Left Right

Peak Value: -0.57 dB –- -0.79 dB
Avg RMS: -13.10 dB –- -13.92 dB
DR channel: 11.02 dB –- 11.25 dB
––––––––––––––––––––––––––––––––––––––––

Official DR Value: DR11

Samplerate: 44100 Hz
Channels: 2
Bits per sample: 16
Bitrate: 889 kbps
Codec: FLAC
================================================================================
––––––––––––––––––––––––––––––––––––––––
Statistics for: 09-Cryin'
Number of samples: 15141000
Duration: 5:43
––––––––––––––––––––––––––––––––––––––––

Left Right

Peak Value: 0.00 dB –- -0.03 dB
Avg RMS: -11.08 dB –- -10.99 dB
DR channel: 9.22 dB –- 8.95 dB
––––––––––––––––––––––––––––––––––––––––

Official DR Value: DR9

Samplerate: 44100 Hz
Channels: 2
Bits per sample: 16
Bitrate: 889 kbps
Codec: FLAC
================================================================================
––––––––––––––––––––––––––––––––––––––––
Statistics for: 07-I'll Never Get Over You
Number of samples: 12215700
Duration: 4:37
––––––––––––––––––––––––––––––––––––––––

Left Right

Peak Value: -0.33 dB –- -0.05 dB
Avg RMS: -11.48 dB –- -11.09 dB
DR channel: 9.59 dB –- 9.28 dB
––––––––––––––––––––––––––––––––––––––––

Official DR Value: DR9

Samplerate: 44100 Hz
Channels: 2
Bits per sample: 16
Bitrate: 889 kbps
Codec: FLAC
================================================================================
––––––––––––––––––––––––––––––––––––––––
Analyzed: Mark Knopfler / While My Guitar Gently Weeps (2) - CD 1 (1)
Mr. Big / While My Guitar Gently Weeps (2) - CD 1 (2)
––––––––––––––––––––––––––––––––––––––––

DR Peak RMS Duration Track
––––––––––––––––––––––––––––––––––––––––
DR7 -0.04 dB -9.67 dB 4:57 01-What it is
DR9 0.00 dB -11.42 dB 3:27 16-To Be With You
––––––––––––––––––––––––––––––––––––––––

Number of tracks: 2
Official DR value: DR8

Samplerate: 44100 Hz
Channels: 2
Bits per sample: 16
Bitrate: 889 kbps
Codec: FLAC
================================================================================

––––––––––––––––––––––––––––––––––––––––
Statistics for: 11-Carry My Love
Number of samples: 13215300
Duration: 5:00
––––––––––––––––––––––––––––––––––––––––

Left Right

Peak Value: 0.00 dB –- -0.15 dB
Avg RMS: -11.90 dB –- -12.95 dB
DR channel: 10.03 dB –- 10.92 dB
––––––––––––––––––––––––––––––––––––––––

Official DR Value: DR10

Samplerate: 44100 Hz
Channels: 2
Bits per sample: 16
Bitrate: 889 kbps
Codec: FLAC
================================================================================
––––––––––––––––––––––––––––––––––––––––
Analyzed: Robert Cray / While My Guitar Gently Weeps (2) - CD 1 (1)
Stevie Ray Vaughan & Double Trouble / While My Guitar Gently Weeps (2) - CD 1 (2)
Tony Joe White / While My Guitar Gently Weeps (2) - CD 1 (3)
Toto / While My Guitar Gently Weeps (2) - CD 1 (4)
––––––––––––––––––––––––––––––––––––––––

DR Peak RMS Duration Track
––––––––––––––––––––––––––––––––––––––––
DR12 -0.61 dB -14.97 dB 4:46 03-Sonny
DR9 0.00 dB -11.80 dB 6:48 04-Little Wing
DR9 -2.05 dB -13.26 dB 4:30 13-Cold Fingers
DR8 -0.08 dB -10.80 dB 4:23 14-Out of Love
––––––––––––––––––––––––––––––––––––––––

Number of tracks: 4
Official DR value: DR9

Samplerate: 44100 Hz
Channels: 2
Bits per sample: 16
Bitrate: 889 kbps
Codec: FLAC
================================================================================


Exact Audio Copy V1.0 beta 6 from 9. April 2015

EAC extraction logfile from 31. May 2015, 17:39

Various / While My Guitar Gently Weeps 2 (CD2 of 2)

Used drive : ASUS SDRW-08D1S-U Adapter: 1 ID: 1

Read mode : Secure
Utilize accurate stream : Yes
Defeat audio cache : Yes
Make use of C2 pointers : No

Read offset correction : 667
Overread into Lead-In and Lead-Out : No
Fill up missing offset samples with silence : Yes
Delete leading and trailing silent blocks : No
Null samples used in CRC calculations : Yes
Used interface : Native Win32 interface for Win NT & 2000

Used output format : User Defined Encoder
Selected bitrate : 128 kBit/s
Quality : High
Add ID3 tag : No
Command line compressor : C:\Program Files (x86)\Exact Audio Copy\Flac\flac.exe
Additional command line options : -V -8 -T "Date=%year%" -T "Genre=%genre%" %source%


TOC of the extracted CD

Track | Start | Length | Start sector | End sector
––––––––––––––––––––––––––––-
1 | 0:00.00 | 5:03.55 | 0 | 22779
2 | 5:03.55 | 4:32.14 | 22780 | 43193
3 | 9:35.69 | 3:40.56 | 43194 | 59749
4 | 13:16.50 | 3:28.00 | 59750 | 75349
5 | 16:44.50 | 3:46.08 | 75350 | 92307
6 | 20:30.58 | 4:46.35 | 92308 | 113792
7 | 25:17.18 | 3:11.35 | 113793 | 128152
8 | 28:28.53 | 4:53.02 | 128153 | 150129
9 | 33:21.55 | 3:19.15 | 150130 | 165069
10 | 36:40.70 | 7:17.25 | 165070 | 197869
11 | 43:58.20 | 7:46.05 | 197870 | 232824
12 | 51:44.25 | 4:44.58 | 232825 | 254182
13 | 56:29.08 | 4:55.20 | 254183 | 276327
14 | 61:24.28 | 4:59.37 | 276328 | 298789
15 | 66:23.65 | 5:28.44 | 298790 | 323433
16 | 71:52.34 | 5:41.56 | 323434 | 349064


Range status and errors

Selected range

Filename C:\Users\Олег\Desktop\WMGGW - 2\cd 2\Various - While My Guitar Gently Weeps 2 (CD2 of 2).wav

Peak level 100.0 %
Extraction speed 2.2 X
Range quality 100.0 %
Test CRC AD7B9C35
Copy CRC AD7B9C35
Copy OK

No errors occurred


AccurateRip summary

Track 1 accurately ripped (confidence 3) [076F637B] (AR v1)
Track 2 accurately ripped (confidence 3) [2E2656DC] (AR v1)
Track 3 accurately ripped (confidence 3) [1A88F3D6] (AR v1)
Track 4 accurately ripped (confidence 3) [E52BC6CA] (AR v1)
Track 5 accurately ripped (confidence 3) [E1F1FF14] (AR v1)
Track 6 accurately ripped (confidence 3) [0FF7D48F] (AR v1)
Track 7 accurately ripped (confidence 3) [D9F9CD1F] (AR v1)
Track 8 accurately ripped (confidence 3) [81E7C273] (AR v1)
Track 9 accurately ripped (confidence 3) [2DF1B1D6] (AR v1)
Track 10 accurately ripped (confidence 3) [32A6089C] (AR v1)
Track 11 accurately ripped (confidence 3) [4F4F0B16] (AR v1)
Track 12 accurately ripped (confidence 3) [4E9405C1] (AR v1)
Track 13 accurately ripped (confidence 3) [6C889203] (AR v1)
Track 14 accurately ripped (confidence 2) [D93D875E] (AR v1)
Track 15 accurately ripped (confidence 3) [7AF6AC3C] (AR v1)
Track 16 accurately ripped (confidence 3) [EE406FA9] (AR v1)

All tracks accurately ripped

End of status report

–– CUETools DB Plugin V2.1.6

[CTDB TOCID: iscGQ4kde3_R.vwM4X7vHMDViPo-] found
Submit result: iscGQ4kde3_R.vwM4X7vHMDViPo- has been confirmed
Track | CTDB Status
1 | (5/5) Accurately ripped
2 | (5/5) Accurately ripped
3 | (5/5) Accurately ripped
4 | (5/5) Accurately ripped
5 | (5/5) Accurately ripped
6 | (5/5) Accurately ripped
7 | (5/5) Accurately ripped
8 | (5/5) Accurately ripped
9 | (5/5) Accurately ripped
10 | (5/5) Accurately ripped
11 | (5/5) Accurately ripped
12 | (5/5) Accurately ripped
13 | (5/5) Accurately ripped
14 | (5/5) Accurately ripped
15 | (4/5) Accurately ripped
16 | (5/5) Accurately ripped


==== Log checksum BB4C98501F29B6B6E1CC8AE4742FBC01FFA4D6769C00CE81812EE24F91A0F0E2 ====

foobar2000 1.3.8 / Dynamic Range Meter 1.1.1
log date: 2015-06-01 16:51:00

––––––––––––––––––––––––––––––––––––––––
Analyzed: Allman Brothers Band / While My Guitar Gently Weeps 2 (CD2 of 2) (1)
BB King / While My Guitar Gently Weeps 2 (CD2 of 2) (2)
––––––––––––––––––––––––––––––––––––––––

DR Peak RMS Duration Track
––––––––––––––––––––––––––––––––––––––––
DR8 0.00 dB -9.53 dB 4:45 12-Ramblin' Man
DR9 -0.05 dB -11.00 dB 5:29 15-The Thrill Is Gone
––––––––––––––––––––––––––––––––––––––––

Number of tracks: 2
Official DR value: DR8

Samplerate: 44100 Hz
Channels: 2
Bits per sample: 16
Bitrate: 861 kbps
Codec: FLAC
================================================================================

––––––––––––––––––––––––––––––––––––––––
Analyzed: Chris Rea / While My Guitar Gently Weeps 2 (CD2 of 2) (1)
Eric Clapton / While My Guitar Gently Weeps 2 (CD2 of 2) (2)
––––––––––––––––––––––––––––––––––––––––

DR Peak RMS Duration Track
––––––––––––––––––––––––––––––––––––––––
DR10 -0.32 dB -11.26 dB 4:32 02-The Road To Hell (Part 2)
DR10 0.00 dB -11.84 dB 4:59 14-Let It Grow
––––––––––––––––––––––––––––––––––––––––

Number of tracks: 2
Official DR value: DR10

Samplerate: 44100 Hz
Channels: 2
Bits per sample: 16
Bitrate: 861 kbps
Codec: FLAC
================================================================================

––––––––––––––––––––––––––––––––––––––––
Analyzed: Extreme / While My Guitar Gently Weeps 2 (CD2 of 2) (1)
Fleetwood Mac / While My Guitar Gently Weeps 2 (CD2 of 2) (2)
Gary Moore / While My Guitar Gently Weeps 2 (CD2 of 2) (3)
––––––––––––––––––––––––––––––––––––––––

DR Peak RMS Duration Track
––––––––––––––––––––––––––––––––––––––––
DR12 -0.02 dB -14.19 dB 3:46 05-More Than Words
DR10 -0.06 dB -12.11 dB 3:11 07-Albatross
DR13 -0.10 dB -14.93 dB 7:46 11-As The Years Go Passing By
––––––––––––––––––––––––––––––––––––––––

Number of tracks: 3
Official DR value: DR12

Samplerate: 44100 Hz
Channels: 2
Bits per sample: 16
Bitrate: 861 kbps
Codec: FLAC
================================================================================

––––––––––––––––––––––––––––––––––––––––
Analyzed: Jeff Beck / While My Guitar Gently Weeps 2 (CD2 of 2) (1)
Keb 'Mo' / While My Guitar Gently Weeps 2 (CD2 of 2) (2)
––––––––––––––––––––––––––––––––––––––––

DR Peak RMS Duration Track
––––––––––––––––––––––––––––––––––––––––
DR8 -0.05 dB -11.78 dB 3:19 09-Where Were You
DR11 -0.01 dB -12.48 dB 4:55 13-More Than One Way Home
––––––––––––––––––––––––––––––––––––––––

Number of tracks: 2
Official DR value: DR10

Samplerate: 44100 Hz
Channels: 2
Bits per sample: 16
Bitrate: 861 kbps
Codec: FLAC
================================================================================

––––––––––––––––––––––––––––––––––––––––
Statistics for: 04-Dark End Of The Street
Number of samples: 9172800
Duration: 3:28
––––––––––––––––––––––––––––––––––––––––

Left Right

Peak Value: -1.96 dB –- -0.87 dB
Avg RMS: -16.42 dB –- -15.28 dB
DR channel: 11.59 dB –- 11.04 dB
––––––––––––––––––––––––––––––––––––––––

Official DR Value: DR11

Samplerate: 44100 Hz
Channels: 2
Bits per sample: 16
Bitrate: 861 kbps
Codec: FLAC
================================================================================
––––––––––––––––––––––––––––––––––––––––
Analyzed: Santana / While My Guitar Gently Weeps 2 (CD2 of 2) (1)
Steve Miller / While My Guitar Gently Weeps 2 (CD2 of 2) (2)
Stevie Ray Vaughan / While My Guitar Gently Weeps 2 (CD2 of 2) (3)
Thin Lizzy / While My Guitar Gently Weeps 2 (CD2 of 2) (4)
––––––––––––––––––––––––––––––––––––––––

DR Peak RMS Duration Track
––––––––––––––––––––––––––––––––––––––––
DR8 -0.04 dB -10.49 dB 5:04 01-Song For Europe (Earth's Cry Heaven's Smile)
DR9 -0.06 dB -12.84 dB 3:41 03-The Joker
DR11 -0.08 dB -12.19 dB 7:17 10-Texas Flood
DR10 0.00 dB -11.89 dB 5:42 16-Stil In Love With You
––––––––––––––––––––––––––––––––––––––––

Number of tracks: 4
Official DR value: DR9

Samplerate: 44100 Hz
Channels: 2
Bits per sample: 16
Bitrate: 861 kbps
Codec: FLAC
================================================================================

––––––––––––––––––––––––––––––––––––––––
Analyzed: Whitesnake / While My Guitar Gently Weeps 2 (CD2 of 2) (1)
ZZ Top / While My Guitar Gently Weeps 2 (CD2 of 2) (2)
––––––––––––––––––––––––––––––––––––––––

DR Peak RMS Duration Track
––––––––––––––––––––––––––––––––––––––––
DR9 0.00 dB -10.86 dB 4:46 06-Is This Love
DR10 -0.26 dB -11.82 dB 4:53 08-Rough Boy
––––––––––––––––––––––––––––––––––––––––

Number of tracks: 2
Official DR value: DR9

Samplerate: 44100 Hz
Channels: 2
Bits per sample: 16
Bitrate: 861 kbps
Codec: FLAC
================================================================================

VA - While My Guitar Gently Weeps 2: 32 Guitar Ballads (2002) 2CDs [Re-Up]

VA - While My Guitar Gently Weeps 2: 32 Guitar Ballads (2002) 2CDs [Re-Up]

All thanks to original releaser - Alex Fal

More interesting music in My Blog