Tags
Language
Tags

Various Artists - All The Young Droogs: 60 Juvenile Delinquent Wrecks [3CD] (2019)

Posted By: BlondStyle
Various Artists - All The Young Droogs: 60 Juvenile Delinquent Wrecks [3CD] (2019)

Various Artists - All The Young Droogs: 60 Juvenile Delinquent Wrecks [3CD] (2019)
Pop/Rock, Glam, Bubblegum, Art Rock | EAC Rip | FLAC, Img+CUE+LOG+Scans (JPEG) | 03:15:18 | 1,35 Gb
Label: RPM Records (UK) | Cat.# RPMBX 543 | Released: 2019-01-25

From the makers of the Junkshop Glam genre defining Velvet Tinmine, Glitterbest and Boobs compilations. comes this bookending box set.. 60 tracks of the finest slices of JSG in its various guises, as established by collectors around the world over the past decade. Including tracks from the USA, New Zealand, Netherlands, Sweden, Iceland, Australia as well as homegrown UK. Some previously unreleased, many first time on CD. Themed by arch JSG collector and musician Phil King into three groups. Rock Off! for the heads down boogie sounds; Tubthumpers & Hellraisers for the footstomping hand clapping pop pounders; Elegance & Decadence for the mascara masquerading gender bending weird and wonderful. The box set sweeps up a colourful array of musical renegades and nomads as they moved and shook the scene, such as: first Juicy Lucy vocalist Ray Moon, ex-New York Dolls Rick Rivets band The Brats, Baby Grande the forerunners of The Church, TV Smith pre-Adverts in Sleaze , Jimmy Edwards a cohort of Jimmy Pursey in Sham 69 in earlier solo mode and, as in house producer of Steve Elgin at Dawn, ex- Spider From Mars Woody Woodmansey, 60's northern soul chanteuse Glo Macari backed by Slowload who get their own track as produced by Vic Maile, actor Richard Strange as Kid Strange in Doctors of Madness, Angel produced by Mick and Andy from The Sweet. Plus stalwart pop auteurs Jonathan King and Mike Berry. Some further context comes from inclusion of relevant cuts by Mott The Hoople, Hello, Iggy & The Stooges, Be Bop Deluxe, Third World War Three discs in individual wallets, housed in a clam shell box, which also includes a 36 page booklet.
~Amazon UK

Various Artists - All The Young Droogs: 60 Juvenile Delinquent Wrecks [3CD] (2019)

Various Artists - All The Young Droogs: 60 Juvenile Delinquent Wrecks [3CD] (2019)


Release of this 3CD-Set: 2019, January, 25 [CDs RPM Records (UK), Cat.# RPMBX 543 / UPC: 5013929554306]
This compilation ℗&© 2019 RPM Records
Marketed and Distributed by Cherry Red Records Ltd.
Manufactured in EU/MCPS


Notes: 60 Juvenile Delinquent Wrecks. Rock 'N' Roll Glam (And a flavour of Bubblegum) from the '70s.

Credits:

Concept By – Phil King
Design, Artwork – Michael Robson
Liner Notes – Phil King, Tony Barber
Mastered By – Simon Murphy
Producer – Mark Stratford, Phil King


Various Artists - All The Young Droogs: 60 Juvenile Delinquent Wrecks [3CD] (2019)

Disc 1: Rock Off!

01. Hey Sweety - Ray Owen's Moon [1970]
02. Working Class Man - Third World War [1971]
03. I Got A Right - Iggy & The Stooges [1977]
04. Wok 'n' Woll - Milk 'n' Cookies [1974]
05. Hold On Tight - Method [1975]
06. Be A Man - The Brats [1974]
07. Lazy London Lady - Change [1974]
08. Looking For Love - Glo Macari [1971]
09. Big Boobs Boogie - Slowload [1971]
10. Lovely Lady Rock - James Hogg [1972]
11. Teenage Love Affair - Iron Virgin [1974]
12. I Like It Both Ways - Supernaut [1976]
13. Brother John - Fancy [1973]
14. Don't Let Go - Rats [1974]
15. She's Not My Lover - Cole Younger [1978]
16. Roxy Roller - Sweeney Todd Featuring Brian Guy Adams [1976]
17. Boys Will Be Boys - Taste [1976]
18. Get Outta My House - Hustler [1974]
19. MacHine - Ning [1971]
20. Hard Road - Stevie Wright [1974]

Various Artists - All The Young Droogs: 60 Juvenile Delinquent Wrecks [3CD] (2019)

Disc 2: Tubthumpers & Hellraisers

01. My Teenage Queen - Harpo [1974]
02. By Bye Bad Days - Hector [1974]
03. Saturday Night - Bilbo Baggins [1974]
04. Game's Up - Hello [1975]
05. Poser - Frenzy [1976]
06. Sex Appeal - Simon Turner [1974]
07. Yeah - The Jets [1973]
08. Lucifera - Lemming [1973]
09. Whizz Kid - Mott The Hoople [1973]
10. Little Boy Blue - Angel [1974]
11. Baby Grande - Zephyr [1975]
12. I Want You (All Night Long) - Hot Rod [1973]
13. Looking For You - Redhead [1973]
14. Cut Loose - Stud Leather [1973]
15. Gimme Gimme Some Lovin' - Biggles [1971]
16. Dog Eats Dog - Mint [1973]
17. Fast Train - Tank [1973]
18. Hey Hey Jump Now - The One Hit Wonders [1972]
19. Sweetness - Boneshaker [1971]
20. Let Me Tell Ya - U.K. Jones [1969]

Various Artists - All The Young Droogs: 60 Juvenile Delinquent Wrecks [3CD] (2019)

Disc 3: Elegance & Decadence

01. Abstracting Billy - Brett Smiley [1973]
02. Guess Who's Coming To Dinner - John Howard [1975]
03. Criminal World - Metro [1976]
04. White Stockings - Roy Allison [1976]
05. Spaceship Lover - Paul St John [1972]
06. Ultrastar - Rococo [1973]
07. Star Machine - Woody Woodmansey's U-Boat [1977]
08. Night Creatures - Be Bop Deluxe [1974]
09. New York City Pretty - Clive Kennedy [1976]
10. I Won't Dance - John Henry [1974]
11. Don't Leave Your Lover Lying Around (Dear) - Steve Elgin [1974]
12. Wonder Ones - Alastair Riddell [1977]
13. I Live In Style In Maida Vale (Demo Version) - Helter Skelter [1977]
14. Virginia Creeper - Greg Robbins [1973]
15. Paper Party - Brian Wells [1972]
16. Waiting - The Doctors Of Madness [1976]
17. Showbiz Kid - Sleaze [1975]
18. White Man, Black Man - Spiders From Mars [1975]
19. Pastiche Blue - James Arthur Edwards [1976]
20. Daybreak - Buster [1976]

Exact Audio Copy V1.0 beta 6 from 9. April 2015

EAC extraction logfile from 3. February 2019, 17:00

Various Artists / Rock Off!

Used drive : ATAPI iHAS122 C Adapter: 1 ID: 0

Read mode : Secure
Utilize accurate stream : Yes
Defeat audio cache : Yes
Make use of C2 pointers : No

Read offset correction : 6
Overread into Lead-In and Lead-Out : No
Fill up missing offset samples with silence : Yes
Delete leading and trailing silent blocks : No
Null samples used in CRC calculations : Yes
Used interface : Native Win32 interface for Win NT & 2000

Used output format : Internal WAV Routines
Sample format : 44.100 Hz; 16 Bit; Stereo


TOC of the extracted CD

Track | Start | Length | Start sector | End sector
––––––––––––––––––––––––––––-
1 | 0:00.00 | 2:28.51 | 0 | 11150
2 | 2:28.51 | 4:31.17 | 11151 | 31492
3 | 6:59.68 | 3:22.07 | 31493 | 46649
4 | 10:22.00 | 2:41.15 | 46650 | 58739
5 | 13:03.15 | 3:25.29 | 58740 | 74143
6 | 16:28.44 | 2:53.25 | 74144 | 87143
7 | 19:21.69 | 3:13.53 | 87144 | 101671
8 | 22:35.47 | 2:56.06 | 101672 | 114877
9 | 25:31.53 | 3:05.45 | 114878 | 128797
10 | 28:37.23 | 3:14.69 | 128798 | 143416
11 | 31:52.17 | 3:01.65 | 143417 | 157056
12 | 34:54.07 | 3:47.52 | 157057 | 174133
13 | 38:41.59 | 3:58.46 | 174134 | 192029
14 | 42:40.30 | 3:07.14 | 192030 | 206068
15 | 45:47.44 | 2:58.42 | 206069 | 219460
16 | 48:46.11 | 2:50.27 | 219461 | 232237
17 | 51:36.38 | 3:47.34 | 232238 | 249296
18 | 55:23.72 | 3:07.22 | 249297 | 263343
19 | 58:31.19 | 3:24.30 | 263344 | 278673
20 | 61:55.49 | 3:02.52 | 278674 | 292375


Range status and errors

Selected range

Filename C:\Users\London\Desktop\Various Artists - Rock Off!.wav

Peak level 96.6 %
Extraction speed 8.8 X
Range quality 99.9 %
Test CRC 08D1914B
Copy CRC 08D1914B
Copy OK

No errors occurred


AccurateRip summary

Track 1 not present in database
Track 2 not present in database
Track 3 not present in database
Track 4 not present in database
Track 5 not present in database
Track 6 not present in database
Track 7 not present in database
Track 8 not present in database
Track 9 not present in database
Track 10 not present in database
Track 11 not present in database
Track 12 not present in database
Track 13 not present in database
Track 14 not present in database
Track 15 not present in database
Track 16 not present in database
Track 17 not present in database
Track 18 not present in database
Track 19 not present in database
Track 20 not present in database

None of the tracks are present in the AccurateRip database

End of status report

–– CUETools DB Plugin V2.1.6

[CTDB TOCID: ggGmCbMnahf96ah06mV0wC_pHMk-] found
Submit result: ggGmCbMnahf96ah06mV0wC_pHMk- has been confirmed
Track | CTDB Status
1 | (1/1) Accurately ripped
2 | (1/1) Accurately ripped
3 | (1/1) Accurately ripped
4 | (1/1) Accurately ripped
5 | (1/1) Accurately ripped
6 | (1/1) Accurately ripped
7 | (1/1) Accurately ripped
8 | (1/1) Accurately ripped
9 | (1/1) Accurately ripped
10 | (1/1) Accurately ripped
11 | (1/1) Accurately ripped
12 | (1/1) Accurately ripped
13 | (1/1) Accurately ripped
14 | (1/1) Accurately ripped
15 | (1/1) Accurately ripped
16 | (1/1) Accurately ripped
17 | (1/1) Accurately ripped
18 | (1/1) Accurately ripped
19 | (1/1) Accurately ripped
20 | (1/1) Accurately ripped


==== Log checksum BCE0C0CD9A1A88ADD04633B27573EB0AAE4E8E9142ABA1AE3493C967C590AA4F ====

Exact Audio Copy V1.0 beta 6 from 9. April 2015

EAC extraction logfile from 3. February 2019, 15:56

Various Artists / Tubthumpers And Hellraisers

Used drive : ATAPI iHAS122 C Adapter: 1 ID: 0

Read mode : Secure
Utilize accurate stream : Yes
Defeat audio cache : Yes
Make use of C2 pointers : No

Read offset correction : 6
Overread into Lead-In and Lead-Out : No
Fill up missing offset samples with silence : Yes
Delete leading and trailing silent blocks : No
Null samples used in CRC calculations : Yes
Used interface : Native Win32 interface for Win NT & 2000

Used output format : Internal WAV Routines
Sample format : 44.100 Hz; 16 Bit; Stereo


TOC of the extracted CD

Track | Start | Length | Start sector | End sector
––––––––––––––––––––––––––––-
1 | 0:00.00 | 2:55.05 | 0 | 13129
2 | 2:55.05 | 3:30.42 | 13130 | 28921
3 | 6:25.47 | 2:30.35 | 28922 | 40206
4 | 8:56.07 | 2:53.24 | 40207 | 53205
5 | 11:49.31 | 3:00.37 | 53206 | 66742
6 | 14:49.68 | 2:06.17 | 66743 | 76209
7 | 16:56.10 | 2:37.47 | 76210 | 88031
8 | 19:33.57 | 4:10.44 | 88032 | 106825
9 | 23:44.26 | 3:09.03 | 106826 | 121003
10 | 26:53.29 | 3:52.23 | 121004 | 138426
11 | 30:45.52 | 3:39.61 | 138427 | 154912
12 | 34:25.38 | 3:09.19 | 154913 | 169106
13 | 37:34.57 | 4:38.71 | 169107 | 190027
14 | 42:13.53 | 3:09.09 | 190028 | 204211
15 | 45:22.62 | 3:46.22 | 204212 | 221183
16 | 49:09.09 | 2:39.59 | 221184 | 233167
17 | 51:48.68 | 2:06.38 | 233168 | 242655
18 | 53:55.31 | 2:51.50 | 242656 | 255530
19 | 56:47.06 | 3:03.03 | 255531 | 269258
20 | 59:50.09 | 2:02.02 | 269259 | 278410


Range status and errors

Selected range

Filename C:\Users\London\Desktop\Various Artists - Tubthumpers And Hellraisers.wav

Peak level 96.6 %
Extraction speed 8.8 X
Range quality 100.0 %
Test CRC BBC5C8D9
Copy CRC BBC5C8D9
Copy OK

No errors occurred


AccurateRip summary

Track 1 not present in database
Track 2 not present in database
Track 3 not present in database
Track 4 not present in database
Track 5 not present in database
Track 6 not present in database
Track 7 not present in database
Track 8 not present in database
Track 9 not present in database
Track 10 not present in database
Track 11 not present in database
Track 12 not present in database
Track 13 not present in database
Track 14 not present in database
Track 15 not present in database
Track 16 not present in database
Track 17 not present in database
Track 18 not present in database
Track 19 not present in database
Track 20 not present in database

None of the tracks are present in the AccurateRip database

End of status report

–– CUETools DB Plugin V2.1.6

[CTDB TOCID: Gu3lsYdvhtnrOgAp8PQZwlKAqtU-] found
Submit result: already submitted
Track | CTDB Status
1 | (2/2) Accurately ripped
2 | (2/2) Accurately ripped
3 | (2/2) Accurately ripped
4 | (2/2) Accurately ripped
5 | (2/2) Accurately ripped
6 | (2/2) Accurately ripped
7 | (2/2) Accurately ripped
8 | (2/2) Accurately ripped
9 | (2/2) Accurately ripped
10 | (2/2) Accurately ripped
11 | (2/2) Accurately ripped
12 | (2/2) Accurately ripped
13 | (2/2) Accurately ripped
14 | (2/2) Accurately ripped
15 | (2/2) Accurately ripped
16 | (2/2) Accurately ripped
17 | (2/2) Accurately ripped
18 | (2/2) Accurately ripped
19 | (2/2) Accurately ripped
20 | (2/2) Accurately ripped


==== Log checksum 109FF61E56FCD2DD52028E191D38C636E2FFBE8F48CA2E3A2C2D762F03880446 ====

Exact Audio Copy V1.0 beta 6 from 9. April 2015

EAC extraction logfile from 3. February 2019, 16:41

Various Artists / Elegance & Decadence

Used drive : ATAPI iHAS122 C Adapter: 1 ID: 0

Read mode : Secure
Utilize accurate stream : Yes
Defeat audio cache : Yes
Make use of C2 pointers : No

Read offset correction : 6
Overread into Lead-In and Lead-Out : No
Fill up missing offset samples with silence : Yes
Delete leading and trailing silent blocks : No
Null samples used in CRC calculations : Yes
Used interface : Native Win32 interface for Win NT & 2000

Used output format : Internal WAV Routines
Sample format : 44.100 Hz; 16 Bit; Stereo


TOC of the extracted CD

Track | Start | Length | Start sector | End sector
––––––––––––––––––––––––––––-
1 | 0:00.00 | 2:49.47 | 0 | 12721
2 | 2:49.47 | 3:30.28 | 12722 | 28499
3 | 6:20.00 | 3:35.03 | 28500 | 44627
4 | 9:55.03 | 3:08.46 | 44628 | 58773
5 | 13:03.49 | 2:56.25 | 58774 | 71998
6 | 15:59.74 | 2:46.20 | 71999 | 84468
7 | 18:46.19 | 3:25.64 | 84469 | 99907
8 | 22:12.08 | 3:35.09 | 99908 | 116041
9 | 25:47.17 | 3:14.45 | 116042 | 130636
10 | 29:01.62 | 3:02.16 | 130637 | 144302
11 | 32:04.03 | 3:28.56 | 144303 | 159958
12 | 35:32.59 | 4:03.69 | 159959 | 178252
13 | 39:36.53 | 2:57.12 | 178253 | 191539
14 | 42:33.65 | 2:18.49 | 191540 | 201938
15 | 44:52.39 | 2:43.05 | 201939 | 214168
16 | 47:35.44 | 4:07.00 | 214169 | 232693
17 | 51:42.44 | 7:32.09 | 232694 | 266602
18 | 59:14.53 | 2:48.10 | 266603 | 279212
19 | 62:02.63 | 3:52.69 | 279213 | 296681
20 | 65:55.57 | 2:32.74 | 296682 | 308155


Range status and errors

Selected range

Filename C:\Users\London\Desktop\Various Artists - Elegance & Decadence.wav

Peak level 96.6 %
Extraction speed 8.8 X
Range quality 100.0 %
Test CRC 84FE368E
Copy CRC 84FE368E
Copy OK

No errors occurred


AccurateRip summary

Track 1 not present in database
Track 2 not present in database
Track 3 not present in database
Track 4 not present in database
Track 5 not present in database
Track 6 not present in database
Track 7 not present in database
Track 8 not present in database
Track 9 not present in database
Track 10 not present in database
Track 11 not present in database
Track 12 not present in database
Track 13 not present in database
Track 14 not present in database
Track 15 not present in database
Track 16 not present in database
Track 17 not present in database
Track 18 not present in database
Track 19 not present in database
Track 20 not present in database

None of the tracks are present in the AccurateRip database

End of status report

–– CUETools DB Plugin V2.1.6

[CTDB TOCID: _7aOj13aBjTaeiavcS_37pxENSM-] found
Submit result: _7aOj13aBjTaeiavcS_37pxENSM- has been confirmed
Track | CTDB Status
1 | (1/1) Accurately ripped
2 | (1/1) Accurately ripped
3 | (1/1) Accurately ripped
4 | (1/1) Accurately ripped
5 | (1/1) Accurately ripped
6 | (1/1) Accurately ripped
7 | (1/1) Accurately ripped
8 | (1/1) Accurately ripped
9 | (1/1) Accurately ripped
10 | (1/1) Accurately ripped
11 | (1/1) Accurately ripped
12 | (1/1) Accurately ripped
13 | (1/1) Accurately ripped
14 | (1/1) Accurately ripped
15 | (1/1) Accurately ripped
16 | (1/1) Accurately ripped
17 | (1/1) Accurately ripped
18 | (1/1) Accurately ripped
19 | (1/1) Accurately ripped
20 | (1/1) Accurately ripped


==== Log checksum D83BC0449C9E1108FD43B533183EAD2F987602A2DD1D0D58289F66325C476629 ====

Thanks to my friend, London

♫~Welcome To My Blog~♫

password: BlondStyle