Subcategories

V.A. - Fresh From Apple: Apple Records Box Set (2010) [17 CD Set, Vinyl Replica, Remastered]

Posted By: Andi_Deris
IL VENTO NON SA DOVE SOFFIA

V.A. - Fresh From Apple: Apple Records Box Set (2010) [17 CD Set, Vinyl Replica, Remastered]
EAC Rip | WavPack (*.wv): Image+Cue+Log | 6.4 Gb | MP3 CBR 320 kbps | 2.7 Gb | Scans | 1 Gb | TTime: 16:45:44
Genre: Rock, Pop Rock, Power Pop, Jazz, Psyhedelic, Folk, Funk, Soul, World | Label: Apple Records/EMI | Cat. Box №: 5099991837226

This box contains 16 Apple Records albums, originally issued between 1968 and 1974. There is also a brand-new single compilation Come And Get It: The Best Of Apple Records. Each original album has been re-mastered and the vast majority features bonus material, as well as new packaging that includes updated notes and visuals.

Here, Apple's exhaustive 2010 reissue campaign is condensed into a single, limited box set containing all of the individual albums from the series – Badfinger's Magic Christian Music, No Dice, Straight Up, and Ass; Mary Hopkin's Postcard and Earth Song, Ocean Song; James Taylor' eponymous debut; Jackie Lomax' Is This What You Want?; Billy Preston's Encouraging Words and That's the Way God Planned It; Doris Troy's self-titled album; the Modern Jazz Quartet two-fer of Under the Jasmine Tree and Space; the Radha Krishna Temple's LP; John Tavener's The Whale/Celtic Requiem – the accompanying single-disc compilation Come and Get It, and a two-disc set of 37 Apple rarities that round up tracks available elsewhere as digital downloads (none of these are better than the bonus tracks added to respective reissues; they're generally good but not noteworthy). Housed in a crate replicating an original Apple promo item, this handsome set may be expensive, but it's cheaper than buying these discs individually, so any collector in for the whole shebang should give this box serious consideration. ~ Stephen Thomas Erlewine

IL VENTO NON SA DOVE SOFFIA




•····························································•


IL VENTO NON SA DOVE SOFFIA


CD01: Badfinger - Magic Christian Music (1970)
WavPack (*.wv) | 404 Mb | MP3 | 162 Mb | Scans | Time: 59:29
Cat.№: 5099964243825

Magic Christian Music rejoices in sweet, colourful pop and prefigures the songwriting powerhouse that Badfinger would become. Featuring the worldwide smash hit "Come And Get It," written and produced by Paul McCartney, alongside two other songs created for the 1969 Peter Sellers / Ringo Starr movie The Magic Christian, based on the satirical novel by Terry Southern. This CD edition adds a previously unreleased version of the group’s first B-side, ‘And Her Daddy’s A Millionaire’; a remix of the single-that-never-was ‘Mrs. Jones’, the previously unreleased mono mix of ‘See-Saw Granpa’ from Maybe Tomorrow; and a new, unedited mix of that album’s psychedelic finale, the heaviest song The Iveys ever recorded, ‘I’ve Been Waiting’. Apple Records

Track Listing

01. Come And Get It (02:23)
02. Crimson Ship (03:43)
03. Dear Angie (02:40)
04. Fisherman (1969 Remix) (02:26)
05. Midnight Sun (02:47)
06. Beautiful And Blue (02:40)
07. Rock Of All Ages (03:17)
08. Carry On Till Tomorrow (04:48)
09. I'm In Love (02:27)
10. Walk Out In The Rain (03:27)
11. Angelique (02:28)
12. Knocking Down Our Home (03:41)
13. Give It A Try (02:32)
14. Maybe Tomorrow (03:00)
15. And Her Daddy's A Millionaire (Previously Unissued Alternative Version) (02:25)
16. Mrs. Jones (Remix) (02:19)
17. Sali Bloo (Previously Unissued Mono Mix) (02:45)
18. See-Saw Granpa (Previously Unissued Mono Mix) (03:34)
19. I've Been Waiting (Previously Unissued Unedited Remix) (05:57)

Produced by Mal Evans (Except tracks 2, 9, 11, 14, 15, 19 to 22 Tony Visconti; tracks 1, 7, 9 Paul McCartney)

•····························································•


IL VENTO NON SA DOVE SOFFIA


CD02: Badfinger - No Dice (1970)
WavPack (*.wv) | 393 Mb | MP3 | 161 Mb | Scans | Time: 57:41
Cat.№: 5099990580727

The first album with guitarist Joey Molland, No Dice is a watershed collection of power pop that bridges the band's commercial instincts with the classic, no-frills rock that became their trademark. Includes the Top 10 single, "No Matter What," and the original version of the Ivor Novello and Grammy Award winning "Without You," made famous by Harry Nilsson, and later Mariah Carey. Apple Records

Track Listing

01. I Can't Take It (02:55)
02. I Don't Mind (03:14)
03. Love Me Do (02:59)
04. Midnight Caller (02:48)
05. No Matter What (03:00)
06. Without You (04:43)
07. Blodwyn (03:26)
08. Better Days (03:59)
09. It Had To Be Me (02:27)
10. Watford John (03:23)
11. Believe Me (03:00)
12. We're For The Dark (04:02)
13. I Can't Take It (Previously Unissued Extended Version) (04:14)
14. Without You (Previously Unissued Studio Demo Version) (03:57)
15. Photograph (Previously Unissued Version) (03:24)
16. Believe Me (Previously Unissued Alternate Version) (03:04)
17. No Matter What (Previously Unissued Studio Demo Version) (02:57)

Produced by Geoff Emerick (Except tracks 5, 11, 14 to 17 Mal Evans)

•····························································•


IL VENTO NON SA DOVE SOFFIA


CD03: Badfinger - Straight Up (1971)
WavPack (*.wv) | 446 Mb | MP3 | 168 Mb | Scans | Time: 01:01:49
Cat.№: 5099964244020

Long considered to be the group's finest album, Straight Up is a glorious collection of strong melodies, insightful lyrics and deep emotion. Produced in part by George Harrison and containing the U.S. hit, "Baby Blue," plus the worldwide smash "Day After Day" - featuring George and the group's Pete Ham joining forces on the superb synchronized slide guitar solo. Apple Records

Track Listing

01. Take It All (04:27)
02. Baby Blue (03:37)
03. Money (03:30)
04. Flying (02:35)
05. I'd Die, Babe (02:34)
06. Name Of The Game (05:21)
07. Suitcase (02:53)
08. Sweet Tuesday Morning (02:30)
09. Day After Day (03:11)
10. Sometimes (02:52)
11. Perfection (05:08)
12. It's Over (03:34)
13. I'll Be The One (Bonus Track) (02:54)
14. Name Of The Game (Earlier Version) (04:24)
15. Baby Blue (US Single Mix) (03:37)
16. Baby Please (Previously Unissued Bonus Track) (03:05)
17. No Good At All (Previously Unissued Bonus Track) (02:09)
18. Sing For The Song (Previously Unissued Bonus Track) (03:19)

Produced by Todd Rundgren (Except tracks 5, 6 & 9 George Harrison; tracks 13, 14, 16 to 25 Geoff Emerick)

•····························································•


IL VENTO NON SA DOVE SOFFIA


CD04: Badfinger - Ass (1973)
WavPack (*.wv) | 384 Mb | MP3 | 150 Mb | Scans | Time: 53:45
Cat.№: 5099964243924

Joey Molland assumes half the songwriting on this, the group's heaviest and most serious album. Ass is solid gold Badfinger, partly recorded at the then state-of-the-art Apple Studios at 3 Savile Row, London, and contains the group's valedictory "Apple Of My Eye," written by Pete Ham. Apple Records

Track Listing

01. Apple Of My Eye (03:06)
02. Get Away (04:01)
03. Icicles (02:34)
04. The Winner (03:22)
05. Blind Owl (03:03)
06. Constitution (03:00)
07. When I Say (03:06)
08. Cowboy (02:40)
09. I Can Love You (03:35)
10. Timeless (07:50)
11. Do You Mind (Previously Unissued Version) (03:17)
12. Apple Of My Eye (Previously Unissued Early Mix) (03:04)
13. Blind Owl (Previously Unissued Version) (02:53)
14. Regular (Previously Unissued) (02:39)
15. Timeless (Previously Unissued Version) (05:29)

Produced by Chris Thomas & Badfinger (except tracks 4 & 9 Todd Rundgren; tracks 11 to 19 Badfinger)

•····························································•


IL VENTO NON SA DOVE SOFFIA


CD05: Mary Hopkin - Post Card (1969)
WavPack (*.wv) | 376 Mb | MP3 | 163 Mb | Scans | Time: 59:51
Cat.№: 5099990580925

Mary Hopkin's debut is a treasury of popular song. Produced by Paul McCartney and featuring especially-written numbers from Donovan, Harry Nilsson and, in rare songwriting mode, George Martin; plus classics from the Gershwins and Irving Berlin. Mary's pure, folk-inspired vocals make for a beguiling, dreamy album. Also includes her global smash hit "Those Were The Days". Apple Records

Track Listing

01. Those Were The Days (05:10)
02. Lord Of The Reedy River (02:38)
03. Happiness Runs (Pebble And The Man) (02:04)
04. Love Is The Sweetest Thing (03:45)
05. Y Blodyn Gwyn (03:10)
06. The Honeymoon Song (02:09)
07. The Puppy Song (02:44)
08. Inch Worm (02:36)
09. Voyage Of The Moon (05:55)
10. Lullaby Of The Leaves (02:36)
11. Young Love (02:15)
12. Someone To Watch Over Me (02:06)
13. Prince En Avignon (03:23)
14. The Game (02:42)
15. There's No Business Like Show Business (04:13)
16. Turn Turn Turn (Bonus Track) (02:51)
17. Goodbye (Bonus Track) (02:26)
18. Sparrow (Bonus Track) (03:11)
19. Fields Of St. Etienne (Previously Unissued) (03:47)

Produced by Paul McCartney

•····························································•


IL VENTO NON SA DOVE SOFFIA


CD06: Mary Hopkin - Earth Song / Ocean Song (1971)
WavPack (*.wv) | 314 Mb | MP3 | 129 Mb | Scans | Time: 48:23
Cat.№: 5099990581021

Issued in 1971, this is Mary Hopkin's coming-of-age collection, packed with socially-conscious, lyrically-aware anthems from the cream of the era's folk protagonists: Ralph McTell, Gallagher & Lyle, Tom Paxton and Cat Stevens. Mary defines her art on this album, coordinated by legendary producer and Mary's husband-to-be at the time, Tony Visconti. Apple Records

Track Listing

01. International (03:38)
02. There's Got To Be More (03:56)
03. Silver Birch And Weeping Willow (02:49)
04. How Come The Sun (05:44)
05. Earth Song (03:54)
06. Martha (04:53)
07. Streets Of London (04:30)
08. The Wind (02:06)
09. Water, Paper And Clay (04:11)
10. Ocean Song (04:15)
11. Kew Gardens (Bonus Track) (02:24)
12. When I Am Old One Day (Bonus Track) (02:26)
13. Let My Name Be Sorrow (Bonus Track) (03:31)

Produced by Tony Visconti

•····························································•


IL VENTO NON SA DOVE SOFFIA


CD07: Jackie Lomax - Is This What You Want? (1969)
WavPack (*.wv) | 394 Mb | MP3 | 163 Mb | Scans | Time: 01:00:08
Cat.№: 5099990825521

Yes! This is a cracking album of powerful late-Sixties rock and blue-eyed soul by Liverpool vocalist Jackie Lomax. Among the many highlights is George Harrison's White Album-era song "Sour Milk Sea," given to Jackie and featuring guest players including George, Paul McCartney, Ringo Starr, Keith Richards and Eric Clapton. Apple Records

Track Listing

01. Speak To Me (03:10)
02. Is This What You Want? (02:47)
03. How Can You Say Goodbye (04:14)
04. Sunset (03:57)
05. Sour Milk Sea (03:56)
06. Fall Inside Your Eyes (03:11)
07. Little Yellow Pills (04:04)
08. Take My Word (03:59)
09. The Eagle Laughs At You (02:27)
10. Baby You're A Lover (03:05)
11. You've Got Me Thinking (02:56)
12. I Just Don't Know (03:03)
13. New Day (Single Mix) (02:54)
14. Thumbin' A Ride (Bonus Track) (03:57)
15. How The Web Was Woven (Bonus Track) (03:54)
16. You've Got To Be Strong (Previously Unissued) (02:53)
17. You Make It With Me (Previously Unissued) (02:47)
18. Can You Hear Me (Previously Unissued) (02:46)

Produced by George Harrison (Except track 13 Jackie Lomax & Mal Evans; track 14 Paul McCartney; tracks 16 to 18 unknown)

•····························································•


IL VENTO NON SA DOVE SOFFIA


CD08: The Modern Jazz Quartet - Under The Jasmin Tree + Space (1968/1969)
WavPack (*.wv) | 430 Mb | MP3 | 182 Mb | Scans | Time: 01:11:54
Cat.№: 5099990824524

Two albums of high-class improvisational bebop recorded by Atlantic Records legends the MJQ while on secondment to Apple. With their unique line-up of piano, vibes, bass and drums, the Quartet brought old-style tuxedo excellence and cool organic jazz to the Apple catalogue. Apple Records

Track Listing

01. The Blue Necklace (04:55)
02. Three Little Feelings (Parts 1, 11, 111) (14:26)
03. Exposure (09:20)
04. The Jasmin Tree (05:23)
05. Visitor From Venus (05:42)
06. Visitor From Mars (07:20)
07. Hereґs That Rainy Day (04:20)
08. Dilemma (05:51)
09. Adagio From Concierto De Aranjuez (10:26)
10. Yesterday (Previously Unissued) (04:07)

Produced by John Lewis (Tracks 5 to 10 supervised by Peter Asher)

•····························································•


Sirene con le gambe


CD09: Billy Preston - That's The Way God Planned It (1969)
WavPack (*.wv) | 368 Mb | MP3 | 146 Mb | Scans | Time: 53:51
Cat.№: 5099990824128

Billy's Apple debut, on which he expanded his palette of gospel and R&B to embrace rock themes, features guest players Eric Clapton, Ginger Baker and Keith Richards. Produced by George Harrison, after Billy was invited to The Beatles' Get Back sessions, That's The Way… is a cross-over masterwork that includes Billy's breakthrough chart hit, for which this album is named. Apple Records

Track Listing

01. Do What You Want (03:43)
02. I Want To Thank You (03:12)
03. Everything's All Right (02:43)
04. She Belongs To Me (04:08)
05. It Doesn't Matter (02:40)
06. Morning Star (03:17)
07. Hey Brother (02:33)
08. What About You (02:08)
09. Let Us All Get Together Right Now (04:06)
10. This Is It (02:44)
11. Keep It To Yourself (02:36)
12. That's The Way God Planned It (Parts 1 & 2) (05:44)
13. Through All Times (Bonus Track) (03:58)
14. As I Get Older (Bonus Track) (03:45)
15. That's The Way God Planned It (Alternative Version) (04:14)
16. Something's Got To Change (New Bonus Track) (02:14)

Produced by George Harrison (Except tracks 2, 7, 11 & 13 Wayne Schuler; track 14 Ray Charles)

•····························································•


Sirene con le gambe


CD10: Billy Preston - Encouraging Words (1970)
WavPack (*.wv) | 368 Mb | MP3 | 147 Mb | Scans | Time: 54:43
Cat.№: 5099990823923

Encouraging Words is steeped in exemplary playing and songwriting… and pure soul. Produced by George Harrison and packed with originals and inspired covers, including "My Sweet Lord" and "All Things (Must) Pass" - donated by George before he released them himself - and the little-heard Harrison-Preston gospel hymn "Sing One For The Lord." This is Billy on the launch pad just before he rocketed to U.S. No. 2 success with "Outta Space" for A&M Records. Apple Records

Track Listing

01. Right Now (03:16)
02. Little Girl (03:32)
03. Use What You Got (04:23)
04. My Sweet Lord (03:23)
05. Let The Music Play (02:44)
06. The Same Thing Again (04:37)
07. I've Got A Feeling (02:53)
08. Sing One For The Lord (03:49)
09. When You Are Mine (02:47)
10. I Don't Want You To Pretend (02:38)
11. Encouraging Words (03:36)
12. All Things (Must) Pass (03:45)
13. You've Been Acting Strange (03:34)
14. As Long As I Got My Baby (Bonus Track) (02:44)
15. All That I've Got (I'm Gonna Give It To You) (Bonus Track) (03:35)
16. How Long Has The Train Been Gone (Bonus Track) (03:19)

Produced by George Harrison & Billy Preston

•····························································•


Sirene con le gambe


CD11: The Radha Kṛṣṇa Temple - The Radha Kṛṣṇa Temple (1971)
WavPack (*.wv) | 332 Mb | MP3 | 139 Mb | Scans | Time: 48:12
Cat.№: 5099991767226

In April 1970 an eponymously titled album was released by Radha Krsna Temple on Apple Records produced by George Harrison featuring devotional music. The album sleeve pictures the deities situated in the original temple from whom the temple name derives; these have now been moved to the ISKCON temple on Soho Square in London where they are known as 'Radha-Londonishvara'. Both "Govinda" and "Hare Krishna Mantra" were released as singles. The band consisted of George Harrison on harmonium, guitar and bass guitar, Tamal Krishna Goswami on flute, Harivilas, Yamuna, Jivananda, Lilavati, Yogesvara on lead vocals, and assembled Hare Krishna devotees feature on vocals, mridanga and kartals. Apple Records

Track Listing

01. Govinda (04:46)
02. Sri Guruvastak (03:13)
03. Bhaja Bhakata / Arotrika (08:27)
04. Hare Krsna Mantra (03:36)
05. Sri Isopanisad (04:05)
06. Bhaja Hure Mana (08:55)
07. Govinda Jai Jai (06:07)
08. Prayer To The Spiritual Masters (Previous Bonus Track) (04:00)
09. Namaste Saraswati Devi (Previously Unreleased New Bonus Track) (04:59)

Produced by George Harrison

•····························································•


Sirene con le gambe


CD12: John Tavener - The Whale + Celtic Requiem (1970/1971)
WavPack (*.wv) | 385 Mb | MP3 | 195 Mb | Scans | Time: 01:16:03
Cat.№: 5099990863523

Sir John Tavener was knighted by The Queen in 2000 for his services to music, and he remains one of Britain's most popular classical composers. Apple's recordings of 'The Whale,' his avant-garde oratorio, and 'Celtic Requiem,' written for soprano, orchestra and children's choir, were his first ever full-length releases. He was championed by John & Yoko, and befriended by Ringo Starr. Apple Records

Track Listing

01. The Whale: Documentary (07:12)
02. The Whale: Melodrama And Pantomime (03:14)
03. The Whale: Invocation (00:43)
04. The Whale: The Storm (02:38)
05. The Whale: The Swallowing (04:44)
06. The Whale: The Prayer (03:08)
07. The Whale: In The Belly (09:26)
08. The Whale: The Vomiting (00:53)
09. Celtic Requiem: a) Requiem Aeternam (08:10)
10. Celtic Requiem: b) Dies Irae (08:32)
11. Celtic Requiem: c) Requiescat In Pace (06:17)
12. Supporting Work: Nomine Jesu (11:29)
13. Supporting Work: Coplas (09:31)

Produced by Michael Bremner

•····························································•


Sirene con le gambe


CD13: James Taylor - James Taylor (1968)
WavPack (*.wv) | 337 Mb | MP3 | 145 Mb | Scans | Time: 51:08
Cat.№: 5099990581120

James' debut album was recorded in London in 1968 and remains the hidden gem in his extensive catalogue. A distinctive English sensibility informs this beautiful early work, notable for its original versions of James' signature tunes "Something In The Way She Moves" and "Carolina In My Mind". Apple Records

Track Listing

01. Don't Talk Now (02:36)
02. Something's Wrong (03:09)
03. Knocking 'Round The Zoo (03:26)
04. Sunshine Sunshine (02:49)
05. Taking It In (03:05)
06. Something In The Way She Moves (03:03)
07. Carolina In My Mind (03:38)
08. Brighten Your Night With My Day (02:27)
09. Night Owl (04:16)
10. Rainy Day Man (03:00)
11. Circle Round The Sun (03:25)
12. The Blues Is Just A Bad Dream (03:53)
13. Sunny Skies (Previously Unissued Demo Version) (02:13)
14. Let Me Ride (Previously Unissued Demo Version) (03:58)
15. Sunshine Sunshine (Previously Unissued Demo Version) (02:52)
16. Carolina In My Mind (Previously Unissued Demo Version) (03:08)

Produced by Peter Asher

•····························································•


Sirene con le gambe


CD14: Doris Troy - Doris Troy (1970)
WavPack (*.wv) | 419 Mb | MP3 | 168 Mb | Scans | Time: 01:05:06
Cat.№: 5099990824326

The self-titled Apple album from the legendary Doris Troy, nicknamed 'Mama Soul' by her British fans, is an exciting union of R&B, gospel and rock. It showcases four little-known songs Doris co-wrote with George Harrison, two of which also credit Stephen Stills and Ringo Starr. Other guests include Billy Preston, Peter Frampton and Eric Clapton. Apple Records

Track Listing

01. Ain't That Cute (03:52)
02. Special Care (03:00)
03. Give Me Back My Dynamite (04:57)
04. You Tore Me Up Inside (02:32)
05. Games People Play (03:07)
06. Gonna Get My Baby Back (02:19)
07. I've Got To Be Strong (02:36)
08. Hurry (03:13)
09. So Far (04:28)
10. Exactly Like You (03:11)
11. You Give Me Joy Joy (03:40)
12. Don't Call Me No More (02:08)
13. Jacob's Ladder (03:28)
14. All That I've Got (I'm Gonna Give It To You) (Previous Bonus Track) (04:13)
15. Get Back (Previous Bonus Track) (03:06)
16. Dearest Darling (Previous Bonus Track) (03:04)
17. What You Will Blues (Previous Bonus Track) (05:09)
18. Vaya Con Dios (Previous Bonus Track) (03:31)
19. All That I've Got (I'm Gonna Give It To You) (Previously Unreleased Alternative Version) (03:23)

Produced by Doris Troy (Except track 1 George Harrison)

•····························································•


Sirene con le gambe


CD15: V.A. - Come And Get It: The Best Of Apple Records (2010)
WavPack (*.wv) | 466 Mb | MP3 | 188 Mb | Scans | Time: 01:11:46
Cat.№: 5099964639727

Between 1968 and 1973, Apple Records issued around different 50 singles by artists other than The Beatles. Here is a judicious selection from that catalogue, each an A-side, a few US-only, and each epitomising in its own way what Apple was all about. It’s an electric, eclectic collection, spanning the musical genres and drawing upon influences from around the world. Apple Records

Track Listing

01. Mary Hopkin - Those Were The Days (05:11)
02. James Taylor - Carolina In My Mind (03:38)
03. The Iveys - Maybe Tomorrow (02:53)
04. The Black Dyke Mills Band - Thingumybob (01:56)
05. Brute Force - King Of Fuh (03:04)
06. Jackie Lomax - Sour Milk Sea (03:54)
07. Mary Hopkin - Goodbye (02:25)
08. Billy Preston - That's The Way God Planned It (03:26)
09. Jackie Lomax - New Day (02:52)
10. Trash - Golden Slumbers + Carry That Weight (04:05)
11. Hot Chocolate Band - Give Peace A Chance (04:33)
12. Badfinger - Come And Get It (02:21)
13. Doris Troy - Ain't That Cute (03:49)
14. Billy Preston - My Sweet Lord (03:22)
15. Ronnie Spector - Try Some, Buy Some (04:12)
16. The Radha Krsna Temple - Govinda (04:46)
17. Chris Hodge - We're On Our Way (02:59)
18. The Sundown Playboys - Saturday Nite Special (02:12)
19. Bill Elliot & The Elastic Oz Band - God Save Us (03:11)
20. Lon & Derrek Van Eaton - Sweet Music (03:37)
21. Badfinger - Day After Day (03:09)

Compilation Producers: Andy Davis, Mike Heatley
Album tracks re-mastered by Guy Massey, Sean Magee, Steve Rooke, Alex Wharton

•····························································•


Sirene con le gambe


CD16/17: V.A. - Apple Records Extras [Apple Records Double CD] (2010)
WavPack (*.wv) | 431/295 Mb | MP3 | 178/137 Mb | Scans | Time: 01:04:59 + 47:05
Cat.№: 5099991837325/5099991837424 SET: 5099991837226

Just about every CD in the box has bonus material, but there also an extra two CD set (available only in the box) which contains all the bonus material that was initially only going to be available by digital download. There is one whole CD of bonus Badfinger material. The other CD of bonus tracks is shared by Mary Hopkin and Jackie Lomax.

This cover on the outside is plain white, with some intentional “yellowing” around the edges to make it look old. Inside the gatefold they have reproduced the Apple Studios original tape boxes and used this look to give the track listings for both CDs. Apple Records

CD 1

01. Ron Griffiths - Dear Angie (Mono Mix) (02:35)
02. Mike Gibbins - Think About The Good Times (Mono Mix) (02:22)
03. Tom Evans - No Escaping Your Love (Mono Mix) (02:01)
04. Tom Evans - Arthur (2010 Stereo Remix) (03:15)
05. Tom Evans - Storm In A Tea Cup (Mono Mix) (02:30)
06. Tom Evans, Pete Ham - Yesterday Ain't Coming Back (Mono Mix) (02:57)
07. Joey Molland - Love Me Do (Instrumental Version) (02:57)
08. Tom Evans, Pete Ham, Mike Gibbins, Joey Molland - Get Down (Previously Unreleased Version) (05:14)
09. Tom Evans - Money (04:20)
10. Tom Evans, Joey Molland - Flying (02:24)
11. Pete Ham - Perfection (04:40)
12. Joey Molland - Suitcase (Censored Lyric Version) (03:18)
13. Joey Molland - Sweet Tuesday Morning (02:33)
14. Joey Molland - Mean Mean Jemima (03:42)
15. Mike Gibbins - Loving You (02:52)
16. Joey Molland - Get Away (03:32)
17. Tom Evans - When I Say (03:14)
18. Joey Molland - The Winner (03:15)
19. Joey Molland - I Can Love You (03:37)
20. Pete Ham - Piano Red (03:31)

CD 2

01. Mary Hopkin, Daiano, Raskin - Quelli Erano Giorni (2010 Remix) (05:11)
02. Mary Hopkin, Raskin, Jose Carreras - Que Tiempo Tan Feliz (2010 Remix) (05:10)
03. Mary Hopkin, Raskin, Korn - An Genam Tag (2010 Remix) (05:10)
04. Mary Hopkin, Raskin, Marnay - Le Temps Des Fleurs (2010 Remix) (05:12)
05. Mary Hopkin, Bernard Estardy, Martine Habib, Georges Chatelain - Quand Je Te Regarde Vivre (03:30)
06. Mary Hopkin, Bernard Estardy, Martine Habib - Watashi Wo Kanashimi To Yonde (03:30)
07. Mary Hopkin, Bernard Gallagher, Graham Lyle - Jefferson (02:46)
08. Jackie Lomax - Going Back To Liverpool (03:10)
09. George Harrison - Sour Milk Sea (Mono Mix) (03:57)
10. Jackie Lomax - The Eagle Laughs At You (Mono Mix) (02:31)
11. Jackie Lomax - Little Yellow Pills (Mono Mix) (04:02)
12. Jackie Lomax - New Day (Stereo Single Mix) (02:51)

Album tracks re-mastered by Guy Massey, Sean Magee, Steve Rooke, Sam Okell, Alex Wharton

Notes

Limited Edition
Release Date: 10/25/2010
Cardboard box set containing 15 CD and 1 double CD

Exact Audio Copy V0.99 prebeta 5 from 4. May 2009

Отчёт EAC об извлечении, выполненном 2. декабря 2010, 14:26

Badfinger / Magic Christian Music

Дисковод: HL-DT-STDVDRAM GSA-H60N Adapter: 2 ID: 0

Режим чтения : Достоверность
Использование точного потока : Да
Отключение кэша аудио : Да
Использование указателей C2 : Нет

Коррекция смещения при чтении : 667
Способность читать области Lead-in и Lead-out : Нет
Заполнение пропущенных сэмплов тишиной : Да
Удаление блоков с тишиной в начале и конце : Нет
При вычислениях CRC использовались нулевые сэмплы : Да
Интерфейс : Встроенный Win32-интерфейс для Win NT/2000

Выходной формат : Внутренние WAV-операции
Формат сэмплов : 44.100 Гц; 16 бит; стерео


TOC извлечённого CD

Трек | Старт | Длительность | Начальный сектор | Конечный сектор
––––––––––––––––––––––––––––––––––-
1 | 0:00.00 | 2:23.16 | 0 | 10740
2 | 2:23.16 | 3:43.35 | 10741 | 27500
3 | 6:06.51 | 2:40.68 | 27501 | 39568
4 | 8:47.44 | 2:26.11 | 39569 | 50529
5 | 11:13.55 | 2:47.10 | 50530 | 63064
6 | 14:00.65 | 2:40.50 | 63065 | 75114
7 | 16:41.40 | 3:17.40 | 75115 | 89929
8 | 19:59.05 | 4:48.56 | 89930 | 111585
9 | 24:47.61 | 2:27.40 | 111586 | 122650
10 | 27:15.26 | 3:27.51 | 122651 | 138226
11 | 30:43.02 | 2:28.32 | 138227 | 149358
12 | 33:11.34 | 3:41.30 | 149359 | 165963
13 | 36:52.64 | 2:32.15 | 165964 | 177378
14 | 39:25.04 | 3:00.45 | 177379 | 190923
15 | 42:25.49 | 2:25.41 | 190924 | 201839
16 | 44:51.15 | 2:19.44 | 201840 | 212308
17 | 47:10.59 | 2:45.58 | 212309 | 224741
18 | 49:56.42 | 3:34.01 | 224742 | 240792
19 | 53:30.43 | 5:57.49 | 240793 | 267616


Характеристики диапазона извлечения и сообщения об ошибках

Выбранный диапазон

Имя файла C:\Documents and Settings\Администратор\Рабочий стол\Rip by ALLexxess\2010 Apple Records Box Set (17CD Box Set Capitol - Apple Records)\01 Badfinger - 1970 Magic Christian Music\Badfinger - Magic Christian Music.wav

Пиковый уровень 98.9 %
Качество диапазона 100.0 %
CRC теста 9A220403
CRC копии 9A220403
Копирование… OK

Ошибок не произошло


AccurateRip: сводка

Трек 1 точное извлечение (доверие 2) [2249E97E]
Трек 2 точное извлечение (доверие 2) [257F6844]
Трек 3 точное извлечение (доверие 2) [4A58BB05]
Трек 4 точное извлечение (доверие 2) [6F31EDD3]
Трек 5 точное извлечение (доверие 2) [633FFD80]
Трек 6 точное извлечение (доверие 2) [B4778F31]
Трек 7 точное извлечение (доверие 2) [B8FF0071]
Трек 8 точное извлечение (доверие 2) [EE821572]
Трек 9 точное извлечение (доверие 2) [111835B1]
Трек 10 точное извлечение (доверие 2) [BBC0FCE0]
Трек 11 точное извлечение (доверие 2) [D4E5E773]
Трек 12 точное извлечение (доверие 2) [22C64E4F]
Трек 13 точное извлечение (доверие 2) [18066960]
Трек 14 точное извлечение (доверие 2) [0E090EA6]
Трек 15 точное извлечение (доверие 2) [A5D788CA]
Трек 16 точное извлечение (доверие 2) [B682FF4B]
Трек 17 точное извлечение (доверие 2) [B0D7E8D8]
Трек 18 точное извлечение (доверие 2) [2916D18A]
Трек 19 точное извлечение (доверие 2) [23B03DDF]

Все треки извлечены точно

Конец отчёта

Exact Audio Copy V0.99 prebeta 5 from 4. May 2009

Отчёт EAC об извлечении, выполненном 2. декабря 2010, 15:07

Badfinger / No Dice

Дисковод: HL-DT-STDVDRAM GSA-H60N Adapter: 2 ID: 0

Режим чтения : Достоверность
Использование точного потока : Да
Отключение кэша аудио : Да
Использование указателей C2 : Нет

Коррекция смещения при чтении : 667
Способность читать области Lead-in и Lead-out : Нет
Заполнение пропущенных сэмплов тишиной : Да
Удаление блоков с тишиной в начале и конце : Нет
При вычислениях CRC использовались нулевые сэмплы : Да
Интерфейс : Встроенный Win32-интерфейс для Win NT/2000

Выходной формат : Внутренние WAV-операции
Формат сэмплов : 44.100 Гц; 16 бит; стерео


TOC извлечённого CD

Трек | Старт | Длительность | Начальный сектор | Конечный сектор
––––––––––––––––––––––––––––––––––-
1 | 0:00.00 | 2:55.39 | 0 | 13163
2 | 2:55.39 | 3:13.70 | 13164 | 27708
3 | 6:09.34 | 2:59.19 | 27709 | 41152
4 | 9:08.53 | 2:48.53 | 41153 | 53805
5 | 11:57.31 | 3:00.41 | 53806 | 67346
6 | 14:57.72 | 4:43.37 | 67347 | 88608
7 | 19:41.34 | 3:26.65 | 88609 | 104123
8 | 23:08.24 | 3:59.67 | 104124 | 122115
9 | 27:08.16 | 2:27.69 | 122116 | 133209
10 | 29:36.10 | 3:23.08 | 133210 | 148442
11 | 32:59.18 | 3:00.04 | 148443 | 161946
12 | 35:59.22 | 4:02.23 | 161947 | 180119
13 | 40:01.45 | 4:14.25 | 180120 | 199194
14 | 44:15.70 | 3:57.57 | 199195 | 217026
15 | 48:13.52 | 3:24.67 | 217027 | 232393
16 | 51:38.44 | 3:04.36 | 232394 | 246229
17 | 54:43.05 | 2:57.21 | 246230 | 259525


Характеристики диапазона извлечения и сообщения об ошибках

Выбранный диапазон

Имя файла C:\Documents and Settings\Администратор\Рабочий стол\Rip by ALLexxess\2010 Apple Records Box Set (17CD Box Set Capitol - Apple Records)\02 Badfinger - 1970 No Dice\Badfinger - No Dice.wav

Пиковый уровень 98.9 %
Качество диапазона 100.0 %
CRC теста 95606147
CRC копии 95606147
Копирование… OK

Ошибок не произошло


AccurateRip: сводка

Трек 1 нет в базе данных
Трек 2 нет в базе данных
Трек 3 нет в базе данных
Трек 4 нет в базе данных
Трек 5 нет в базе данных
Трек 6 нет в базе данных
Трек 7 нет в базе данных
Трек 8 нет в базе данных
Трек 9 нет в базе данных
Трек 10 нет в базе данных
Трек 11 нет в базе данных
Трек 12 нет в базе данных
Трек 13 нет в базе данных
Трек 14 нет в базе данных
Трек 15 нет в базе данных
Трек 16 нет в базе данных
Трек 17 нет в базе данных

Ни одного трека нет в базе AccurateRip

Конец отчёта

Exact Audio Copy V0.99 prebeta 5 from 4. May 2009

Отчёт EAC об извлечении, выполненном 2. декабря 2010, 15:52

Badfinger / Straight Up

Дисковод: HL-DT-STDVDRAM GSA-H60N Adapter: 2 ID: 0

Режим чтения : Достоверность
Использование точного потока : Да
Отключение кэша аудио : Да
Использование указателей C2 : Нет

Коррекция смещения при чтении : 667
Способность читать области Lead-in и Lead-out : Нет
Заполнение пропущенных сэмплов тишиной : Да
Удаление блоков с тишиной в начале и конце : Нет
При вычислениях CRC использовались нулевые сэмплы : Да
Интерфейс : Встроенный Win32-интерфейс для Win NT/2000

Выходной формат : Внутренние WAV-операции
Формат сэмплов : 44.100 Гц; 16 бит; стерео


TOC извлечённого CD

Трек | Старт | Длительность | Начальный сектор | Конечный сектор
––––––––––––––––––––––––––––––––––-
1 | 0:00.00 | 4:27.54 | 0 | 20078
2 | 4:27.54 | 3:37.26 | 20079 | 36379
3 | 8:05.05 | 3:30.15 | 36380 | 52144
4 | 11:35.20 | 2:35.63 | 52145 | 63832
5 | 14:11.08 | 2:34.31 | 63833 | 75413
6 | 16:45.39 | 5:21.12 | 75414 | 99500
7 | 22:06.51 | 2:53.48 | 99501 | 112523
8 | 25:00.24 | 2:30.59 | 112524 | 123832
9 | 27:31.08 | 3:11.04 | 123833 | 138161
10 | 30:42.12 | 2:52.52 | 138162 | 151113
11 | 33:34.64 | 5:08.45 | 151114 | 174258
12 | 38:43.34 | 3:34.66 | 174259 | 190374
13 | 42:18.25 | 2:54.09 | 190375 | 203433
14 | 45:12.34 | 4:24.63 | 203434 | 223296
15 | 49:37.22 | 3:37.05 | 223297 | 239576
16 | 53:14.27 | 3:05.08 | 239577 | 253459
17 | 56:19.35 | 2:09.50 | 253460 | 263184
18 | 58:29.10 | 3:19.42 | 263185 | 278151


Характеристики диапазона извлечения и сообщения об ошибках

Выбранный диапазон

Имя файла C:\Documents and Settings\Администратор\Рабочий стол\Rip by ALLexxess\2010 Apple Records Box Set (17CD Box Set Capitol - Apple Records)\03 Badfinger - 1971 Straight Up\Badfinger - Straight Up.wav

Пиковый уровень 99.5 %
Качество диапазона 100.0 %
CRC теста B9989669
CRC копии B9989669
Копирование… OK

Ошибок не произошло


AccurateRip: сводка

Трек 1 нет в базе данных
Трек 2 нет в базе данных
Трек 3 нет в базе данных
Трек 4 нет в базе данных
Трек 5 нет в базе данных
Трек 6 нет в базе данных
Трек 7 нет в базе данных
Трек 8 нет в базе данных
Трек 9 нет в базе данных
Трек 10 нет в базе данных
Трек 11 нет в базе данных
Трек 12 нет в базе данных
Трек 13 нет в базе данных
Трек 14 нет в базе данных
Трек 15 нет в базе данных
Трек 16 нет в базе данных
Трек 17 нет в базе данных
Трек 18 нет в базе данных

Ни одного трека нет в базе AccurateRip

Конец отчёта

Exact Audio Copy V0.99 prebeta 5 from 4. May 2009

Отчёт EAC об извлечении, выполненном 2. декабря 2010, 16:36

Badfinger / Ass

Дисковод: HL-DT-STDVDRAM GSA-H60N Adapter: 2 ID: 0

Режим чтения : Достоверность
Использование точного потока : Да
Отключение кэша аудио : Да
Использование указателей C2 : Нет

Коррекция смещения при чтении : 667
Способность читать области Lead-in и Lead-out : Нет
Заполнение пропущенных сэмплов тишиной : Да
Удаление блоков с тишиной в начале и конце : Нет
При вычислениях CRC использовались нулевые сэмплы : Да
Интерфейс : Встроенный Win32-интерфейс для Win NT/2000

Выходной формат : Внутренние WAV-операции
Формат сэмплов : 44.100 Гц; 16 бит; стерео


TOC извлечённого CD

Трек | Старт | Длительность | Начальный сектор | Конечный сектор
––––––––––––––––––––––––––––––––––-
1 | 0:00.00 | 3:06.30 | 0 | 13979
2 | 3:06.30 | 4:01.16 | 13980 | 32070
3 | 7:07.46 | 2:33.73 | 32071 | 43618
4 | 9:41.44 | 3:22.26 | 43619 | 58794
5 | 13:03.70 | 3:03.17 | 58795 | 72536
6 | 16:07.12 | 3:00.09 | 72537 | 86045
7 | 19:07.21 | 3:06.26 | 86046 | 100021
8 | 22:13.47 | 2:40.46 | 100022 | 112067
9 | 24:54.18 | 3:35.16 | 112068 | 128208
10 | 28:29.34 | 7:50.20 | 128209 | 163478
11 | 36:19.54 | 3:17.64 | 163479 | 178317
12 | 39:37.43 | 3:04.47 | 178318 | 192164
13 | 42:42.15 | 2:53.14 | 192165 | 205153
14 | 45:35.29 | 2:39.57 | 205154 | 217135
15 | 48:15.11 | 5:29.16 | 217136 | 241826


Характеристики диапазона извлечения и сообщения об ошибках

Выбранный диапазон

Имя файла C:\Documents and Settings\Администратор\Рабочий стол\Rip by ALLexxess\2010 Apple Records Box Set (17CD Box Set Capitol - Apple Records)\04 Badfinger - 1973 Ass\Badfinger - Ass.wav

Пиковый уровень 98.8 %
Качество диапазона 99.9 %
CRC теста 27B6A13E
CRC копии 27B6A13E
Копирование… OK

Ошибок не произошло


AccurateRip: сводка

Трек 1 точное извлечение (доверие 3) [C799F945]
Трек 2 точное извлечение (доверие 3) [FB7C4EB9]
Трек 3 точное извлечение (доверие 3) [790B4742]
Трек 4 точное извлечение (доверие 3) [F79951F6]
Трек 5 точное извлечение (доверие 3) [F117EAE0]
Трек 6 точное извлечение (доверие 3) [9ADC9E06]
Трек 7 точное извлечение (доверие 3) [CF3C1CFB]
Трек 8 точное извлечение (доверие 3) [8A2BE12E]
Трек 9 точное извлечение (доверие 3) [636E0FD1]
Трек 10 точное извлечение (доверие 3) [7494FB1F]
Трек 11 точное извлечение (доверие 3) [D26CCBCD]
Трек 12 точное извлечение (доверие 3) [E0A5B753]
Трек 13 точное извлечение (доверие 3) [63AD55FF]
Трек 14 точное извлечение (доверие 3) [27CC37CE]
Трек 15 точное извлечение (доверие 3) [51F9D6D9]

Все треки извлечены точно

Конец отчёта

Exact Audio Copy V0.99 prebeta 5 from 4. May 2009

Отчёт EAC об извлечении, выполненном 30. ноября 2010, 23:22

Mary Hopkin / Post Card

Дисковод: HL-DT-STDVDRAM GSA-H60N Adapter: 2 ID: 0

Режим чтения : Достоверность
Использование точного потока : Да
Отключение кэша аудио : Да
Использование указателей C2 : Нет

Коррекция смещения при чтении : 667
Способность читать области Lead-in и Lead-out : Нет
Заполнение пропущенных сэмплов тишиной : Да
Удаление блоков с тишиной в начале и конце : Нет
При вычислениях CRC использовались нулевые сэмплы : Да
Интерфейс : Встроенный Win32-интерфейс для Win NT/2000

Выходной формат : Внутренние WAV-операции
Формат сэмплов : 44.100 Гц; 16 бит; стерео


TOC извлечённого CD

Трек | Старт | Длительность | Начальный сектор | Конечный сектор
––––––––––––––––––––––––––––––––––-
1 | 0:00.00 | 5:10.16 | 0 | 23265
2 | 5:10.16 | 2:38.34 | 23266 | 35149
3 | 7:48.50 | 2:04.53 | 35150 | 44502
4 | 9:53.28 | 3:45.65 | 44503 | 61442
5 | 13:39.18 | 3:10.46 | 61443 | 75738
6 | 16:49.64 | 2:09.27 | 75739 | 85440
7 | 18:59.16 | 2:44.09 | 85441 | 97749
8 | 21:43.25 | 2:36.65 | 97750 | 109514
9 | 24:20.15 | 5:55.64 | 109515 | 136203
10 | 30:16.04 | 2:36.29 | 136204 | 147932
11 | 32:52.33 | 2:14.70 | 147933 | 158052
12 | 35:07.28 | 2:06.22 | 158053 | 167524
13 | 37:13.50 | 3:23.15 | 167525 | 182764
14 | 40:36.65 | 2:42.56 | 182765 | 194970
15 | 43:19.46 | 4:13.08 | 194971 | 213953
16 | 47:32.54 | 2:51.17 | 213954 | 226795
17 | 50:23.71 | 2:26.38 | 226796 | 237783
18 | 52:50.34 | 3:11.38 | 237784 | 252146
19 | 56:01.72 | 3:47.69 | 252147 | 269240


Характеристики диапазона извлечения и сообщения об ошибках

Выбранный диапазон

Имя файла C:\Documents and Settings\Администратор\Рабочий стол\Rip by ALLexxess\2010 Apple Records Box Set (17CD Box Set Capitol - Apple Records)\Mary Hopkin - 1969 Post Card\Mary Hopkin - Post Card.wav

Пиковый уровень 98.1 %
Качество диапазона 100.0 %
CRC теста A7A9C66A
CRC копии A7A9C66A
Копирование… OK

Ошибок не произошло


AccurateRip: сводка

Трек 1 точное извлечение (доверие 2) [25FED044]
Трек 2 точное извлечение (доверие 2) [CC956C5E]
Трек 3 точное извлечение (доверие 2) [F6BFCDBE]
Трек 4 точное извлечение (доверие 2) [5E7748E7]
Трек 5 точное извлечение (доверие 2) [2EC874FE]
Трек 6 точное извлечение (доверие 2) [9908FF41]
Трек 7 точное извлечение (доверие 2) [F3875200]
Трек 8 точное извлечение (доверие 2) [40D878A3]
Трек 9 точное извлечение (доверие 2) [4B077D39]
Трек 10 точное извлечение (доверие 2) [D1B8FC0C]
Трек 11 точное извлечение (доверие 2) [98096D72]
Трек 12 точное извлечение (доверие 2) [93A67B3C]
Трек 13 точное извлечение (доверие 2) [70C9DE02]
Трек 14 точное извлечение (доверие 2) [D43F258C]
Трек 15 точное извлечение (доверие 2) [D61BAAB6]
Трек 16 точное извлечение (доверие 2) [27D58455]
Трек 17 точное извлечение (доверие 2) [9A046D0A]
Трек 18 точное извлечение (доверие 2) [37F3DE49]
Трек 19 точное извлечение (доверие 2) [224D5BB8]

Все треки извлечены точно

Конец отчёта

Exact Audio Copy V0.99 prebeta 5 from 4. May 2009

Отчёт EAC об извлечении, выполненном 2. декабря 2010, 13:36

Mary Hopkin / Earth Song / Ocean Song

Дисковод: HL-DT-STDVDRAM GSA-H60N Adapter: 2 ID: 0

Режим чтения : Достоверность
Использование точного потока : Да
Отключение кэша аудио : Да
Использование указателей C2 : Нет

Коррекция смещения при чтении : 667
Способность читать области Lead-in и Lead-out : Нет
Заполнение пропущенных сэмплов тишиной : Да
Удаление блоков с тишиной в начале и конце : Нет
При вычислениях CRC использовались нулевые сэмплы : Да
Интерфейс : Встроенный Win32-интерфейс для Win NT/2000

Выходной формат : Внутренние WAV-операции
Формат сэмплов : 44.100 Гц; 16 бит; стерео


TOC извлечённого CD

Трек | Старт | Длительность | Начальный сектор | Конечный сектор
––––––––––––––––––––––––––––––––––-
1 | 0:00.00 | 3:37.72 | 0 | 16346
2 | 3:37.72 | 3:56.69 | 16347 | 34115
3 | 7:34.66 | 2:49.51 | 34116 | 46841
4 | 10:24.42 | 5:44.09 | 46842 | 72650
5 | 16:08.51 | 3:54.43 | 72651 | 90243
6 | 20:03.19 | 4:53.41 | 90244 | 112259
7 | 24:56.60 | 4:30.26 | 112260 | 132535
8 | 29:27.11 | 2:06.22 | 132536 | 142007
9 | 31:33.33 | 4:11.18 | 142008 | 160850
10 | 35:44.51 | 4:15.16 | 160851 | 179991
11 | 39:59.67 | 2:24.44 | 179992 | 190835
12 | 42:24.36 | 2:26.31 | 190836 | 201816
13 | 44:50.67 | 3:31.50 | 201817 | 217691


Характеристики диапазона извлечения и сообщения об ошибках

Выбранный диапазон

Имя файла C:\Documents and Settings\Администратор\Рабочий стол\Rip by ALLexxess\2010 Apple Records Box Set (17CD Box Set Capitol - Apple Records)\06 Mary Hopkin - 1971 Earth Song, Ocean Song\Mary Hopkin - Earth Song Ocean Song.wav

Пиковый уровень 98.4 %
Качество диапазона 99.9 %
CRC теста 4B7710B4
CRC копии 4B7710B4
Копирование… OK

Ошибок не произошло


AccurateRip: сводка

Трек 1 нет в базе данных
Трек 2 нет в базе данных
Трек 3 нет в базе данных
Трек 4 нет в базе данных
Трек 5 нет в базе данных
Трек 6 нет в базе данных
Трек 7 нет в базе данных
Трек 8 нет в базе данных
Трек 9 нет в базе данных
Трек 10 нет в базе данных
Трек 11 нет в базе данных
Трек 12 нет в базе данных
Трек 13 нет в базе данных

Ни одного трека нет в базе AccurateRip

Конец отчёта

Exact Audio Copy V0.99 prebeta 5 from 4. May 2009

Отчёт EAC об извлечении, выполненном 2. декабря 2010, 18:53

Jackie Lomax / Is This What You Want?

Дисковод: HL-DT-STDVDRAM GSA-H60N Adapter: 2 ID: 0

Режим чтения : Достоверность
Использование точного потока : Да
Отключение кэша аудио : Да
Использование указателей C2 : Нет

Коррекция смещения при чтении : 667
Способность читать области Lead-in и Lead-out : Нет
Заполнение пропущенных сэмплов тишиной : Да
Удаление блоков с тишиной в начале и конце : Нет
При вычислениях CRC использовались нулевые сэмплы : Да
Интерфейс : Встроенный Win32-интерфейс для Win NT/2000

Выходной формат : Внутренние WAV-операции
Формат сэмплов : 44.100 Гц; 16 бит; стерео


TOC извлечённого CD

Трек | Старт | Длительность | Начальный сектор | Конечный сектор
––––––––––––––––––––––––––––––––––-
1 | 0:00.00 | 3:10.50 | 0 | 14299
2 | 3:10.50 | 2:47.56 | 14300 | 26880
3 | 5:58.31 | 4:14.47 | 26881 | 45977
4 | 10:13.03 | 3:57.34 | 45978 | 63786
5 | 14:10.37 | 3:56.16 | 63787 | 81502
6 | 18:06.53 | 3:11.54 | 81503 | 95881
7 | 21:18.32 | 4:04.41 | 95882 | 114222
8 | 25:22.73 | 3:59.03 | 114223 | 132150
9 | 29:22.01 | 2:27.33 | 132151 | 143208
10 | 31:49.34 | 3:05.35 | 143209 | 157118
11 | 34:54.69 | 2:56.43 | 157119 | 170361
12 | 37:51.37 | 3:02.73 | 170362 | 184084
13 | 40:54.35 | 2:53.71 | 184085 | 197130
14 | 43:48.31 | 3:57.51 | 197131 | 214956
15 | 47:46.07 | 3:54.37 | 214957 | 232543
16 | 51:40.44 | 2:53.13 | 232544 | 245531
17 | 54:33.57 | 2:47.35 | 245532 | 258091
18 | 57:21.17 | 2:46.14 | 258092 | 270555


Характеристики диапазона извлечения и сообщения об ошибках

Выбранный диапазон

Имя файла C:\Documents and Settings\Администратор\Рабочий стол\Rip by ALLexxess\2010 Apple Records Box Set (17CD Box Set Capitol - Apple Records)\07 Jackie Lomax - 1969 Is This What You Want\Jackie Lomax - Is This What You Want.wav

Пиковый уровень 98.2 %
Качество диапазона 100.0 %
CRC теста 1821B7E0
CRC копии 1821B7E0
Копирование… OK

Ошибок не произошло


AccurateRip: сводка

Трек 1 точное извлечение (доверие 3) [D35976F4]
Трек 2 точное извлечение (доверие 3) [8B072235]
Трек 3 точное извлечение (доверие 3) [E6C84D99]
Трек 4 точное извлечение (доверие 3) [DBCAC820]
Трек 5 точное извлечение (доверие 3) [BE9E8CF7]
Трек 6 точное извлечение (доверие 3) [81C98E17]
Трек 7 точное извлечение (доверие 3) [F12F6407]
Трек 8 точное извлечение (доверие 3) [17B2AC67]
Трек 9 точное извлечение (доверие 3) [E210163E]
Трек 10 точное извлечение (доверие 3) [DC128557]
Трек 11 точное извлечение (доверие 3) [651B50AD]
Трек 12 точное извлечение (доверие 3) [CE3558E9]
Трек 13 точное извлечение (доверие 3) [2AED6F6A]
Трек 14 точное извлечение (доверие 3) [6A3EDCAD]
Трек 15 точное извлечение (доверие 3) [0ECD25DE]
Трек 16 точное извлечение (доверие 3) [D6730762]
Трек 17 точное извлечение (доверие 3) [E7406534]
Трек 18 точное извлечение (доверие 3) [895087BF]

Все треки извлечены точно

Конец отчёта

Exact Audio Copy V0.99 prebeta 5 from 4. May 2009

Отчёт EAC об извлечении, выполненном 2. декабря 2010, 19:37

The Modern Jazz Quartet / Under The Jasmin Tree / Space

Дисковод: HL-DT-STDVDRAM GSA-H60N Adapter: 2 ID: 0

Режим чтения : Достоверность
Использование точного потока : Да
Отключение кэша аудио : Да
Использование указателей C2 : Нет

Коррекция смещения при чтении : 667
Способность читать области Lead-in и Lead-out : Нет
Заполнение пропущенных сэмплов тишиной : Да
Удаление блоков с тишиной в начале и конце : Нет
При вычислениях CRC использовались нулевые сэмплы : Да
Интерфейс : Встроенный Win32-интерфейс для Win NT/2000

Выходной формат : Внутренние WAV-операции
Формат сэмплов : 44.100 Гц; 16 бит; стерео


TOC извлечённого CD

Трек | Старт | Длительность | Начальный сектор | Конечный сектор
––––––––––––––––––––––––––––––––––-
1 | 0:00.00 | 4:55.31 | 0 | 22155
2 | 4:55.31 | 14:26.03 | 22156 | 87108
3 | 19:21.34 | 9:20.08 | 87109 | 129116
4 | 28:41.42 | 5:23.05 | 129117 | 153346
5 | 34:04.47 | 5:42.62 | 153347 | 179058
6 | 39:47.34 | 7:20.47 | 179059 | 212105
7 | 47:08.06 | 4:20.70 | 212106 | 231675
8 | 51:29.01 | 5:50.74 | 231676 | 257999
9 | 57:20.00 | 10:26.35 | 258000 | 304984
10 | 67:46.35 | 4:07.26 | 304985 | 323535


Характеристики диапазона извлечения и сообщения об ошибках

Выбранный диапазон

Имя файла C:\Documents and Settings\Администратор\Рабочий стол\Rip by ALLexxess\2010 Apple Records Box Set (17CD Box Set Capitol - Apple Records)\08 Modern Jazz Quartet - 1968-1969 Under The Jasmine Tree & Space\Under The Jasmin Tree -

Пиковый уровень 98.1 %
Качество диапазона 99.9 %
CRC теста ED7D0B43
CRC копии ED7D0B43
Копирование… OK

Ошибок не произошло


AccurateRip: сводка

Трек 1 нет в базе данных
Трек 2 нет в базе данных
Трек 3 нет в базе данных
Трек 4 нет в базе данных
Трек 5 нет в базе данных
Трек 6 нет в базе данных
Трек 7 нет в базе данных
Трек 8 нет в базе данных
Трек 9 нет в базе данных
Трек 10 нет в базе данных

Ни одного трека нет в базе AccurateRip

Конец отчёта

Exact Audio Copy V0.99 prebeta 5 from 4. May 2009

Отчёт EAC об извлечении, выполненном 2. декабря 2010, 21:06

Blly Preston / That's The Way God Planned It

Дисковод: HL-DT-STDVDRAM GSA-H60N Adapter: 2 ID: 0

Режим чтения : Достоверность
Использование точного потока : Да
Отключение кэша аудио : Да
Использование указателей C2 : Нет

Коррекция смещения при чтении : 667
Способность читать области Lead-in и Lead-out : Нет
Заполнение пропущенных сэмплов тишиной : Да
Удаление блоков с тишиной в начале и конце : Нет
При вычислениях CRC использовались нулевые сэмплы : Да
Интерфейс : Встроенный Win32-интерфейс для Win NT/2000

Выходной формат : Внутренние WAV-операции
Формат сэмплов : 44.100 Гц; 16 бит; стерео


TOC извлечённого CD

Трек | Старт | Длительность | Начальный сектор | Конечный сектор
––––––––––––––––––––––––––––––––––-
1 | 0:00.00 | 3:43.31 | 0 | 16755
2 | 3:43.31 | 3:12.29 | 16756 | 31184
3 | 6:55.60 | 2:43.12 | 31185 | 43421
4 | 9:38.72 | 4:08.11 | 43422 | 62032
5 | 13:47.08 | 2:40.36 | 62033 | 74068
6 | 16:27.44 | 3:17.39 | 74069 | 88882
7 | 19:45.08 | 2:33.16 | 88883 | 100373
8 | 22:18.24 | 2:08.30 | 100374 | 110003
9 | 24:26.54 | 4:06.59 | 110004 | 128512
10 | 28:33.38 | 2:44.12 | 128513 | 140824
11 | 31:17.50 | 2:36.40 | 140825 | 152564
12 | 33:54.15 | 5:44.27 | 152565 | 178391
13 | 39:38.42 | 3:58.02 | 178392 | 196243
14 | 43:36.44 | 3:45.25 | 196244 | 213143
15 | 47:21.69 | 4:14.08 | 213144 | 232201
16 | 51:36.02 | 2:14.57 | 232202 | 242308


Характеристики диапазона извлечения и сообщения об ошибках

Выбранный диапазон

Имя файла C:\Documents and Settings\Администратор\Рабочий стол\Rip by ALLexxess\2010 Apple Records Box Set (17CD Box Set Capitol - Apple Records)\09 Billy Preston - 1969 That's The Way God Planned It\Blly Preston - That's The Way God Pl

Пиковый уровень 99.2 %
Качество диапазона 100.0 %
CRC теста 73E08F1B
CRC копии 73E08F1B
Копирование… OK

Ошибок не произошло


AccurateRip: сводка

Трек 1 точное извлечение (доверие 4) [53D4AFE4]
Трек 2 точное извлечение (доверие 4) [6877EFCC]
Трек 3 точное извлечение (доверие 4) [2140BADC]
Трек 4 точное извлечение (доверие 4) [63103F63]
Трек 5 точное извлечение (доверие 4) [5130F597]
Трек 6 точное извлечение (доверие 4) [326A0203]
Трек 7 точное извлечение (доверие 4) [B4686BA8]
Трек 8 точное извлечение (доверие 4) [FE42625C]
Трек 9 точное извлечение (доверие 4) [F1180E72]
Трек 10 точное извлечение (доверие 4) [B285F55B]
Трек 11 точное извлечение (доверие 4) [6A22857E]
Трек 12 точное извлечение (доверие 4) [1030C3BF]
Трек 13 точное извлечение (доверие 4) [A47BC579]
Трек 14 точное извлечение (доверие 4) [55452A4B]
Трек 15 точное извлечение (доверие 4) [5FFB5DDD]
Трек 16 точное извлечение (доверие 4) [159F48CA]

Все треки извлечены точно

Конец отчёта

Exact Audio Copy V0.99 prebeta 5 from 4. May 2009

Отчёт EAC об извлечении, выполненном 2. декабря 2010, 22:05

Billy Preston / Encouraging Words

Дисковод: HL-DT-STDVDRAM GSA-H60N Adapter: 2 ID: 0

Режим чтения : Достоверность
Использование точного потока : Да
Отключение кэша аудио : Да
Использование указателей C2 : Нет

Коррекция смещения при чтении : 667
Способность читать области Lead-in и Lead-out : Нет
Заполнение пропущенных сэмплов тишиной : Да
Удаление блоков с тишиной в начале и конце : Нет
При вычислениях CRC использовались нулевые сэмплы : Да
Интерфейс : Встроенный Win32-интерфейс для Win NT/2000

Выходной формат : Внутренние WAV-операции
Формат сэмплов : 44.100 Гц; 16 бит; стерео


TOC извлечённого CD

Трек | Старт | Длительность | Начальный сектор | Конечный сектор
––––––––––––––––––––––––––––––––––-
1 | 0:00.00 | 3:16.43 | 0 | 14742
2 | 3:16.43 | 3:32.39 | 14743 | 30681
3 | 6:49.07 | 4:23.10 | 30682 | 50416
4 | 11:12.17 | 3:23.32 | 50417 | 65673
5 | 14:35.49 | 2:44.42 | 65674 | 78015
6 | 17:20.16 | 4:37.05 | 78016 | 98795
7 | 21:57.21 | 2:53.51 | 98796 | 111821
8 | 24:50.72 | 3:49.54 | 111822 | 129050
9 | 28:40.51 | 2:47.62 | 129051 | 141637
10 | 31:28.38 | 2:38.47 | 141638 | 153534
11 | 34:07.10 | 3:36.22 | 153535 | 169756
12 | 37:43.32 | 3:45.05 | 169757 | 186636
13 | 41:28.37 | 3:34.07 | 186637 | 202693
14 | 45:02.44 | 2:44.03 | 202694 | 214996
15 | 47:46.47 | 3:35.47 | 214997 | 231168
16 | 51:22.19 | 3:19.70 | 231169 | 246163


Характеристики диапазона извлечения и сообщения об ошибках

Выбранный диапазон

Имя файла C:\Documents and Settings\Администратор\Рабочий стол\Rip by ALLexxess\2010 Apple Records Box Set (17CD Box Set Capitol - Apple Records)\10 Billy Preston - 1970 Encouraging Words\Billy Preston - Encouraging Words.wav

Пиковый уровень 98.7 %
Качество диапазона 100.0 %
CRC теста FB194CC4
CRC копии FB194CC4
Копирование… OK

Ошибок не произошло


AccurateRip: сводка

Трек 1 точное извлечение (доверие 3) [F6B7C639]
Трек 2 точное извлечение (доверие 3) [06F477EC]
Трек 3 точное извлечение (доверие 3) [207955F1]
Трек 4 точное извлечение (доверие 3) [775489EA]
Трек 5 точное извлечение (доверие 3) [E38D6CC1]
Трек 6 точное извлечение (доверие 3) [582A0784]
Трек 7 точное извлечение (доверие 3) [A21F3596]
Трек 8 точное извлечение (доверие 3) [43AB994B]
Трек 9 точное извлечение (доверие 3) [A9962805]
Трек 10 точное извлечение (доверие 3) [512EABD3]
Трек 11 точное извлечение (доверие 3) [184B32BB]
Трек 12 точное извлечение (доверие 3) [DFE8CC30]
Трек 13 точное извлечение (доверие 3) [94A21506]
Трек 14 точное извлечение (доверие 3) [785E4D1C]
Трек 15 точное извлечение (доверие 3) [BD12FB17]
Трек 16 точное извлечение (доверие 3) [4952DB5E]

Все треки извлечены точно

Конец отчёта

Exact Audio Copy V0.99 prebeta 5 from 4. May 2009

Отчёт EAC об извлечении, выполненном 30. ноября 2010, 22:40

The Radha Krsna Temple / The Radha Krsna Temple

Дисковод: HL-DT-STDVDRAM GSA-H60N Adapter: 2 ID: 0

Режим чтения : Достоверность
Использование точного потока : Да
Отключение кэша аудио : Да
Использование указателей C2 : Нет

Коррекция смещения при чтении : 667
Способность читать области Lead-in и Lead-out : Нет
Заполнение пропущенных сэмплов тишиной : Да
Удаление блоков с тишиной в начале и конце : Нет
При вычислениях CRC использовались нулевые сэмплы : Да
Интерфейс : Встроенный Win32-интерфейс для Win NT/2000

Выходной формат : Внутренние WAV-операции
Формат сэмплов : 44.100 Гц; 16 бит; стерео


TOC извлечённого CD

Трек | Старт | Длительность | Начальный сектор | Конечный сектор
––––––––––––––––––––––––––––––––––-
1 | 0:00.00 | 4:46.18 | 0 | 21467
2 | 4:46.18 | 3:13.30 | 21468 | 35972
3 | 7:59.48 | 8:27.43 | 35973 | 74040
4 | 16:27.16 | 3:36.65 | 74041 | 90305
5 | 20:04.06 | 4:05.56 | 90306 | 108736
6 | 24:09.62 | 8:55.14 | 108737 | 148875
7 | 33:05.01 | 6:07.05 | 148876 | 176405
8 | 39:12.06 | 4:00.18 | 176406 | 194423
9 | 43:12.24 | 4:59.62 | 194424 | 216910


Характеристики диапазона извлечения и сообщения об ошибках

Выбранный диапазон

Имя файла C:\Documents and Settings\Администратор\Рабочий стол\Rip by ALLexxess\2010 Apple Records Box Set (17CD Box Set Capitol - Apple Records)\The Radha Krsna - 1971 The Radha Krsna Temple\The Radha Krsna Temple - The Radha Krsna Tem

Пиковый уровень 99.8 %
Качество диапазона 100.0 %
CRC теста 5DF23BBC
CRC копии 5DF23BBC
Копирование… OK

Ошибок не произошло


AccurateRip: сводка

Трек 1 точное извлечение (доверие 2) [F3BCD404]
Трек 2 точное извлечение (доверие 2) [67CAF38F]
Трек 3 точное извлечение (доверие 2) [8E78A714]
Трек 4 точное извлечение (доверие 2) [BDA61BE6]
Трек 5 точное извлечение (доверие 2) [71EBFD93]
Трек 6 точное извлечение (доверие 2) [A4685158]
Трек 7 точное извлечение (доверие 2) [0C8E5454]
Трек 8 точное извлечение (доверие 2) [2EB25A86]
Трек 9 точное извлечение (доверие 2) [19E03A6F]

Все треки извлечены точно

Конец отчёта

Exact Audio Copy V0.99 prebeta 5 from 4. May 2009

Отчёт EAC об извлечении, выполненном 2. декабря 2010, 22:53

John Tavener / The Whale / Celtic Requiem

Дисковод: HL-DT-STDVDRAM GSA-H60N Adapter: 2 ID: 0

Режим чтения : Достоверность
Использование точного потока : Да
Отключение кэша аудио : Да
Использование указателей C2 : Нет

Коррекция смещения при чтении : 667
Способность читать области Lead-in и Lead-out : Нет
Заполнение пропущенных сэмплов тишиной : Да
Удаление блоков с тишиной в начале и конце : Нет
При вычислениях CRC использовались нулевые сэмплы : Да
Интерфейс : Встроенный Win32-интерфейс для Win NT/2000

Выходной формат : Внутренние WAV-операции
Формат сэмплов : 44.100 Гц; 16 бит; стерео


TOC извлечённого CD

Трек | Старт | Длительность | Начальный сектор | Конечный сектор
––––––––––––––––––––––––––––––––––-
1 | 0:00.00 | 7:12.04 | 0 | 32403
2 | 7:12.04 | 3:14.08 | 32404 | 46961
3 | 10:26.12 | 0:43.23 | 46962 | 50209
4 | 11:09.35 | 2:38.39 | 50210 | 62098
5 | 13:47.74 | 4:44.65 | 62099 | 83463
6 | 18:32.64 | 3:08.10 | 83464 | 97573
7 | 21:40.74 | 9:26.66 | 97574 | 140089
8 | 31:07.65 | 0:53.61 | 140090 | 144125
9 | 32:01.51 | 8:10.11 | 144126 | 180886
10 | 40:11.62 | 8:32.05 | 180887 | 219291
11 | 48:43.67 | 6:17.64 | 219292 | 247630
12 | 55:01.56 | 11:29.14 | 247631 | 299319
13 | 66:30.70 | 9:31.61 | 299320 | 342205


Характеристики диапазона извлечения и сообщения об ошибках

Выбранный диапазон

Имя файла C:\Documents and Settings\Администратор\Рабочий стол\Rip by ALLexxess\2010 Apple Records Box Set (17CD Box Set Capitol - Apple Records)\12 John Tavener - 1969-1971 The Whale & Celtic Requiem\John Tavener - The Whale Celtic R

Пиковый уровень 98.3 %
Качество диапазона 100.0 %
CRC теста 55602DB1
CRC копии 55602DB1
Копирование… OK

Ошибок не произошло


AccurateRip: сводка

Трек 1 точное извлечение (доверие 2) [FC7953FD]
Трек 2 точное извлечение (доверие 2) [4AEFB94C]
Трек 3 точное извлечение (доверие 2) [8EF67383]
Трек 4 точное извлечение (доверие 2) [5A64C241]
Трек 5 точное извлечение (доверие 2) [69BF7AFA]
Трек 6 точное извлечение (доверие 2) [B00417F9]
Трек 7 точное извлечение (доверие 2) [0E879FB7]
Трек 8 точное извлечение (доверие 2) [F98B1955]
Трек 9 точное извлечение (доверие 2) [8863594B]
Трек 10 точное извлечение (доверие 2) [B669A11F]
Трек 11 точное извлечение (доверие 2) [0CA6EA89]
Трек 12 точное извлечение (доверие 2) [67853C21]
Трек 13 точное извлечение (доверие 2) [802438E5]

Все треки извлечены точно

Конец отчёта

Exact Audio Copy V0.99 prebeta 5 from 4. May 2009

Отчёт EAC об извлечении, выполненном 3. декабря 2010, 0:20

James Taylor / James Taylor

Дисковод: HL-DT-STDVDRAM GSA-H60N Adapter: 2 ID: 0

Режим чтения : Достоверность
Использование точного потока : Да
Отключение кэша аудио : Да
Использование указателей C2 : Нет

Коррекция смещения при чтении : 667
Способность читать области Lead-in и Lead-out : Нет
Заполнение пропущенных сэмплов тишиной : Да
Удаление блоков с тишиной в начале и конце : Нет
При вычислениях CRC использовались нулевые сэмплы : Да
Интерфейс : Встроенный Win32-интерфейс для Win NT/2000

Выходной формат : Внутренние WAV-операции
Формат сэмплов : 44.100 Гц; 16 бит; стерео


TOC извлечённого CD

Трек | Старт | Длительность | Начальный сектор | Конечный сектор
––––––––––––––––––––––––––––––––––-
1 | 0:00.00 | 2:36.49 | 0 | 11748
2 | 2:36.49 | 3:09.14 | 11749 | 25937
3 | 5:45.63 | 3:26.62 | 25938 | 41449
4 | 9:12.50 | 2:49.64 | 41450 | 54188
5 | 12:02.39 | 3:05.49 | 54189 | 68112
6 | 15:08.13 | 3:03.46 | 68113 | 81883
7 | 18:11.59 | 3:38.29 | 81884 | 98262
8 | 21:50.13 | 2:27.62 | 98263 | 109349
9 | 24:18.00 | 4:16.57 | 109350 | 128606
10 | 28:34.57 | 3:00.26 | 128607 | 142132
11 | 31:35.08 | 3:25.33 | 142133 | 157540
12 | 35:00.41 | 3:53.12 | 157541 | 175027
13 | 38:53.53 | 2:13.67 | 175028 | 185069
14 | 41:07.45 | 3:58.41 | 185070 | 202960
15 | 45:06.11 | 2:52.42 | 202961 | 215902
16 | 47:58.53 | 3:08.23 | 215903 | 230025


Характеристики диапазона извлечения и сообщения об ошибках

Выбранный диапазон

Имя файла C:\Documents and Settings\Администратор\Рабочий стол\Rip by ALLexxess\2010 Apple Records Box Set (17CD Box Set Capitol - Apple Records)\13 James Taylor - 1968 James Taylor\James Taylor - James Taylor.wav

Пиковый уровень 98.8 %
Качество диапазона 100.0 %
CRC теста 9DE02450
CRC копии 9DE02450
Копирование… OK

Ошибок не произошло


AccurateRip: сводка

Трек 1 точное извлечение (доверие 3) [BE4FE17D]
Трек 2 точное извлечение (доверие 3) [01CFC406]
Трек 3 точное извлечение (доверие 3) [02E7CCF7]
Трек 4 точное извлечение (доверие 3) [6676A846]
Трек 5 точное извлечение (доверие 3) [B49E72F1]
Трек 6 точное извлечение (доверие 3) [856F9BC5]
Трек 7 точное извлечение (доверие 3) [1EE31622]
Трек 8 точное извлечение (доверие 3) [7F330855]
Трек 9 точное извлечение (доверие 3) [C14C5E4E]
Трек 10 точное извлечение (доверие 3) [4880FDEC]
Трек 11 точное извлечение (доверие 3) [0E8E8EEB]
Трек 12 точное извлечение (доверие 3) [8B95D16A]
Трек 13 точное извлечение (доверие 3) [22C76529]
Трек 14 точное извлечение (доверие 3) [FE245A49]
Трек 15 точное извлечение (доверие 3) [728829B2]
Трек 16 точное извлечение (доверие 3) [D79937A7]

Все треки извлечены точно

Конец отчёта

Exact Audio Copy V0.99 prebeta 5 from 4. May 2009

Отчёт EAC об извлечении, выполненном 3. декабря 2010, 0:56

Doris Troy / Doris Troy

Дисковод: HL-DT-STDVDRAM GSA-H60N Adapter: 2 ID: 0

Режим чтения : Достоверность
Использование точного потока : Да
Отключение кэша аудио : Да
Использование указателей C2 : Нет

Коррекция смещения при чтении : 667
Способность читать области Lead-in и Lead-out : Нет
Заполнение пропущенных сэмплов тишиной : Да
Удаление блоков с тишиной в начале и конце : Нет
При вычислениях CRC использовались нулевые сэмплы : Да
Интерфейс : Встроенный Win32-интерфейс для Win NT/2000

Выходной формат : Внутренние WAV-операции
Формат сэмплов : 44.100 Гц; 16 бит; стерео


TOC извлечённого CD

Трек | Старт | Длительность | Начальный сектор | Конечный сектор
––––––––––––––––––––––––––––––––––-
1 | 0:00.00 | 3:52.56 | 0 | 17455
2 | 3:52.56 | 3:00.19 | 17456 | 30974
3 | 6:53.00 | 4:57.01 | 30975 | 53250
4 | 11:50.01 | 2:32.45 | 53251 | 64695
5 | 14:22.46 | 3:07.06 | 64696 | 78726
6 | 17:29.52 | 2:19.66 | 78727 | 89217
7 | 19:49.43 | 2:36.15 | 89218 | 100932
8 | 22:25.58 | 3:13.65 | 100933 | 115472
9 | 25:39.48 | 4:28.23 | 115473 | 135595
10 | 30:07.71 | 3:10.72 | 135596 | 149917
11 | 33:18.68 | 3:40.58 | 149918 | 166475
12 | 36:59.51 | 2:08.46 | 166476 | 176121
13 | 39:08.22 | 3:28.40 | 176122 | 191761
14 | 42:36.62 | 4:13.48 | 191762 | 210784
15 | 46:50.35 | 3:06.09 | 210785 | 224743
16 | 49:56.44 | 3:04.58 | 224744 | 238601
17 | 53:01.27 | 5:09.26 | 238602 | 261802
18 | 58:10.53 | 3:31.23 | 261803 | 277650
19 | 61:42.01 | 3:23.13 | 277651 | 292888


Характеристики диапазона извлечения и сообщения об ошибках

Выбранный диапазон

Имя файла C:\Documents and Settings\Администратор\Рабочий стол\Rip by ALLexxess\2010 Apple Records Box Set (17CD Box Set Capitol - Apple Records)\14 Doris Troy - 1970 Doris Troy\Doris Troy - Doris Troy.wav

Пиковый уровень 98.8 %
Качество диапазона 100.0 %
CRC теста 4FDBA331
CRC копии 4FDBA331
Копирование… OK

Ошибок не произошло


AccurateRip: сводка

Трек 1 точное извлечение (доверие 2) [F6FB5C17]
Трек 2 точное извлечение (доверие 2) [B17F0AF7]
Трек 3 точное извлечение (доверие 2) [CAEFABFE]
Трек 4 точное извлечение (доверие 2) [32130C6C]
Трек 5 точное извлечение (доверие 2) [1497EEDA]
Трек 6 точное извлечение (доверие 2) [BBD51553]
Трек 7 точное извлечение (доверие 2) [D1009C1A]
Трек 8 точное извлечение (доверие 2) [6AB7ED0F]
Трек 9 точное извлечение (доверие 2) [7CBE324A]
Трек 10 точное извлечение (доверие 2) [97D5C1AA]
Трек 11 точное извлечение (доверие 2) [345B3898]
Трек 12 точное извлечение (доверие 2) [B85E9073]
Трек 13 точное извлечение (доверие 2) [F8B6E4D5]
Трек 14 точное извлечение (доверие 2) [2892632A]
Трек 15 точное извлечение (доверие 2) [B0C3C6E7]
Трек 16 точное извлечение (доверие 2) [276554C3]
Трек 17 точное извлечение (доверие 2) [5D8C96D8]
Трек 18 точное извлечение (доверие 2) [A98FB067]
Трек 19 точное извлечение (доверие 2) [0D66C001]

Все треки извлечены точно

Конец отчёта

Exact Audio Copy V0.99 prebeta 5 from 4. May 2009

Отчёт EAC об извлечении, выполненном 3. декабря 2010, 14:00

Various Artists / Come And Get It: The Best Of Apple Records

Дисковод: HL-DT-STDVDRAM GSA-H60N Adapter: 2 ID: 0

Режим чтения : Достоверность
Использование точного потока : Да
Отключение кэша аудио : Да
Использование указателей C2 : Нет

Коррекция смещения при чтении : 667
Способность читать области Lead-in и Lead-out : Нет
Заполнение пропущенных сэмплов тишиной : Да
Удаление блоков с тишиной в начале и конце : Нет
При вычислениях CRC использовались нулевые сэмплы : Да
Интерфейс : Встроенный Win32-интерфейс для Win NT/2000

Выходной формат : Внутренние WAV-операции
Формат сэмплов : 44.100 Гц; 16 бит; стерео


TOC извлечённого CD

Трек | Старт | Длительность | Начальный сектор | Конечный сектор
––––––––––––––––––––––––––––––––––-
1 | 0:00.00 | 5:11.10 | 0 | 23334
2 | 5:11.10 | 3:38.67 | 23335 | 39751
3 | 8:50.02 | 2:53.57 | 39752 | 52783
4 | 11:43.59 | 1:56.23 | 52784 | 61506
5 | 13:40.07 | 3:04.00 | 61507 | 75306
6 | 16:44.07 | 3:54.62 | 75307 | 92918
7 | 20:38.69 | 2:25.58 | 92919 | 103851
8 | 23:04.52 | 3:26.38 | 103852 | 119339
9 | 26:31.15 | 2:52.52 | 119340 | 132291
10 | 29:23.67 | 4:05.24 | 132292 | 150690
11 | 33:29.16 | 4:33.18 | 150691 | 171183
12 | 38:02.34 | 2:21.50 | 171184 | 181808
13 | 40:24.09 | 3:49.09 | 181809 | 198992
14 | 44:13.18 | 3:22.60 | 198993 | 214202
15 | 47:36.03 | 4:12.66 | 214203 | 233168
16 | 51:48.69 | 4:46.56 | 233169 | 254674
17 | 56:35.50 | 2:59.38 | 254675 | 268137
18 | 59:35.13 | 2:12.18 | 268138 | 278055
19 | 61:47.31 | 3:11.20 | 278056 | 292400
20 | 64:58.51 | 3:37.07 | 292401 | 308682
21 | 68:35.58 | 3:09.66 | 308683 | 322923


Характеристики диапазона извлечения и сообщения об ошибках

Выбранный диапазон

Имя файла C:\Documents and Settings\Администратор\Рабочий стол\Rip by ALLexxess\2010 Apple Records Box Set (17CD Box Set Capitol - Apple Records)\15 2010 Come And Get It\The Best Of Apple Records.wav

Пиковый уровень 100.0 %
Качество диапазона 100.0 %
CRC теста EC15EBDA
CRC копии EC15EBDA
Копирование… OK

Ошибок не произошло


AccurateRip: сводка

Трек 1 точное извлечение (доверие 6) [BD902C34]
Трек 2 точное извлечение (доверие 6) [06E70B66]
Трек 3 точное извлечение (доверие 6) [AB1FDB94]
Трек 4 точное извлечение (доверие 6) [3AF108A5]
Трек 5 точное извлечение (доверие 6) [7C62D95B]
Трек 6 точное извлечение (доверие 6) [AEE4810B]
Трек 7 точное извлечение (доверие 6) [85D75230]
Трек 8 точное извлечение (доверие 6) [2BF99DD6]
Трек 9 точное извлечение (доверие 6) [1AE05250]
Трек 10 точное извлечение (доверие 6) [25B0AB55]
Трек 11 точное извлечение (доверие 6) [6C99EA79]
Трек 12 точное извлечение (доверие 6) [98645C8F]
Трек 13 точное извлечение (доверие 6) [8490253F]
Трек 14 точное извлечение (доверие 6) [F208A543]
Трек 15 точное извлечение (доверие 6) [18D3321E]
Трек 16 точное извлечение (доверие 6) [700DFDDA]
Трек 17 точное извлечение (доверие 6) [725AF08E]
Трек 18 точное извлечение (доверие 6) [D3698088]
Трек 19 точное извлечение (доверие 6) [A5E32FF6]
Трек 20 точное извлечение (доверие 6) [BE0CB9E1]
Трек 21 точное извлечение (доверие 6) [EF9E96DA]

Все треки извлечены точно

Конец отчёта

Exact Audio Copy V0.99 prebeta 5 from 4. May 2009

Отчёт EAC об извлечении, выполненном 3. декабря 2010, 14:55

Various / Collection Of Bonus CD1

Дисковод: HL-DT-STDVDRAM GSA-H60N Adapter: 2 ID: 0

Режим чтения : Достоверность
Использование точного потока : Да
Отключение кэша аудио : Да
Использование указателей C2 : Нет

Коррекция смещения при чтении : 667
Способность читать области Lead-in и Lead-out : Нет
Заполнение пропущенных сэмплов тишиной : Да
Удаление блоков с тишиной в начале и конце : Нет
При вычислениях CRC использовались нулевые сэмплы : Да
Интерфейс : Встроенный Win32-интерфейс для Win NT/2000

Выходной формат : Внутренние WAV-операции
Формат сэмплов : 44.100 Гц; 16 бит; стерео


TOC извлечённого CD

Трек | Старт | Длительность | Начальный сектор | Конечный сектор
––––––––––––––––––––––––––––––––––-
1 | 0:00.00 | 2:35.28 | 0 | 11652
2 | 2:35.28 | 2:22.60 | 11653 | 22362
3 | 4:58.13 | 2:01.64 | 22363 | 31501
4 | 7:00.02 | 3:15.46 | 31502 | 46172
5 | 10:15.48 | 2:30.62 | 46173 | 57484
6 | 12:46.35 | 2:56.70 | 57485 | 70754
7 | 15:43.30 | 2:57.28 | 70755 | 84057
8 | 18:40.58 | 5:14.40 | 84058 | 107647
9 | 23:55.23 | 4:20.58 | 107648 | 127205
10 | 28:16.06 | 2:24.27 | 127206 | 138032
11 | 30:40.33 | 4:39.74 | 138033 | 159031
12 | 35:20.32 | 3:17.71 | 159032 | 173877
13 | 38:38.28 | 2:33.38 | 173878 | 185390
14 | 41:11.66 | 3:42.33 | 185391 | 202073
15 | 44:54.24 | 2:52.66 | 202074 | 215039
16 | 47:47.15 | 3:32.56 | 215040 | 230995
17 | 51:19.71 | 3:14.04 | 230996 | 245549
18 | 54:34.00 | 3:15.18 | 245550 | 260192
19 | 57:49.18 | 3:37.58 | 260193 | 276525
20 | 61:27.01 | 3:31.36 | 276526 | 292386


Характеристики диапазона извлечения и сообщения об ошибках

Выбранный диапазон

Имя файла C:\Documents and Settings\Администратор\Рабочий стол\Rip by ALLexxess\2010 Apple Records Box Set (17CD Box Set Capitol - Apple Records)\16-17 2010 Double CD Bonus Tracks\CD1\Collection Of Bonus CD1.wav

Пиковый уровень 99.8 %
Качество диапазона 100.0 %
CRC теста 7506E804
CRC копии 7506E804
Копирование… OK

Ошибок не произошло


AccurateRip: сводка

Трек 1 точное извлечение (доверие 2) [62FF5FAA]
Трек 2 точное извлечение (доверие 2) [0A878E1D]
Трек 3 точное извлечение (доверие 2) [90A535C5]
Трек 4 точное извлечение (доверие 2) [613AF276]
Трек 5 точное извлечение (доверие 2) [B5BEEFF4]
Трек 6 точное извлечение (доверие 2) [9C6F4CDD]
Трек 7 точное извлечение (доверие 2) [FA2EC908]
Трек 8 точное извлечение (доверие 2) [8B16843E]
Трек 9 точное извлечение (доверие 2) [999B7AFA]
Трек 10 точное извлечение (доверие 2) [B696A13E]
Трек 11 точное извлечение (доверие 2) [1CEF5453]
Трек 12 точное извлечение (доверие 2) [527A6337]
Трек 13 точное извлечение (доверие 2) [DF9993B9]
Трек 14 точное извлечение (доверие 2) [9F1A5740]
Трек 15 точное извлечение (доверие 2) [645FF4F1]
Трек 16 точное извлечение (доверие 2) [660BD577]
Трек 17 точное извлечение (доверие 2) [7FD530BD]
Трек 18 точное извлечение (доверие 2) [FF84B2AD]
Трек 19 точное извлечение (доверие 2) [E9307E0A]
Трек 20 точное извлечение (доверие 2) [7B10176F]

Все треки извлечены точно

Конец отчёта

Exact Audio Copy V0.99 prebeta 5 from 4. May 2009

Отчёт EAC об извлечении, выполненном 3. декабря 2010, 15:53

Various / Collection Of Bonus CD2

Дисковод: HL-DT-STDVDRAM GSA-H60N Adapter: 2 ID: 0

Режим чтения : Достоверность
Использование точного потока : Да
Отключение кэша аудио : Да
Использование указателей C2 : Нет

Коррекция смещения при чтении : 667
Способность читать области Lead-in и Lead-out : Нет
Заполнение пропущенных сэмплов тишиной : Да
Удаление блоков с тишиной в начале и конце : Нет
При вычислениях CRC использовались нулевые сэмплы : Да
Интерфейс : Встроенный Win32-интерфейс для Win NT/2000

Выходной формат : Внутренние WAV-операции
Формат сэмплов : 44.100 Гц; 16 бит; стерео


TOC извлечённого CD

Трек | Старт | Длительность | Начальный сектор | Конечный сектор
––––––––––––––––––––––––––––––––––-
1 | 0:00.00 | 5:11.69 | 0 | 23393
2 | 5:11.69 | 5:10.67 | 23394 | 46710
3 | 10:22.61 | 5:10.60 | 46711 | 70020
4 | 15:33.46 | 5:12.12 | 70021 | 93432
5 | 20:45.58 | 3:30.29 | 93433 | 109211
6 | 24:16.12 | 3:29.71 | 109212 | 124957
7 | 27:46.08 | 2:46.01 | 124958 | 137408
8 | 30:32.09 | 3:10.03 | 137409 | 151661
9 | 33:42.12 | 3:57.40 | 151662 | 169476
10 | 37:39.52 | 2:31.16 | 169477 | 180817
11 | 40:10.68 | 4:02.61 | 180818 | 199028
12 | 44:13.54 | 2:51.35 | 199029 | 211888


Характеристики диапазона извлечения и сообщения об ошибках

Выбранный диапазон

Имя файла C:\Documents and Settings\Администратор\Рабочий стол\Rip by ALLexxess\2010 Apple Records Box Set (17CD Box Set Capitol - Apple Records)\16-17 2010 Double CD Bonus Tracks\CD2\Collection Of Bonus CD2.wav

Пиковый уровень 98.4 %
Качество диапазона 99.9 %
CRC теста 23572874
CRC копии 23572874
Копирование… OK

Ошибок не произошло


AccurateRip: сводка

Трек 1 точное извлечение (доверие 2) [5F707586]
Трек 2 точное извлечение (доверие 2) [5EBD912F]
Трек 3 точное извлечение (доверие 2) [30178FB0]
Трек 4 точное извлечение (доверие 2) [3F4A7EBB]
Трек 5 точное извлечение (доверие 2) [6BC8274B]
Трек 6 точное извлечение (доверие 2) [516C90D2]
Трек 7 точное извлечение (доверие 2) [96E1FA47]
Трек 8 точное извлечение (доверие 2) [F763C491]
Трек 9 точное извлечение (доверие 2) [20F0A28F]
Трек 10 точное извлечение (доверие 2) [41140CF2]
Трек 11 точное извлечение (доверие 2) [6788BFFF]
Трек 12 точное извлечение (доверие 2) [C59243B2]

Все треки извлечены точно

Конец отчёта


Many thanks to the original uploader: ALLexxess

The Remote Viewing Online Training Course