Subcategories
Tags
Language
Tags

V.A. - Milchbar - Seaside Season 1-7 (Compiled by Blank & Jones) (2009-2015) (Repost)

Posted By: gribovar
V.A. - Milchbar - Seaside Season 1-7 (Compiled by Blank & Jones) (2009-2015) (Repost)

V.A. - Milchbar - Seaside Season 1-7 (2009-2015)
EAC Rip | FLAC (tracks+.cue+log) - 3,2 GB | MP3 CBR 320 kbps (LAME 3.93) - 1,2 GB | Covers - 2,33 GB
Genre: Chillout, Lounge, Downtempo | RAR 3% Rec. | Label: Soundcolours

Over ten years ago the DJ duo from Cologne (Blank & Jones) decided to strike quieter, more relaxed tones. From the passion for Ambient, Chill Out, Downbeat, Lounge Music, Beach House, Bar Grooves and Co. was created the idea of ​​Milchbar Seaside Season - a summer soundtrack for the cult Norderneyer Location milk bar. On the first compilation followed in recent years regularly further new Chillout compilation.

V.A. - Milchbar - Seaside Season 1-7 (Compiled by Blank & Jones) (2009-2015) (Repost)

V.A. - Milchbar - Seaside Season (2009)
EAC Rip | FLAC (tracks+.cue+log) - 505 MB | MP3 CBR 320 kbps (LAME 3.93) - 181 MB | Covers - 52 MB
Genre: Chillout, Lounge, Downtempo | RAR 3% Rec. | Label: Soundcolours (SC 0306)

Tracklist:
01. Blank & Jones - Die Blaue Stunde
02. Pochill - Porqué
03. Trinah - Follow You
04. Blank & Jones feat. Bobo - Where You Belong (Poolside House Mix)
05. Max Melvin - Seasons
06. Mystic Diversions - Dance Of The Seven Veils
07. Rapid Eye - Circa-Forever (Chillseeking Mix)
08. Michael Rother - Morning After (Loneliness)
09. Blank & Jones feat. Mike Francis - I Love You (Late Night Mix)
10. Mystic Diversions - Miniatures Of You
11. Sinan - Step Into A New Life (Instrumental)
12. Cantoma - Marisi
13. Bliss - So Still
14. Blank & Jones - Counting Clouds
15. Mike Francis - Summer Breeze (Blank & Jones RELAX Mix)

Total time: 01:16:57

Exact Audio Copy V0.99 prebeta 5 from 4. May 2009

EAC extraction logfile from 4. July 2009, 0:00

Various / Milchbar Seaside Season (compiled by Blank&Jones)

Used drive : PLEXTOR DVDR PX-760A Adapter: 0 ID: 0

Read mode : Secure
Utilize accurate stream : Yes
Defeat audio cache : Yes
Make use of C2 pointers : No

Read offset correction : 30
Overread into Lead-In and Lead-Out : No
Fill up missing offset samples with silence : Yes
Delete leading and trailing silent blocks : No
Null samples used in CRC calculations : Yes
Used interface : Installed external ASPI interface
Gap handling : Appended to previous track

Used output format : User Defined Encoder
Selected bitrate : 128 kBit/s
Quality : High
Add ID3 tag : No
Command line compressor : G:\Program Files\FLAC\flac.exe
Additional command line options : -8 -V -T "ARTIST=%a" -T "TITLE=%t" -T "ALBUM=%g" -T "DATE=%y" -T "TRACKNUMBER=%n" -T "GENRE=%m" -T "COMMENT=ripped by DrStandBy" %s


TOC of the extracted CD

Track | Start | Length | Start sector | End sector
––––––––––––––––––––––––––––-
1 | 0:00.00 | 4:43.47 | 0 | 21271
2 | 4:43.47 | 3:36.09 | 21272 | 37480
3 | 8:19.56 | 3:29.41 | 37481 | 53196
4 | 11:49.22 | 7:25.72 | 53197 | 86643
5 | 19:15.19 | 6:05.45 | 86644 | 114063
6 | 25:20.64 | 7:03.27 | 114064 | 145815
7 | 32:24.16 | 6:59.67 | 145816 | 177307
8 | 39:24.08 | 5:58.69 | 177308 | 204226
9 | 45:23.02 | 4:18.43 | 204227 | 223619
10 | 49:41.45 | 3:47.55 | 223620 | 240699
11 | 53:29.25 | 3:32.68 | 240700 | 256667
12 | 57:02.18 | 6:28.36 | 256668 | 285803
13 | 63:30.54 | 4:16.56 | 285804 | 305059
14 | 67:47.35 | 4:27.02 | 305060 | 325086
15 | 72:14.37 | 4:42.28 | 325087 | 346264


Track 1

Filename C:\Lossless\Blank & Jones\Compilations\2009 - Milchbar Seaside Season\01. Blank & Jones - Die Blaue Stunde.wav

Pre-gap length 0:00:02.00

Peak level 96.5 %
Track quality 100.0 %
Test CRC DA0C7939
Copy CRC DA0C7939
Track not present in AccurateRip database
Copy OK

Track 2

Filename C:\Lossless\Blank & Jones\Compilations\2009 - Milchbar Seaside Season\02. Pochill - Porque.wav

Peak level 95.4 %
Track quality 100.0 %
Test CRC D19B58F1
Copy CRC D19B58F1
Track not present in AccurateRip database
Copy OK

Track 3

Filename C:\Lossless\Blank & Jones\Compilations\2009 - Milchbar Seaside Season\03. Trinah - Follow You.wav

Peak level 99.9 %
Track quality 99.9 %
Test CRC 36B3AECA
Copy CRC 36B3AECA
Track not present in AccurateRip database
Copy OK

Track 4

Filename C:\Lossless\Blank & Jones\Compilations\2009 - Milchbar Seaside Season\04. Blank & Jones feat. Bobo - Where You Belong (Poolside House Mix).wav

Pre-gap length 0:00:00.14

Peak level 100.0 %
Track quality 99.9 %
Test CRC 5678D658
Copy CRC 5678D658
Track not present in AccurateRip database
Copy OK

Track 5

Filename C:\Lossless\Blank & Jones\Compilations\2009 - Milchbar Seaside Season\05. Max Melvin - Seasons.wav

Pre-gap length 0:00:00.14

Peak level 99.6 %
Track quality 99.9 %
Test CRC F3D6CD1E
Copy CRC F3D6CD1E
Track not present in AccurateRip database
Copy OK

Track 6

Filename C:\Lossless\Blank & Jones\Compilations\2009 - Milchbar Seaside Season\06. Mystic Diversions - Dance Of The Seven Veils.wav

Peak level 99.9 %
Track quality 99.9 %
Test CRC 1D1E49BC
Copy CRC 1D1E49BC
Track not present in AccurateRip database
Copy OK

Track 7

Filename C:\Lossless\Blank & Jones\Compilations\2009 - Milchbar Seaside Season\07. Rapid Eye - Circa-Forever (Chillseeking Mix).wav

Peak level 99.9 %
Track quality 100.0 %
Test CRC 5C1A016C
Copy CRC 5C1A016C
Track not present in AccurateRip database
Copy OK

Track 8

Filename C:\Lossless\Blank & Jones\Compilations\2009 - Milchbar Seaside Season\08. Michael Rother - Morning After (Loneliness).wav

Pre-gap length 0:00:00.14

Peak level 98.9 %
Track quality 100.0 %
Test CRC 65D12549
Copy CRC 65D12549
Track not present in AccurateRip database
Copy OK

Track 9

Filename C:\Lossless\Blank & Jones\Compilations\2009 - Milchbar Seaside Season\09. Blank & Jones feat. Mike Francis - I Love You (Late Night Mix).wav

Peak level 97.0 %
Track quality 100.0 %
Test CRC 1FC8EF4C
Copy CRC 1FC8EF4C
Track not present in AccurateRip database
Copy OK

Track 10

Filename C:\Lossless\Blank & Jones\Compilations\2009 - Milchbar Seaside Season\10. Mystic Diversions - Miniatures Of You.wav

Pre-gap length 0:00:00.05

Peak level 97.7 %
Track quality 100.0 %
Test CRC 90159AC4
Copy CRC 90159AC4
Track not present in AccurateRip database
Copy OK

Track 11

Filename C:\Lossless\Blank & Jones\Compilations\2009 - Milchbar Seaside Season\11. Sinan - Step Into A New Life (Instrumental).wav

Pre-gap length 0:00:00.14

Peak level 100.0 %
Track quality 100.0 %
Test CRC FDC5BD97
Copy CRC FDC5BD97
Track not present in AccurateRip database
Copy OK

Track 12

Filename C:\Lossless\Blank & Jones\Compilations\2009 - Milchbar Seaside Season\12. Cantoma - Marisi.wav

Pre-gap length 0:00:00.02

Peak level 96.6 %
Track quality 100.0 %
Test CRC 9E15BD39
Copy CRC 9E15BD39
Track not present in AccurateRip database
Copy OK

Track 13

Filename C:\Lossless\Blank & Jones\Compilations\2009 - Milchbar Seaside Season\13. Bliss - So Still.wav

Peak level 99.9 %
Track quality 100.0 %
Test CRC B6FC675E
Copy CRC B6FC675E
Track not present in AccurateRip database
Copy OK

Track 14

Filename C:\Lossless\Blank & Jones\Compilations\2009 - Milchbar Seaside Season\14. Blank & Jones - Counting Clouds.wav

Peak level 99.9 %
Track quality 100.0 %
Test CRC BC711C76
Copy CRC BC711C76
Track not present in AccurateRip database
Copy OK

Track 15

Filename C:\Lossless\Blank & Jones\Compilations\2009 - Milchbar Seaside Season\15. Mike Francis - Summer Breeze (Blank & Jones RELAX Mix).wav

Peak level 99.9 %
Track quality 100.0 %
Test CRC 5D1128CE
Copy CRC 5D1128CE
Track not present in AccurateRip database
Copy OK


None of the tracks are present in the AccurateRip database

No errors occurred

End of status report

[CUETools log; Date: 17.01.2020 15:22:46; Version: 2.1.4]
[CTDB TOCID: RvEdPhy6Y9EI9sx8z4k2.5SHhfE-] found.
Track | CTDB Status
1 | (32/32) Accurately ripped
2 | (31/32) Accurately ripped
3 | (31/32) Accurately ripped
4 | (31/32) Accurately ripped
5 | (31/32) Accurately ripped
6 | (31/32) Accurately ripped
7 | (31/32) Accurately ripped
8 | (31/32) Accurately ripped
9 | (31/32) Accurately ripped
10 | (31/32) Accurately ripped
11 | (31/32) Accurately ripped
12 | (31/32) Accurately ripped
13 | (31/32) Accurately ripped
14 | (31/32) Accurately ripped
15 | (31/32) Accurately ripped
[AccurateRip ID: 002b142d-01ea4148-c812080f] found.
Track [ CRC | V2 ] Status
01 [48bc3c41|9e595792] (11+10/23) Accurately ripped
02 [c2828bf2|1e4058cd] (11+09/22) Accurately ripped
03 [7bdf3b42|e65b02ce] (11+10/23) Accurately ripped
04 [c66b16a7|75e88e91] (11+09/22) Accurately ripped
05 [5f03fbbd|468099a5] (11+10/23) Accurately ripped
06 [8efaccce|886e8b41] (11+10/23) Accurately ripped
07 [ec604d7e|6a0ac836] (11+10/23) Accurately ripped
08 [2d627a99|ed4bfd9e] (11+09/22) Accurately ripped
09 [3df6e797|12863d60] (11+09/22) Accurately ripped
10 [d4a27cda|37441cc2] (11+10/23) Accurately ripped
11 [7512e60c|25403b40] (11+09/22) Accurately ripped
12 [0cd0a531|35d53906] (11+10/23) Accurately ripped
13 [fcabf89c|b529d48b] (11+09/22) Accurately ripped
14 [4279f29a|409f5fea] (11+10/23) Accurately ripped
15 [ef7421b0|f7222ced] (11+10/21) Accurately ripped
Offsetted by -18:
01 [b9ed01e6] (02/23) Accurately ripped
02 [be506e13] (02/22) Accurately ripped
03 [49d47708] (02/23) Accurately ripped
04 [31906dc8] (02/22) Accurately ripped
05 [0dc072ba] (02/23) Accurately ripped
06 [96fd6acf] (02/23) Accurately ripped
07 [e1c58f2f] (02/23) Accurately ripped
08 [24bc26f2] (02/22) Accurately ripped
09 [4e09feab] (02/22) Accurately ripped
10 [e47fad88] (02/23) Accurately ripped
11 [b30959f9] (02/22) Accurately ripped
12 [8abfb021] (02/23) Accurately ripped
13 [5e16975b] (02/22) Accurately ripped
14 [675ec0b6] (02/23) Accurately ripped
15 [284ad289] (00/21) No match (V2 was not tested)

Track Peak [ CRC32 ] [W/O NULL] [ LOG ]
– 99,9 [0F35CD9C] [6AA7CBE8]
01 96,5 [DA0C7939] [DE74F35D] CRC32
02 95,4 [D19B58F1] [53C646AC] CRC32
03 99,9 [36B3AECA] [5F2E4E46] CRC32
04 99,9 [5678D658] [57B2219C] CRC32
05 99,6 [F3D6CD1E] [B252084B] CRC32
06 99,9 [1D1E49BC] [26F32F36] CRC32
07 99,9 [5C1A016C] [4968A0EE] CRC32
08 98,9 [65D12549] [B8092DAE] CRC32
09 97,0 [1FC8EF4C] [7FD4A75E] CRC32
10 97,7 [90159AC4] [B251D442] CRC32
11 99,9 [FDC5BD97] [81EA6E31] CRC32
12 96,6 [9E15BD39] [A4F16B84] CRC32
13 99,9 [B6FC675E] [CD1C02C5] CRC32
14 99,9 [BC711C76] [E8029A6C] CRC32
15 99,9 [5D1128CE] [849DED59] CRC32

V.A. - Milchbar - Seaside Season 1-7 (Compiled by Blank & Jones) (2009-2015) (Repost)

V.A. - Milchbar - Seaside Season 2 (2010)
EAC Rip | FLAC (tracks+.cue+log) - 472 MB | MP3 CBR 320 kbps (LAME 3.93) - 170 MB | Covers - 492 MB
Genre: Chillout, Lounge, Downtempo | RAR 3% Rec. | Label: Soundcolours (SC 0315)

Tracklist:
01. Blank & Jones / Afterlife - Warm Weather (Norderney Version) / Speck Of Gold
02. Ralph Myerz feat. Pee Wee - My Darling
03. Mystic Diversions - From The Distance
04. Lux - Northern Lights
05. Corderoy - Born Again (Ziad)
06. Blank & Jones - Chilled Cream
07. Dousk - Anagram
08. Mystic Diversions feat. Farias - Inmensidad
09. Donati Feat. Clau Leporace - Bossa Na Hora
10. Blank & Jones - Freelove (Sunset Session Mix)
11. Chris Coco - My Beach House
12. Blank & Jones - Relax (Your Mind) (Sinan Mercenk's Soulful Remix)
13. Samantha James - Angel Love

Total time: 01:12:19

Exact Audio Copy V0.99 prebeta 5 from 4. May 2009

EAC extraction logfile from 28. May 2010, 14:10

Various / Milchbar: Seaside Season 2

Used drive : PLEXTOR DVDR PX-760A Adapter: 0 ID: 0

Read mode : Secure
Utilize accurate stream : Yes
Defeat audio cache : Yes
Make use of C2 pointers : No

Read offset correction : 30
Overread into Lead-In and Lead-Out : No
Fill up missing offset samples with silence : Yes
Delete leading and trailing silent blocks : No
Null samples used in CRC calculations : Yes
Used interface : Native Win32 interface for Win NT & 2000
Gap handling : Appended to previous track

Used output format : User Defined Encoder
Selected bitrate : 128 kBit/s
Quality : High
Add ID3 tag : No
Command line compressor : C:\Program Files (x86)\Exact Audio Copy\Flac\flac.exe
Additional command line options : -8 -V -T "ARTIST=%a" -T "TITLE=%t" -T "ALBUM=%g" -T "DATE=%y" -T "TRACKNUMBER=%n" -T "GENRE=%m" -T "COMMENT=ripped by DrStandBy" %s


TOC of the extracted CD

Track | Start | Length | Start sector | End sector
––––––––––––––––––––––––––––-
1 | 0:00.00 | 9:08.23 | 0 | 41122
2 | 9:08.23 | 3:18.31 | 41123 | 56003
3 | 12:26.54 | 4:11.43 | 56004 | 74871
4 | 16:38.22 | 5:00.47 | 74872 | 97418
5 | 21:38.69 | 5:28.11 | 97419 | 122029
6 | 27:07.05 | 6:49.06 | 122030 | 152710
7 | 33:56.11 | 4:25.34 | 152711 | 172619
8 | 38:21.45 | 5:23.35 | 172620 | 196879
9 | 43:45.05 | 4:00.21 | 196880 | 214900
10 | 47:45.26 | 6:07.38 | 214901 | 242463
11 | 53:52.64 | 6:42.47 | 242464 | 272660
12 | 60:35.36 | 5:20.67 | 272661 | 296727
13 | 65:56.28 | 6:23.01 | 296728 | 325453


Track 1

Filename D:\Blank & Jones\Compilations\2010 - Milchbar Seaside Season 2 (Soundcolours #SC 0315)\01. Blank & Jones - Warm Weather (Norderney Version), Afterlife - Speck Of Gold.wav

Pre-gap length 0:00:02.00

Peak level 99.9 %
Track quality 100.0 %
Test CRC 62B03653
Copy CRC 62B03653
Track not present in AccurateRip database
Copy OK

Track 2

Filename D:\Blank & Jones\Compilations\2010 - Milchbar Seaside Season 2 (Soundcolours #SC 0315)\02. Ralph Myerz feat. Pee Wee - My Darling.wav

Peak level 99.9 %
Track quality 100.0 %
Test CRC B6509D61
Copy CRC B6509D61
Track not present in AccurateRip database
Copy OK

Track 3

Filename D:\Blank & Jones\Compilations\2010 - Milchbar Seaside Season 2 (Soundcolours #SC 0315)\03. Mystic Diversions - From The Distance.wav

Peak level 99.9 %
Track quality 100.0 %
Test CRC 9EB5F309
Copy CRC 9EB5F309
Track not present in AccurateRip database
Copy OK

Track 4

Filename D:\Blank & Jones\Compilations\2010 - Milchbar Seaside Season 2 (Soundcolours #SC 0315)\04. Lux - Northern Lights.wav

Peak level 99.9 %
Track quality 100.0 %
Test CRC 219260EB
Copy CRC 219260EB
Track not present in AccurateRip database
Copy OK

Track 5

Filename D:\Blank & Jones\Compilations\2010 - Milchbar Seaside Season 2 (Soundcolours #SC 0315)\05. Corderoy - Born Again (Ziad).wav

Peak level 79.7 %
Track quality 100.0 %
Test CRC FF7CFADF
Copy CRC FF7CFADF
Track not present in AccurateRip database
Copy OK

Track 6

Filename D:\Blank & Jones\Compilations\2010 - Milchbar Seaside Season 2 (Soundcolours #SC 0315)\06. Blank & Jones - Chilled Cream.wav

Peak level 99.9 %
Track quality 99.9 %
Test CRC B0ADBEB7
Copy CRC B0ADBEB7
Track not present in AccurateRip database
Copy OK

Track 7

Filename D:\Blank & Jones\Compilations\2010 - Milchbar Seaside Season 2 (Soundcolours #SC 0315)\07. Dousk - Anagram.wav

Peak level 99.9 %
Track quality 100.0 %
Test CRC 2F1A85FB
Copy CRC 2F1A85FB
Track not present in AccurateRip database
Copy OK

Track 8

Filename D:\Blank & Jones\Compilations\2010 - Milchbar Seaside Season 2 (Soundcolours #SC 0315)\08. Mystic Diversions feat. Farias - Inmensidad.wav

Peak level 99.9 %
Track quality 100.0 %
Test CRC E0DC8B32
Copy CRC E0DC8B32
Track not present in AccurateRip database
Copy OK

Track 9

Filename D:\Blank & Jones\Compilations\2010 - Milchbar Seaside Season 2 (Soundcolours #SC 0315)\09. Donati Feat. Clau Leporace - Bossa Na Hora.wav

Peak level 99.9 %
Track quality 100.0 %
Test CRC B7012CD4
Copy CRC B7012CD4
Track not present in AccurateRip database
Copy OK

Track 10

Filename D:\Blank & Jones\Compilations\2010 - Milchbar Seaside Season 2 (Soundcolours #SC 0315)\10. Blank & Jones - Freelove (Sunset Session Mix).wav

Peak level 87.4 %
Track quality 100.0 %
Test CRC B6FCB385
Copy CRC B6FCB385
Track not present in AccurateRip database
Copy OK

Track 11

Filename D:\Blank & Jones\Compilations\2010 - Milchbar Seaside Season 2 (Soundcolours #SC 0315)\11. Chris Coco - My Beach House.wav

Peak level 99.9 %
Track quality 100.0 %
Test CRC EDD1C3AB
Copy CRC EDD1C3AB
Track not present in AccurateRip database
Copy OK

Track 12

Filename D:\Blank & Jones\Compilations\2010 - Milchbar Seaside Season 2 (Soundcolours #SC 0315)\12. Blank & Jones - Relax (Your Mind) (Sinan Mercenk's Soulful Remix).wav

Peak level 99.9 %
Track quality 100.0 %
Test CRC 8E34AD7A
Copy CRC 8E34AD7A
Track not present in AccurateRip database
Copy OK

Track 13

Filename D:\Blank & Jones\Compilations\2010 - Milchbar Seaside Season 2 (Soundcolours #SC 0315)\13. Samantha James - Angel Love.wav

Peak level 99.1 %
Track quality 100.0 %
Test CRC B4F234D0
Copy CRC B4F234D0
Track not present in AccurateRip database
Copy OK


None of the tracks are present in the AccurateRip database

No errors occurred

End of status report

[CUETools log; Date: 17.01.2020 15:19:52; Version: 2.1.4]
[CTDB TOCID: iiSQF00YlFvyEMu2gwh.N_2c8AY-] found.
Track | CTDB Status
1 | (25/26) Accurately ripped
2 | (26/26) Accurately ripped
3 | (26/26) Accurately ripped
4 | (26/26) Accurately ripped
5 | (26/26) Accurately ripped
6 | (26/26) Accurately ripped
7 | (26/26) Accurately ripped
8 | (26/26) Accurately ripped
9 | (26/26) Accurately ripped
10 | (26/26) Accurately ripped
11 | (25/26) Accurately ripped
12 | (26/26) Accurately ripped
13 | (26/26) Accurately ripped
[AccurateRip ID: 0022930b-01573649-ab10f30d] found.
Track [ CRC | V2 ] Status
01 [127a06b6|f58577f7] (12+15/27) Accurately ripped
02 [f981d1bd|b8ec6f11] (12+15/27) Accurately ripped
03 [b53676ce|0450e2c3] (12+15/27) Accurately ripped
04 [f7f1c066|44c154d8] (12+15/27) Accurately ripped
05 [a52096ad|72527b8f] (12+15/27) Accurately ripped
06 [ae60ab52|e4bf03bd] (12+15/27) Accurately ripped
07 [1cdcd976|1fe58d69] (12+15/27) Accurately ripped
08 [71f66e47|ba6c2443] (12+14/26) Accurately ripped
09 [57a68bd5|150d2330] (12+14/26) Accurately ripped
10 [f4df193e|14c15fd4] (12+14/26) Accurately ripped
11 [d13de4be|0e83f651] (12+14/26) Accurately ripped
12 [185b9906|34c63055] (12+15/27) Accurately ripped
13 [2c9f5501|230c7131] (12+14/26) Accurately ripped

Track Peak [ CRC32 ] [W/O NULL] [ LOG ]
– 99,9 [BCA4AF20] [D6F94A1E]
01 99,9 [62B03653] [BC172CEE] CRC32
02 99,9 [B6509D61] [FE2A6550] CRC32
03 99,9 [9EB5F309] [D2EC6E10] CRC32
04 99,9 [219260EB] [F2B4B0FA] CRC32
05 79,7 [FF7CFADF] [09686D6C] CRC32
06 99,9 [B0ADBEB7] [7452044A] CRC32
07 99,9 [2F1A85FB] [D9A02704] CRC32
08 99,9 [E0DC8B32] [B10CC64B] CRC32
09 99,9 [B7012CD4] [B82BBA47] CRC32
10 87,4 [B6FCB385] [A49A6656] CRC32
11 99,9 [EDD1C3AB] [4F8EC59E] CRC32
12 99,9 [8E34AD7A] [AA51A3DA] CRC32
13 99,1 [B4F234D0] [A53BEF89] CRC32

V.A. - Milchbar - Seaside Season 1-7 (Compiled by Blank & Jones) (2009-2015) (Repost)

V.A. - Milchbar - Seaside Season 3 (2011)
EAC Rip | FLAC (tracks+.cue+log) - 465 MB | MP3 CBR 320 kbps (LAME 3.93) - 168 MB | Covers - 294 MB
Genre: Chillout, Lounge, Downtempo | RAR 3% Rec. | Label: Soundcolours (SC 0322)

Tracklist:
01. Blank & Jones - From N'ney With Love (Original Mix)
02. Samantha James - Amber Sky (Original Mix)
03. Cantoma - Out Of Town (Original Mix)
04. Mooi - Sway (Original Mix)
05. Infernal - Serengeti (Bliss Mix)
06. Nena - Lass Mich Dein Pirat Sein (Original Mix)
07. A Reminiscent Drive - Ambrosia (Original Mix)
08. Chris Coco - Down To The Sea (Spring Tide Mix)
09. Naomi - Three Stars No Match (Original Mix)
10. Blank & Jones With Cathy Battistessa - Miracle Man (Afterlife Remix)
11. Pochill - Violet Theme (Nick Version)
12. Mike Francis - Bossa Per Emilia (Original Mix)
13. Trumpet Man vs. Cotton Belly - When In Spain (Original Mix)
14. Blank & Jones - Pura Vida (Radio Mix)
15. Fishtank - The Eighty Eight (Original Mix)
16. The Pains Of Being Pure At Heart - Higher Than The Stars (Saint Etienne Visits Lord Spank Remix)

Total time: 01:11:17

Exact Audio Copy V1.0 beta 1 from 15. November 2010

EAC extraction logfile from 29. April 2011, 11:59

Various / Milchbar Seaside Season 3

Used drive : TSSTcorpCDW/DVD SH-M522C Adapter: 1 ID: 0

Read mode : Secure
Utilize accurate stream : Yes
Defeat audio cache : Yes
Make use of C2 pointers : No

Read offset correction : 6
Overread into Lead-In and Lead-Out : No
Fill up missing offset samples with silence : Yes
Delete leading and trailing silent blocks : No
Null samples used in CRC calculations : Yes
Used interface : Native Win32 interface for Win NT & 2000
Gap handling : Appended to previous track

Used output format : User Defined Encoder
Selected bitrate : 1024 kBit/s
Quality : High
Add ID3 tag : No
Command line compressor : C:\софт\Flac\flac.exe
Additional command line options : -8 -V -T "ARTIST=%a" -T "TITLE=%t" -T "ALBUM=%g" -T "DATE=%y" -T "TRACKNUMBER=%n" -T "GENRE=%m" -T "COMMENT=ripped by DrStandBy" %s


TOC of the extracted CD

Track | Start | Length | Start sector | End sector
––––––––––––––––––––––––––––-
1 | 0:00.00 | 4:39.19 | 0 | 20943
2 | 4:39.19 | 3:14.04 | 20944 | 35497
3 | 7:53.23 | 5:12.73 | 35498 | 58970
4 | 13:06.21 | 4:06.08 | 58971 | 77428
5 | 17:12.29 | 5:24.22 | 77429 | 101750
6 | 22:36.51 | 4:51.54 | 101751 | 123629
7 | 27:28.30 | 3:33.40 | 123630 | 139644
8 | 31:01.70 | 3:54.14 | 139645 | 157208
9 | 34:56.09 | 4:18.43 | 157209 | 176601
10 | 39:14.52 | 4:38.72 | 176602 | 197523
11 | 43:53.49 | 4:10.29 | 197524 | 216302
12 | 48:04.03 | 2:45.23 | 216303 | 228700
13 | 50:49.26 | 5:29.20 | 228701 | 253395
14 | 56:18.46 | 3:33.11 | 253396 | 269381
15 | 59:51.57 | 4:52.59 | 269382 | 291340
16 | 64:44.41 | 6:32.38 | 291341 | 320778


Track 1

Filename C:\2011 - Milchbar Seaside Season 3 (Soundcolours #SC 0322)\01. Blank & Jones - From N'ney With Love (Original Mix).wav

Pre-gap length 0:00:02.00

Peak level 99.9 %
Extraction speed 1.9 X
Track quality 99.9 %
Test CRC 9C1C6471
Copy CRC 9C1C6471
Track not present in AccurateRip database
Copy OK

Track 2

Filename C:\2011 - Milchbar Seaside Season 3 (Soundcolours #SC 0322)\02. Samantha James - Amber Sky (Original Mix).wav

Peak level 99.9 %
Extraction speed 2.1 X
Track quality 100.0 %
Test CRC 67273891
Copy CRC 67273891
Track not present in AccurateRip database
Copy OK

Track 3

Filename C:\2011 - Milchbar Seaside Season 3 (Soundcolours #SC 0322)\03. Cantoma - Out Of Town (Original Mix).wav

Peak level 99.9 %
Extraction speed 2.4 X
Track quality 100.0 %
Test CRC 0948BCB3
Copy CRC 0948BCB3
Track not present in AccurateRip database
Copy OK

Track 4

Filename C:\2011 - Milchbar Seaside Season 3 (Soundcolours #SC 0322)\04. Mooi - Sway (Original Mix).wav

Peak level 99.9 %
Extraction speed 2.6 X
Track quality 100.0 %
Test CRC 22B43A2E
Copy CRC 22B43A2E
Track not present in AccurateRip database
Copy OK

Track 5

Filename C:\2011 - Milchbar Seaside Season 3 (Soundcolours #SC 0322)\05. Infernal - Serengeti (Bliss Mix).wav

Peak level 99.9 %
Extraction speed 2.8 X
Track quality 100.0 %
Test CRC 36981943
Copy CRC 36981943
Track not present in AccurateRip database
Copy OK

Track 6

Filename C:\2011 - Milchbar Seaside Season 3 (Soundcolours #SC 0322)\06. Nena - Lass Mich Dein Pirat Sein (Original Mix).wav

Peak level 99.9 %
Extraction speed 3.0 X
Track quality 100.0 %
Test CRC FEB8E330
Copy CRC FEB8E330
Track not present in AccurateRip database
Copy OK

Track 7

Filename C:\2011 - Milchbar Seaside Season 3 (Soundcolours #SC 0322)\07. A Reminiscent Drive - Ambrosia (Original Mix).wav

Peak level 99.9 %
Extraction speed 2.6 X
Track quality 99.9 %
Test CRC FADE4716
Copy CRC FADE4716
Track not present in AccurateRip database
Copy OK

Track 8

Filename C:\2011 - Milchbar Seaside Season 3 (Soundcolours #SC 0322)\08. Chris Coco - Down To The Sea (Spring Tide Mix).wav

Peak level 99.9 %
Extraction speed 3.2 X
Track quality 100.0 %
Test CRC 2AD1E26A
Copy CRC 2AD1E26A
Track not present in AccurateRip database
Copy OK

Track 9

Filename C:\2011 - Milchbar Seaside Season 3 (Soundcolours #SC 0322)\09. Naomi - Three Stars No Match (Original Mix).wav

Peak level 99.9 %
Extraction speed 3.3 X
Track quality 100.0 %
Test CRC 249E2865
Copy CRC 249E2865
Track not present in AccurateRip database
Copy OK

Track 10

Filename C:\2011 - Milchbar Seaside Season 3 (Soundcolours #SC 0322)\10. Blank & Jones With Cathy Battistessa - Miracle Man (Afterlife Remix).wav

Peak level 99.9 %
Extraction speed 3.5 X
Track quality 100.0 %
Test CRC D9D22396
Copy CRC D9D22396
Track not present in AccurateRip database
Copy OK

Track 11

Filename C:\2011 - Milchbar Seaside Season 3 (Soundcolours #SC 0322)\11. Pochill - Violet Theme (Nick Version).wav

Peak level 94.3 %
Extraction speed 3.0 X
Track quality 99.9 %
Test CRC 6819CB35
Copy CRC 6819CB35
Track not present in AccurateRip database
Copy OK

Track 12

Filename C:\2011 - Milchbar Seaside Season 3 (Soundcolours #SC 0322)\12. Mike Francis - Bossa Per Emilia (Original Mix).wav

Peak level 99.9 %
Extraction speed 3.4 X
Track quality 100.0 %
Test CRC 694E477C
Copy CRC 694E477C
Track not present in AccurateRip database
Copy OK

Track 13

Filename C:\2011 - Milchbar Seaside Season 3 (Soundcolours #SC 0322)\13. Trumpet Man vs. Cotton Belly - When In Spain (Original Mix).wav

Peak level 99.9 %
Extraction speed 3.9 X
Track quality 100.0 %
Test CRC A020FD24
Copy CRC A020FD24
Track not present in AccurateRip database
Copy OK

Track 14

Filename C:\2011 - Milchbar Seaside Season 3 (Soundcolours #SC 0322)\14. Blank & Jones - Pura Vida (Radio Mix).wav

Peak level 95.3 %
Extraction speed 3.8 X
Track quality 100.0 %
Test CRC B0E6D322
Copy CRC B0E6D322
Track not present in AccurateRip database
Copy OK

Track 15

Filename C:\2011 - Milchbar Seaside Season 3 (Soundcolours #SC 0322)\15. Fishtank - The Eighty Eight (Original Mix).wav

Peak level 99.9 %
Extraction speed 4.1 X
Track quality 100.0 %
Test CRC 15E57333
Copy CRC 15E57333
Track not present in AccurateRip database
Copy OK

Track 16

Filename C:\2011 - Milchbar Seaside Season 3 (Soundcolours #SC 0322)\16. The Pains Of Being Pure At Heart - Higher Than The Stars (Saint Etienne Visits Lord Spank Remix).wav

Peak level 97.4 %
Extraction speed 3.8 X
Track quality 99.9 %
Test CRC D37613D9
Copy CRC D37613D9
Track not present in AccurateRip database
Copy OK


None of the tracks are present in the AccurateRip database

No errors occurred

End of status report

==== Log checksum C089E759A83BBDD7FA7855089EE0B33B38632143BB5874EFF710C1CB075448B8 ====

[CUETools log; Date: 17.01.2020 15:20:18; Version: 2.1.4]
[CTDB TOCID: WTfBzungJ88y5HLkJZVY1mkZHLo-] found.
Track | CTDB Status
1 | (135/136) Accurately ripped
2 | (135/136) Accurately ripped
3 | (135/136) Accurately ripped
4 | (135/136) Accurately ripped
5 | (135/136) Accurately ripped
6 | (135/136) Accurately ripped
7 | (135/136) Accurately ripped
8 | (135/136) Accurately ripped
9 | (135/136) Accurately ripped
10 | (135/136) Accurately ripped
11 | (135/136) Accurately ripped
12 | (134/136) Accurately ripped
13 | (135/136) Accurately ripped
14 | (135/136) Accurately ripped
15 | (135/136) Accurately ripped
16 | (128/136) Accurately ripped
[AccurateRip ID: 0028ba31-01e82073-fa10b510] found.
Track [ CRC | V2 ] Status
01 [667c5d0e|33f95201] (07+60/67) Accurately ripped
02 [15e0b208|f7c7215f] (07+60/67) Accurately ripped
03 [e84d8fc9|f15dac79] (07+60/67) Accurately ripped
04 [35586c48|565e87ca] (07+59/66) Accurately ripped
05 [85c15fbd|1a1ad603] (07+60/67) Accurately ripped
06 [5980b7bd|46519664] (07+60/67) Accurately ripped
07 [bee21c87|49a7eeea] (07+60/67) Accurately ripped
08 [6b79d664|1bb9ac95] (07+60/67) Accurately ripped
09 [0f08f742|e24fd9aa] (07+60/67) Accurately ripped
10 [f36ee7d9|08d762a6] (07+60/67) Accurately ripped
11 [807e3894|484982e4] (07+60/67) Accurately ripped
12 [d971122a|964a4c1e] (07+59/66) Accurately ripped
13 [5df92c3f|9996deac] (07+60/67) Accurately ripped
14 [4b496497|d3a89fed] (07+60/67) Accurately ripped
15 [cd52f9ea|e9d17db6] (06+58/64) Accurately ripped
16 [657c46bd|3dbd54f9] (05+57/62) Accurately ripped

Track Peak [ CRC32 ] [W/O NULL] [ LOG ]
– 99,9 [18C3F745] [5264C87F]
01 99,9 [9C1C6471] [23FF4D03] CRC32
02 99,9 [67273891] [2D22D3FD] CRC32
03 99,9 [0948BCB3] [78919A86] CRC32
04 99,9 [22B43A2E] [E6D0643B] CRC32
05 99,9 [36981943] [E0993EF5] CRC32
06 99,9 [FEB8E330] [E7A74238] CRC32
07 99,9 [FADE4716] [A676FDE7] CRC32
08 99,9 [2AD1E26A] [40A227B4] CRC32
09 99,9 [249E2865] [203AB8CF] CRC32
10 99,9 [D9D22396] [57D6B14E] CRC32
11 94,3 [6819CB35] [E7B4C982] CRC32
12 99,9 [694E477C] [E75F8270] CRC32
13 99,9 [A020FD24] [FFD1FC74] CRC32
14 95,3 [B0E6D322] [73716D9D] CRC32
15 99,9 [15E57333] [4A8A6A11] CRC32
16 97,4 [D37613D9] [98A67220] CRC32

V.A. - Milchbar - Seaside Season 1-7 (Compiled by Blank & Jones) (2009-2015) (Repost)

V.A. - Milchbar - Seaside Season 4 (2012)
EAC Rip | FLAC (tracks+.cue+log) - 395 MB | MP3 CBR 320 kbps (LAME 3.93) - 149 MB | Covers - 379 MB
Genre: Chillout, Lounge, Downtempo | RAR 3% Rec. | Label: Soundcolours (SC 0332)

Tracklist:
01. Blank & Jones with Til Schweiger - Sonnenuntergang
02. Blue Six - Aquarian Angel
03. Chicane - Low Sun
04. Josete Ordonez - Piedras y Rosas (Blank & Jones Balearic Chill Remix)
05. Nikonn - Sunday
06. Bliss - Blissful Moment
07. Cantoma - Katja
08. Blank & Jones with Mike Francis - Survivor
09. Afterlife - Smooch
10. Sinan Mercenk - He Say (Blank & Jones Smooth & Chilled Revisit)
11. Blank & Jones - Coming Home (Afterlife Remix)
12. Chilly Gonzales - Knight Moves
13. Luke - Heavens On Fire

Total time: 01:03:28

Exact Audio Copy V1.0 beta 3 from 29. August 2011

EAC extraction logfile from 21. April 2012, 20:08

Various / Milchbar Seaside Season 4

Used drive : PLEXTOR DVDR PX-760A Adapter: 0 ID: 1

Read mode : Secure
Utilize accurate stream : Yes
Defeat audio cache : Yes
Make use of C2 pointers : No

Read offset correction : 30
Overread into Lead-In and Lead-Out : Yes
Fill up missing offset samples with silence : Yes
Delete leading and trailing silent blocks : No
Null samples used in CRC calculations : Yes
Used interface : Native Win32 interface for Win NT & 2000
Gap handling : Appended to previous track

Used output format : User Defined Encoder
Selected bitrate : 1024 kBit/s
Quality : High
Add ID3 tag : No
Command line compressor : C:\Program Files (x86)\Exact Audio Copy\Flac\flac.exe
Additional command line options : -8 -V -T "ARTIST=%artist%" -T "TITLE=%title%" -T "ALBUM=%albumtitle%" -T "DATE=%year%" -T "TRACKNUMBER=%tracknr%" -T "GENRE=%genre%" -T "COMMENT=ripped by DrStandBy" %source%


TOC of the extracted CD

Track | Start | Length | Start sector | End sector
––––––––––––––––––––––––––––-
1 | 0:00.00 | 6:54.14 | 0 | 31063
2 | 6:54.14 | 4:50.30 | 31064 | 52843
3 | 11:44.44 | 6:49.22 | 52844 | 83540
4 | 18:33.66 | 5:10.74 | 83541 | 106864
5 | 23:44.65 | 4:37.46 | 106865 | 127685
6 | 28:22.36 | 2:10.01 | 127686 | 137436
7 | 30:32.37 | 6:00.13 | 137437 | 164449
8 | 36:32.50 | 3:57.18 | 164450 | 182242
9 | 40:29.68 | 5:06.05 | 182243 | 205197
10 | 45:35.73 | 3:15.72 | 205198 | 219894
11 | 48:51.70 | 5:02.30 | 219895 | 242574
12 | 53:54.25 | 5:09.02 | 242575 | 265751
13 | 59:03.27 | 4:24.40 | 265752 | 285591


Track 1

Filename E:\Blank & Jones\Compilations\2012 - Milchbar Seaside Season 4 (Soundcolours #SC 0332)\01. Blank & Jones with Til Schweiger - Sonnenuntergang.wav

Pre-gap length 0:00:02.00

Peak level 94.6 %
Extraction speed 2.3 X
Track quality 100.0 %
Test CRC 0D772BF4
Copy CRC 0D772BF4
Track not present in AccurateRip database
Copy OK

Track 2

Filename E:\Blank & Jones\Compilations\2012 - Milchbar Seaside Season 4 (Soundcolours #SC 0332)\02. Blue Six - Aquarian Angel.wav

Pre-gap length 0:00:01.65

Peak level 95.4 %
Extraction speed 2.2 X
Track quality 100.0 %
Test CRC 32952DDA
Copy CRC 32952DDA
Track not present in AccurateRip database
Copy OK

Track 3

Filename E:\Blank & Jones\Compilations\2012 - Milchbar Seaside Season 4 (Soundcolours #SC 0332)\03. Chicane - Low Sun.wav

Pre-gap length 0:00:00.52

Peak level 96.6 %
Extraction speed 2.3 X
Track quality 100.0 %
Test CRC A81ECF36
Copy CRC A81ECF36
Track not present in AccurateRip database
Copy OK

Track 4

Filename E:\Blank & Jones\Compilations\2012 - Milchbar Seaside Season 4 (Soundcolours #SC 0332)\04. Josete Ordonez - Piedras y Rosas (Blank & Jones Balearic Chill Remix).wav

Pre-gap length 0:00:00.04

Peak level 97.7 %
Extraction speed 2.2 X
Track quality 100.0 %
Test CRC D50E9688
Copy CRC D50E9688
Track not present in AccurateRip database
Copy OK

Track 5

Filename E:\Blank & Jones\Compilations\2012 - Milchbar Seaside Season 4 (Soundcolours #SC 0332)\05. Nikonn - Sunday.wav

Pre-gap length 0:00:00.04

Peak level 90.3 %
Extraction speed 2.2 X
Track quality 100.0 %
Test CRC 4913A8E9
Copy CRC 4913A8E9
Track not present in AccurateRip database
Copy OK

Track 6

Filename E:\Blank & Jones\Compilations\2012 - Milchbar Seaside Season 4 (Soundcolours #SC 0332)\06. Bliss - Blissful Moment.wav

Peak level 95.5 %
Extraction speed 1.9 X
Track quality 100.0 %
Test CRC 6E742083
Copy CRC 6E742083
Track not present in AccurateRip database
Copy OK

Track 7

Filename E:\Blank & Jones\Compilations\2012 - Milchbar Seaside Season 4 (Soundcolours #SC 0332)\07. Cantoma - Katja.wav

Pre-gap length 0:00:00.46

Peak level 96.0 %
Extraction speed 1.7 X
Track quality 99.9 %
Test CRC BF4AAB55
Copy CRC BF4AAB55
Track not present in AccurateRip database
Copy OK

Track 8

Filename E:\Blank & Jones\Compilations\2012 - Milchbar Seaside Season 4 (Soundcolours #SC 0332)\08. Blank & Jones with Mike Francis - Survivor.wav

Pre-gap length 0:00:00.88

Peak level 97.7 %
Extraction speed 2.1 X
Track quality 100.0 %
Test CRC AD2DE600
Copy CRC AD2DE600
Track not present in AccurateRip database
Copy OK

Track 9

Filename E:\Blank & Jones\Compilations\2012 - Milchbar Seaside Season 4 (Soundcolours #SC 0332)\09. Afterlife - Smooch.wav

Pre-gap length 0:00:00.12

Peak level 95.6 %
Extraction speed 1.6 X
Track quality 99.9 %
Test CRC 62278017
Copy CRC 62278017
Track not present in AccurateRip database
Copy OK

Track 10

Filename E:\Blank & Jones\Compilations\2012 - Milchbar Seaside Season 4 (Soundcolours #SC 0332)\10. Sinan Mercenk - He Say (Blank & Jones Smooth & Chilled Revisit).wav

Pre-gap length 0:00:02.20

Peak level 97.7 %
Extraction speed 2.1 X
Track quality 100.0 %
Test CRC 52ADBF79
Copy CRC 52ADBF79
Track not present in AccurateRip database
Copy OK

Track 11

Filename E:\Blank & Jones\Compilations\2012 - Milchbar Seaside Season 4 (Soundcolours #SC 0332)\11. Blank & Jones - Coming Home (Afterlife Remix).wav

Peak level 97.1 %
Extraction speed 2.2 X
Track quality 100.0 %
Test CRC AA9CC856
Copy CRC AA9CC856
Track not present in AccurateRip database
Copy OK

Track 12

Filename E:\Blank & Jones\Compilations\2012 - Milchbar Seaside Season 4 (Soundcolours #SC 0332)\12. Chilly Gonzales - Knight Moves.wav

Pre-gap length 0:00:00.09

Peak level 87.3 %
Extraction speed 2.2 X
Track quality 100.0 %
Test CRC C355F429
Copy CRC C355F429
Track not present in AccurateRip database
Copy OK

Track 13

Filename E:\Blank & Jones\Compilations\2012 - Milchbar Seaside Season 4 (Soundcolours #SC 0332)\13. Luke - Heavens On Fire.wav

Pre-gap length 0:00:00.16

Peak level 97.7 %
Extraction speed 2.4 X
Track quality 100.0 %
Test CRC 7E843E85
Copy CRC 7E843E85
Track not present in AccurateRip database
Copy OK


None of the tracks are present in the AccurateRip database

No errors occurred

End of status report

–– CUETools DB Plugin V2.1.4

[CTDB TOCID: cACpCgD0riJ0gG6PABFjk1Pc.Mc-] found
Submit result: already submitted
Track | CTDB Status
1 | (4/4) Accurately ripped
2 | (4/4) Accurately ripped
3 | (4/4) Accurately ripped
4 | (4/4) Accurately ripped
5 | (4/4) Accurately ripped
6 | (4/4) Accurately ripped
7 | (4/4) Accurately ripped
8 | (4/4) Accurately ripped
9 | (4/4) Accurately ripped
10 | (4/4) Accurately ripped
11 | (4/4) Accurately ripped
12 | (4/4) Accurately ripped
13 | (4/4) Accurately ripped


==== Log checksum B1EFD6D0940921909463A483847F42E1C33683D6B6A728256A25472124044BEB ====

[CUETools log; Date: 17.01.2020 15:20:44; Version: 2.1.4]
[CTDB TOCID: cACpCgD0riJ0gG6PABFjk1Pc.Mc-] found.
Track | CTDB Status
1 | (122/122) Accurately ripped
2 | (122/122) Accurately ripped
3 | (122/122) Accurately ripped
4 | (122/122) Accurately ripped
5 | (121/122) Accurately ripped
6 | (122/122) Accurately ripped
7 | (122/122) Accurately ripped
8 | (122/122) Accurately ripped
9 | (122/122) Accurately ripped
10 | (122/122) Accurately ripped
11 | (121/122) Accurately ripped
12 | (122/122) Accurately ripped
13 | (122/122) Accurately ripped
[AccurateRip ID: 00201f36-013a739d-a80edf0d] found.
Track [ CRC | V2 ] Status
01 [97b9b724|9dc281a7] (04+53/57) Accurately ripped
02 [f542da4d|bdccfb0c] (04+53/57) Accurately ripped
03 [296f7dae|f7672414] (04+53/57) Accurately ripped
04 [dc62f87a|7bccfc4a] (04+53/57) Accurately ripped
05 [8c934983|a3254c27] (04+53/57) Accurately ripped
06 [5780e25c|6fa52fbb] (04+53/57) Accurately ripped
07 [e7eb1f3c|ed536e67] (04+52/56) Accurately ripped
08 [fcfec8a5|f29e9f43] (04+52/56) Accurately ripped
09 [78fae2c6|165231ff] (04+53/57) Accurately ripped
10 [4731f6f5|7487525a] (04+53/57) Accurately ripped
11 [1043f7ab|43676246] (04+53/57) Accurately ripped
12 [f7127e7c|55de4c86] (04+53/57) Accurately ripped
13 [32c044d9|b0a68556] (04+53/57) Accurately ripped

Track Peak [ CRC32 ] [W/O NULL] [ LOG ]
– 97,7 [636BBC1D] [10566F90]
01 94,6 [0D772BF4] [EC50BA39] CRC32
02 95,4 [32952DDA] [F62D47B0] CRC32
03 96,6 [A81ECF36] [BDAE70C5] CRC32
04 97,7 [D50E9688] [10BEBA42] CRC32
05 90,3 [4913A8E9] [BE7C38CD] CRC32
06 95,5 [6E742083] [6BC6343A] CRC32
07 96,0 [BF4AAB55] [7082A9DE] CRC32
08 97,7 [AD2DE600] [0518FD2A] CRC32
09 95,6 [62278017] [BA8A1331] CRC32
10 97,7 [52ADBF79] [FBE0CAAD] CRC32
11 97,1 [AA9CC856] [3D154A5A] CRC32
12 87,3 [C355F429] [625D074A] CRC32
13 97,7 [7E843E85] [C32EDAD6] CRC32

V.A. - Milchbar - Seaside Season 1-7 (Compiled by Blank & Jones) (2009-2015) (Repost)

V.A. - Milchbar - Seaside Season 5 (2013)
EAC Rip | FLAC (tracks+.cue+log) - 413 MB | MP3 CBR 320 kbps (LAME 3.93) - 165 MB | Covers - 258 MB
Genre: Chillout, Lounge, Downtempo | RAR 3% Rec. | Label: Soundcolours (SC 0336)

Tracklist:
01. Blank & Jones With Coralie Clement - Days Go By
02. Fluff - Silent Life
03. José Padilla - Bosaxi (Touched Mix)
04. Shelby Lynne - Just A Little Lovin'
05. Bliss - Kissing (Instrumental)
06. Blank & Jones - Flaming June
07. Van Bellen - Morning Awakening
08. Celso Fonseca - Sem Reposta
09. Imagination - So Good, So Right (Blank & Jones Edit)
10. A Vida Azul - Landslide
11. Blank & Jones With Cathy Battistessa - Happiness (Milchbar Terrace Mix)
12. Luke - Whatever You Want
13. Fluff - Late Night Session
14. Al Green - Simply Beautiful
15. Franco De Mulero - El Arbol

Total time: 01:10:15

Exact Audio Copy V1.0 beta 3 from 29. August 2011

EAC extraction logfile from 9. May 2013, 11:22

Various / Milchbar Seaside Season 5

Used drive : PLEXTOR DVDR PX-760A Adapter: 0 ID: 1

Read mode : Secure
Utilize accurate stream : Yes
Defeat audio cache : Yes
Make use of C2 pointers : No

Read offset correction : 30
Overread into Lead-In and Lead-Out : Yes
Fill up missing offset samples with silence : Yes
Delete leading and trailing silent blocks : No
Null samples used in CRC calculations : Yes
Used interface : Installed external ASPI interface
Gap handling : Appended to previous track

Used output format : User Defined Encoder
Selected bitrate : 1024 kBit/s
Quality : High
Add ID3 tag : No
Command line compressor : C:\Program Files (x86)\Exact Audio Copy\Flac\flac.exe
Additional command line options : -8 -V -T "ARTIST=%artist%" -T "TITLE=%title%" -T "ALBUM=%albumtitle%" -T "DATE=%year%" -T "TRACKNUMBER=%tracknr%" -T "GENRE=%genre%" -T "COMMENT=ripped by DrStandBy" %source%


TOC of the extracted CD

Track | Start | Length | Start sector | End sector
––––––––––––––––––––––––––––-
1 | 0:00.21 | 3:36.73 | 21 | 16293
2 | 3:37.19 | 5:31.63 | 16294 | 41181
3 | 9:09.07 | 6:03.53 | 41182 | 68459
4 | 15:12.60 | 5:18.35 | 68460 | 92344
5 | 20:31.20 | 6:12.74 | 92345 | 120318
6 | 26:44.19 | 3:40.31 | 120319 | 136849
7 | 30:24.50 | 5:43.34 | 136850 | 162608
8 | 36:08.09 | 2:37.43 | 162609 | 174426
9 | 38:45.52 | 5:14.33 | 174427 | 198009
10 | 44:00.10 | 4:49.69 | 198010 | 219753
11 | 48:50.04 | 4:07.51 | 219754 | 238329
12 | 52:57.55 | 4:23.26 | 238330 | 258080
13 | 57:21.06 | 4:56.27 | 258081 | 280307
14 | 62:17.33 | 4:11.26 | 280308 | 299158
15 | 66:28.59 | 3:46.10 | 299159 | 316118


Track 1

Filename E:\Blank & Jones\Compilations\2013 - Milchbar Seaside Season 5 (Soundcolours #SC 0336)\01. Blank & Jones with Coralie Clement - Days Go By.wav

Pre-gap length 0:00:02.21

Peak level 96.6 %
Extraction speed 2.1 X
Track quality 100.0 %
Test CRC 7FA967FA
Copy CRC 7FA967FA
Track not present in AccurateRip database
Copy OK

Track 2

Filename E:\Blank & Jones\Compilations\2013 - Milchbar Seaside Season 5 (Soundcolours #SC 0336)\02. Fluff - Silent Life.wav

Peak level 85.2 %
Extraction speed 2.2 X
Track quality 100.0 %
Test CRC 8A2407DB
Copy CRC 8A2407DB
Track not present in AccurateRip database
Copy OK

Track 3

Filename E:\Blank & Jones\Compilations\2013 - Milchbar Seaside Season 5 (Soundcolours #SC 0336)\03. José Padilla - Bosaxi (Touched Mix).wav

Peak level 96.6 %
Extraction speed 2.2 X
Track quality 100.0 %
Test CRC 99C03467
Copy CRC 99C03467
Track not present in AccurateRip database
Copy OK

Track 4

Filename E:\Blank & Jones\Compilations\2013 - Milchbar Seaside Season 5 (Soundcolours #SC 0336)\04. Shelby Lynne - Just a Little Lovin'.wav

Peak level 96.6 %
Extraction speed 2.2 X
Track quality 100.0 %
Test CRC 7786B949
Copy CRC 7786B949
Track not present in AccurateRip database
Copy OK

Track 5

Filename E:\Blank & Jones\Compilations\2013 - Milchbar Seaside Season 5 (Soundcolours #SC 0336)\05. Bliss - Kissing (Instrumental).wav

Peak level 86.4 %
Extraction speed 2.3 X
Track quality 100.0 %
Test CRC 2C1CE414
Copy CRC 2C1CE414
Track not present in AccurateRip database
Copy OK

Track 6

Filename E:\Blank & Jones\Compilations\2013 - Milchbar Seaside Season 5 (Soundcolours #SC 0336)\06. Blank & Jones - Flaming June.wav

Peak level 94.6 %
Extraction speed 1.5 X
Track quality 99.9 %
Test CRC 76377609
Copy CRC 76377609
Track not present in AccurateRip database
Copy OK

Track 7

Filename E:\Blank & Jones\Compilations\2013 - Milchbar Seaside Season 5 (Soundcolours #SC 0336)\07. Van Bellen - Morning Awakening.wav

Peak level 96.6 %
Extraction speed 2.2 X
Track quality 100.0 %
Test CRC E2F9E350
Copy CRC E2F9E350
Track not present in AccurateRip database
Copy OK

Track 8

Filename E:\Blank & Jones\Compilations\2013 - Milchbar Seaside Season 5 (Soundcolours #SC 0336)\08. Celso Fonseca - Sem Reposta.wav

Peak level 86.7 %
Extraction speed 2.0 X
Track quality 100.0 %
Test CRC 99509215
Copy CRC 99509215
Track not present in AccurateRip database
Copy OK

Track 9

Filename E:\Blank & Jones\Compilations\2013 - Milchbar Seaside Season 5 (Soundcolours #SC 0336)\09. Imagination - So Good, so Right (Blank & Jones Edit).wav

Peak level 96.6 %
Extraction speed 2.2 X
Track quality 100.0 %
Test CRC DC31DC93
Copy CRC DC31DC93
Track not present in AccurateRip database
Copy OK

Track 10

Filename E:\Blank & Jones\Compilations\2013 - Milchbar Seaside Season 5 (Soundcolours #SC 0336)\10. A Vida Azul - Landslide.wav

Peak level 76.4 %
Extraction speed 2.2 X
Track quality 100.0 %
Test CRC D8F36819
Copy CRC D8F36819
Track not present in AccurateRip database
Copy OK

Track 11

Filename E:\Blank & Jones\Compilations\2013 - Milchbar Seaside Season 5 (Soundcolours #SC 0336)\11. Blank & Jones with Cathy Battistessa - Happiness (Milchbar Terrace Mix).wav

Peak level 81.6 %
Extraction speed 1.5 X
Track quality 99.9 %
Test CRC 3D8763F2
Copy CRC 3D8763F2
Track not present in AccurateRip database
Copy OK

Track 12

Filename E:\Blank & Jones\Compilations\2013 - Milchbar Seaside Season 5 (Soundcolours #SC 0336)\12. Luke - Whatever You Want.wav

Peak level 74.2 %
Extraction speed 2.2 X
Track quality 100.0 %
Test CRC 1FD0415F
Copy CRC 1FD0415F
Track not present in AccurateRip database
Copy OK

Track 13

Filename E:\Blank & Jones\Compilations\2013 - Milchbar Seaside Season 5 (Soundcolours #SC 0336)\13. Fluff - Late Night Session.wav

Peak level 77.5 %
Extraction speed 2.2 X
Track quality 100.0 %
Test CRC 35880550
Copy CRC 35880550
Track not present in AccurateRip database
Copy OK

Track 14

Filename E:\Blank & Jones\Compilations\2013 - Milchbar Seaside Season 5 (Soundcolours #SC 0336)\14. Al Green - Simply Beautiful.wav

Peak level 96.6 %
Extraction speed 1.5 X
Track quality 99.9 %
Test CRC FDF93263
Copy CRC FDF93263
Track not present in AccurateRip database
Copy OK

Track 15

Filename E:\Blank & Jones\Compilations\2013 - Milchbar Seaside Season 5 (Soundcolours #SC 0336)\15. Franco de Mulero - El Arbol.wav

Peak level 96.6 %
Extraction speed 2.4 X
Track quality 100.0 %
Test CRC 4AB200FC
Copy CRC 4AB200FC
Track not present in AccurateRip database
Copy OK


None of the tracks are present in the AccurateRip database

No errors occurred

End of status report

–– CUETools DB Plugin V2.1.4

[CTDB TOCID: xqflSxDnpLoLYGwgYqnR_et4Ywo-] disk not present in database
Submit result: xqflSxDnpLoLYGwgYqnR_et4Ywo- has been uploaded


==== Log checksum 34FDFE2AE7E9A1C98A7A10CB26A8946F6033B60A42DF00D91DBBBDE5B5DBC176 ====

[CUETools log; Date: 17.01.2020 15:21:10; Version: 2.1.4]
Pregap length 00:00:21.
[CTDB TOCID: xqflSxDnpLoLYGwgYqnR_et4Ywo-] found.
Track | CTDB Status
1 | (101/101) Accurately ripped
2 | (101/101) Accurately ripped
3 | (101/101) Accurately ripped
4 | (101/101) Accurately ripped
5 | (101/101) Accurately ripped
6 | (101/101) Accurately ripped
7 | (101/101) Accurately ripped
8 | (101/101) Accurately ripped
9 | (101/101) Accurately ripped
10 | (101/101) Accurately ripped
11 | (101/101) Accurately ripped
12 | (101/101) Accurately ripped
13 | (100/101) Accurately ripped
14 | (101/101) Accurately ripped
15 | (100/101) Accurately ripped
[AccurateRip ID: 0028033c-01c28153-d110760f] found.
Track [ CRC | V2 ] Status
01 [b72cc9c7|da06eb56] (02+52/54) Accurately ripped
02 [9108590c|30c92068] (02+52/54) Accurately ripped
03 [eccb1d2e|3d51c873] (02+52/54) Accurately ripped
04 [1af16ed3|a0846fd4] (02+52/54) Accurately ripped
05 [5faf90b2|709076c6] (02+52/54) Accurately ripped
06 [bab12ece|33385ae5] (02+52/54) Accurately ripped
07 [d45c3983|3cf10250] (02+52/54) Accurately ripped
08 [66825524|f2d5a031] (02+52/54) Accurately ripped
09 [f0dfbebe|a10d728a] (02+52/54) Accurately ripped
10 [d034a8e6|9c3cb922] (02+52/54) Accurately ripped
11 [803d34a6|b8cbf2d4] (02+51/53) Accurately ripped
12 [66b37397|fc03b1f8] (02+52/54) Accurately ripped
13 [ff5caf2c|3bf85d67] (02+52/54) Accurately ripped
14 [00b065e1|8a619e0d] (02+52/54) Accurately ripped
15 [38632182|4adee5a7] (02+52/54) Accurately ripped

Track Peak [ CRC32 ] [W/O NULL] [ LOG ]
– 96,6 [A59980F9] [02F1E4CA]
01 96,6 [7FA967FA] [2E1E1415] CRC32
02 85,2 [8A2407DB] [23DDF110] CRC32
03 96,6 [99C03467] [AA12FC53] CRC32
04 96,6 [7786B949] [22435A15] CRC32
05 86,4 [2C1CE414] [58DF13FD] CRC32
06 94,6 [76377609] [442C4492] CRC32
07 96,6 [E2F9E350] [35511F4D] CRC32
08 86,7 [99509215] [E8EBE9F7] CRC32
09 96,6 [DC31DC93] [830CACF0] CRC32
10 76,4 [D8F36819] [3900E6DA] CRC32
11 81,6 [3D8763F2] [5755A14C] CRC32
12 74,2 [1FD0415F] [ECDEFBBC] CRC32
13 77,5 [35880550] [3A783C0D] CRC32
14 96,6 [FDF93263] [A0D63F48] CRC32
15 96,6 [4AB200FC] [55927CAF] CRC32

V.A. - Milchbar - Seaside Season 1-7 (Compiled by Blank & Jones) (2009-2015) (Repost)

V.A. - Milchbar - Seaside Season 6 (2014)
EAC Rip | FLAC (tracks+.cue+log) - 480 MB | MP3 CBR 320 kbps (LAME 3.93) - 189 MB | Covers - 306 MB
Genre: Chillout, Lounge, Downtempo | RAR 3% Rec. | Label: Soundcolours (SC 0341)

Tracklist:
01. Blank & Jones - // Entspannt
02. Sade - Love Is Stronger Than Pride
03. Marc-George - Visions
04. Ozark Henry - I'm Your Sacrifice (Blank & Jones Relax Mix)
05. Marc-George - Slow
06. Blank & Jones with Coralie Clément - Surround Me With Your Love
07. Shook - Picture Moment
08. Trumpet Thing - Deeper
09. Gabin - La Maison
10. Cantoma - Etoile
11. Leendder feat. Chaz - Everytime You Cry (Satin Jackets Remix)
12. Blank & Jones with Jason Caesar - Lazy Life (Satin Jackets Remix)
13. Satin Jackets - Girl, Forever
14. Jacob Gurevitsch - Lovers In Paris (Willie May Remix)

Total time: 01:20:26

Exact Audio Copy V1.0 beta 3 from 29. August 2011

EAC extraction logfile from 5. April 2014, 23:42

Various / Milchbar Seaside Season 6

Used drive : SlimtypeeTAU108 3 Adapter: 1 ID: 0

Read mode : Secure
Utilize accurate stream : Yes
Defeat audio cache : Yes
Make use of C2 pointers : No

Read offset correction : 6
Overread into Lead-In and Lead-Out : No
Fill up missing offset samples with silence : Yes
Delete leading and trailing silent blocks : No
Null samples used in CRC calculations : Yes
Used interface : Native Win32 interface for Win NT & 2000
Gap handling : Appended to previous track

Used output format : User Defined Encoder
Selected bitrate : 1024 kBit/s
Quality : High
Add ID3 tag : No
Command line compressor : C:\Program Files (x86)\Exact Audio Copy\Flac\flac.exe
Additional command line options : -8 -V -T "ARTIST=%artist%" -T "TITLE=%title%" -T "ALBUM=%albumtitle%" -T "DATE=%year%" -T "TRACKNUMBER=%tracknr%" -T "GENRE=%genre%" -T "COMMENT=ripped by DrStandBy" %source%


TOC of the extracted CD

Track | Start | Length | Start sector | End sector
––––––––––––––––––––––––––––-
1 | 0:00.00 | 3:41.44 | 0 | 16618
2 | 3:41.44 | 4:15.24 | 16619 | 35767
3 | 7:56.68 | 6:31.09 | 35768 | 65101
4 | 14:28.02 | 5:11.67 | 65102 | 88493
5 | 19:39.69 | 6:36.61 | 88494 | 118254
6 | 26:16.55 | 3:18.55 | 118255 | 133159
7 | 29:35.35 | 4:14.72 | 133160 | 152281
8 | 33:50.32 | 4:27.69 | 152282 | 172375
9 | 38:18.26 | 5:48.17 | 172376 | 198492
10 | 44:06.43 | 4:44.01 | 198493 | 219793
11 | 48:50.44 | 8:12.71 | 219794 | 256764
12 | 57:03.40 | 7:22.08 | 256765 | 289922
13 | 64:25.48 | 7:18.69 | 289923 | 322841
14 | 71:44.42 | 8:41.12 | 322842 | 361928


Track 1

Filename E:\Blank & Jones\Compilations\2014 - Milchbar Seaside Season 6 (Soundcolours #SC 0341)\01. Blank & Jones - ,, entspannt.wav

Pre-gap length 0:00:02.00

Peak level 95.5 %
Extraction speed 1.2 X
Track quality 100.0 %
Test CRC 62B06F63
Copy CRC 62B06F63
Accurately ripped (confidence 1) [0EE6B65E] (AR v2)
Copy OK

Track 2

Filename E:\Blank & Jones\Compilations\2014 - Milchbar Seaside Season 6 (Soundcolours #SC 0341)\02. Sade - Love Is Stronger Than Pride.wav

Peak level 95.5 %
Extraction speed 1.2 X
Track quality 99.9 %
Test CRC B2773EA4
Copy CRC B2773EA4
Accurately ripped (confidence 1) [AEE18807] (AR v2)
Copy OK

Track 3

Filename E:\Blank & Jones\Compilations\2014 - Milchbar Seaside Season 6 (Soundcolours #SC 0341)\03. Marc-George - Visions.wav

Peak level 95.7 %
Extraction speed 1.5 X
Track quality 99.9 %
Test CRC C80AF6B0
Copy CRC C80AF6B0
Accurately ripped (confidence 1) [E4ECCEA2] (AR v2)
Copy OK

Track 4

Filename E:\Blank & Jones\Compilations\2014 - Milchbar Seaside Season 6 (Soundcolours #SC 0341)\04. Ozark Henry - I'm Your Sacrifice (Blank & Jones Relax Mix).wav

Peak level 95.5 %
Extraction speed 1.7 X
Track quality 100.0 %
Test CRC 8EBB8D7E
Copy CRC 8EBB8D7E
Accurately ripped (confidence 1) [7E576D41] (AR v2)
Copy OK

Track 5

Filename E:\Blank & Jones\Compilations\2014 - Milchbar Seaside Season 6 (Soundcolours #SC 0341)\05. Marc-George - Slow.wav

Peak level 94.6 %
Extraction speed 1.9 X
Track quality 100.0 %
Test CRC 78FFA5A6
Copy CRC 78FFA5A6
Accurately ripped (confidence 1) [8A66B8E9] (AR v2)
Copy OK

Track 6

Filename E:\Blank & Jones\Compilations\2014 - Milchbar Seaside Season 6 (Soundcolours #SC 0341)\06. Blank & Jones with Coralie Clément - Surround Me With Your Love.wav

Peak level 82.5 %
Extraction speed 1.8 X
Track quality 100.0 %
Test CRC 6235AF33
Copy CRC 6235AF33
Accurately ripped (confidence 1) [6C1B222F] (AR v2)
Copy OK

Track 7

Filename E:\Blank & Jones\Compilations\2014 - Milchbar Seaside Season 6 (Soundcolours #SC 0341)\07. Shook - Picture Moment.wav

Peak level 94.4 %
Extraction speed 1.7 X
Track quality 99.9 %
Test CRC 90936BD7
Copy CRC 90936BD7
Accurately ripped (confidence 1) [91A154CF] (AR v2)
Copy OK

Track 8

Filename E:\Blank & Jones\Compilations\2014 - Milchbar Seaside Season 6 (Soundcolours #SC 0341)\08. Trumpet Thing - Deeper.wav

Peak level 81.4 %
Extraction speed 1.8 X
Track quality 99.9 %
Test CRC 5D93D20E
Copy CRC 5D93D20E
Accurately ripped (confidence 1) [9E023870] (AR v2)
Copy OK

Track 9

Filename E:\Blank & Jones\Compilations\2014 - Milchbar Seaside Season 6 (Soundcolours #SC 0341)\09. Gabin - La Maison.wav

Peak level 76.2 %
Extraction speed 2.0 X
Track quality 99.9 %
Test CRC 525B0784
Copy CRC 525B0784
Accurately ripped (confidence 1) [47AB117A] (AR v2)
Copy OK

Track 10

Filename E:\Blank & Jones\Compilations\2014 - Milchbar Seaside Season 6 (Soundcolours #SC 0341)\10. Cabtoma - Etoile.wav

Peak level 90.6 %
Extraction speed 2.3 X
Track quality 100.0 %
Test CRC F4839F2F
Copy CRC F4839F2F
Accurately ripped (confidence 1) [DB8E7556] (AR v2)
Copy OK

Track 11

Filename E:\Blank & Jones\Compilations\2014 - Milchbar Seaside Season 6 (Soundcolours #SC 0341)\11. Leendder feat. Chaz - Everytime You Cry (Satin Jackets Remix).wav

Peak level 94.6 %
Extraction speed 0.4 X
Track quality 100.0 %
Test CRC EFE8CBC2
Copy CRC EFE8CBC2
Accurately ripped (confidence 1) [15A50B14] (AR v2)
Copy OK

Track 12

Filename E:\Blank & Jones\Compilations\2014 - Milchbar Seaside Season 6 (Soundcolours #SC 0341)\12. Blank & Jones with Jason Caesar - Lazy Life (Satin Jackets Remix).wav

Peak level 94.6 %
Extraction speed 2.6 X
Track quality 100.0 %
Test CRC A394CED0
Copy CRC A394CED0
Accurately ripped (confidence 1) [F2A16DBC] (AR v2)
Copy OK

Track 13

Filename E:\Blank & Jones\Compilations\2014 - Milchbar Seaside Season 6 (Soundcolours #SC 0341)\13. Satin Jackets - Girl, Forever.wav

Peak level 94.6 %
Extraction speed 2.7 X
Track quality 100.0 %
Test CRC EF17D74C
Copy CRC EF17D74C
Accurately ripped (confidence 1) [9D3682D3] (AR v2)
Copy OK

Track 14

Filename E:\Blank & Jones\Compilations\2014 - Milchbar Seaside Season 6 (Soundcolours #SC 0341)\14. Jacob Gurevitsch - Lovers In Paris (Willie May Remix).wav

Peak level 95.1 %
Extraction speed 2.9 X
Track quality 100.0 %
Test CRC EF59AFD4
Copy CRC EF59AFD4
Accurately ripped (confidence 1) [413511E1] (AR v2)
Copy OK


All tracks accurately ripped

No errors occurred

End of status report

–– CUETools DB Plugin V2.1.4

[CTDB TOCID: GM7T30HasU6CAy6Wqnq_mgrIzMM-] found
Submit result: GM7T30HasU6CAy6Wqnq_mgrIzMM- has been confirmed
Track | CTDB Status
1 | (5/5) Accurately ripped
2 | (5/5) Accurately ripped
3 | (5/5) Accurately ripped
4 | (5/5) Accurately ripped
5 | (5/5) Accurately ripped
6 | (5/5) Accurately ripped
7 | (5/5) Accurately ripped
8 | (5/5) Accurately ripped
9 | (5/5) Accurately ripped
10 | (5/5) Accurately ripped
11 | (5/5) Accurately ripped
12 | (5/5) Accurately ripped
13 | (5/5) Accurately ripped
14 | (5/5) Accurately ripped


==== Log checksum B66ACDA55567B7DE6D3857FAA4C1FD6DEFEDF46C00AEB389A67CE10755AB2361 ====

[CUETools log; Date: 17.01.2020 15:21:38; Version: 2.1.4]
[CTDB TOCID: GM7T30HasU6CAy6Wqnq_mgrIzMM-] found.
Track | CTDB Status
1 | (115/116) Accurately ripped
2 | (115/116) Accurately ripped
3 | (115/116) Accurately ripped
4 | (114/116) Accurately ripped
5 | (114/116) Accurately ripped
6 | (115/116) Accurately ripped
7 | (114/116) Accurately ripped
8 | (113/116) Accurately ripped
9 | (115/116) Accurately ripped
10 | (114/116) Accurately ripped
11 | (114/116) Accurately ripped
12 | (114/116) Accurately ripped
13 | (115/116) Accurately ripped
14 | ( 99/116) Accurately ripped
[AccurateRip ID: 00251b3a-0193b0d5-c412d90e] found.
Track [ CRC | V2 ] Status
01 [a92a2be7|0ee6b65e] (00+41/41) Accurately ripped
02 [3e212be6|aee18807] (00+41/41) Accurately ripped
03 [a6e91559|e4eccea2] (00+41/41) Accurately ripped
04 [86ebe497|7e576d41] (00+41/41) Accurately ripped
05 [e6cac5d4|8a66b8e9] (00+41/41) Accurately ripped
06 [ddad47f7|6c1b222f] (00+41/41) Accurately ripped
07 [59cce22f|91a154cf] (00+41/41) Accurately ripped
08 [f352a0b5|9e023870] (00+41/41) Accurately ripped
09 [1c9ab90f|47ab117a] (00+41/41) Accurately ripped
10 [6300e447|db8e7556] (00+41/41) Accurately ripped
11 [6d8ce2da|15a50b14] (00+41/41) Accurately ripped
12 [0e337a77|f2a16dbc] (00+41/41) Accurately ripped
13 [cb2126aa|9d3682d3] (00+41/41) Accurately ripped
14 [e1672489|413511e1] (00+35/35) Accurately ripped

Track Peak [ CRC32 ] [W/O NULL] [ LOG ]
– 95,7 [D95DF34B] [C631E6BB]
01 95,5 [62B06F63] [5B36A298] CRC32
02 95,5 [B2773EA4] [3CBFF609] CRC32
03 95,7 [C80AF6B0] [5D1E8922] CRC32
04 95,5 [8EBB8D7E] [5C10A298] CRC32
05 94,6 [78FFA5A6] [334B4BD6] CRC32
06 82,5 [6235AF33] [EB2B3A08] CRC32
07 94,4 [90936BD7] [6DD7DF1A] CRC32
08 81,4 [5D93D20E] [FCEED16E] CRC32
09 76,2 [525B0784] [B1DDE9DC] CRC32
10 90,6 [F4839F2F] [535D6FE7] CRC32
11 94,6 [EFE8CBC2] [285B1661] CRC32
12 94,6 [A394CED0] [AF537952] CRC32
13 94,6 [EF17D74C] [BF0DC465] CRC32
14 95,1 [EF59AFD4] [D0C13730] CRC32

V.A. - Milchbar - Seaside Season 1-7 (Compiled by Blank & Jones) (2009-2015) (Repost)

V.A. - Milchbar - Seaside Season 7 (2015)
EAC Rip | FLAC (tracks+.cue+log) - 496 MB | MP3 CBR 320 kbps (LAME 3.93) - 182 MB | Covers - 557 MB
Genre: Chillout, Lounge, Downtempo | RAR 3% Rec. | Label: Soundcolours (SC 0346)

Tracklist:
01. Blank & Jones - Milchbar 10:00 AM
02. Blank & Jones with Jason Caesar - Lovelee Dae (Morning Breeze Version)
03. Nick & Samantha - Bitter Sweet Song (Milchbar Mix)
04. Afterlife - Pirates (Milchbar Mix)
05. Unclubbed with Zoe Durrant - Need to Feel Loved (Blank & Jones Sunset Mix)
06. Micko Roche - Brisas de Verano
07. N*Grandjean - Love Rocks
08. Tuccinelli - Solo un Delay
09. Trumpet Thing - Feelings
10. Moe Turk - What I Feel Like
11. The Kenneth Bager Experience - Sunset Over Hobro
12. Blank & Jones - Sunkissed (Interlude)
13. Ben Macklin feat. Emma Brammer - It's Over
14. Blank & Jones - Sunkissed
15. Blank & Jones - Shining Star

Total time: 01:17:11

Exact Audio Copy V1.0 beta 3 from 29. August 2011

EAC extraction logfile from 26. May 2015, 0:52

Various / Milchbar Seaside Season 7

Used drive : PIONEER BD-RW BDR-S09 Adapter: 1 ID: 0

Read mode : Secure
Utilize accurate stream : Yes
Defeat audio cache : Yes
Make use of C2 pointers : No

Read offset correction : 667
Overread into Lead-In and Lead-Out : No
Fill up missing offset samples with silence : Yes
Delete leading and trailing silent blocks : No
Null samples used in CRC calculations : Yes
Used interface : Native Win32 interface for Win NT & 2000
Gap handling : Appended to previous track

Used output format : User Defined Encoder
Selected bitrate : 1024 kBit/s
Quality : High
Add ID3 tag : No
Command line compressor : C:\Program Files (x86)\Exact Audio Copy\Flac\flac.exe
Additional command line options : -8 -V -T "COMMENT=ripped by DrStandBy special for new-team.org" -T "ARTIST=%artist%" -T "TITLE=%title%" -T "ALBUM=%albumtitle%" -T "DATE=%year%" -T "TRACKNUMBER=%tracknr%" -T "GENRE=%genre%" %source%


TOC of the extracted CD

Track | Start | Length | Start sector | End sector
––––––––––––––––––––––––––––-
1 | 0:00.00 | 3:23.45 | 0 | 15269
2 | 3:23.45 | 2:59.38 | 15270 | 28732
3 | 6:23.08 | 3:50.63 | 28733 | 46045
4 | 10:13.71 | 4:21.34 | 46046 | 65654
5 | 14:35.30 | 3:52.16 | 65655 | 83070
6 | 18:27.46 | 5:39.56 | 83071 | 108551
7 | 24:07.27 | 3:44.43 | 108552 | 125394
8 | 27:51.70 | 4:23.45 | 125395 | 145164
9 | 32:15.40 | 5:17.16 | 145165 | 168955
10 | 37:32.56 | 5:06.22 | 168956 | 191927
11 | 42:39.03 | 5:08.34 | 191928 | 215061
12 | 47:47.37 | 2:53.32 | 215062 | 228068
13 | 50:40.69 | 4:29.15 | 228069 | 248258
14 | 55:10.09 | 4:07.63 | 248259 | 266846
15 | 59:17.72 | 4:04.24 | 266847 | 285170
16 | 63:22.21 | 4:21.57 | 285171 | 304802
17 | 67:44.03 | 4:23.07 | 304803 | 324534
18 | 72:07.10 | 5:03.59 | 324535 | 347318


Track 1

Filename G:\Blank & Jones\Compilations\2015 - Milchbar Seaside Season 7 (Soundcolours #SC 0346)\01. Blank & Jones - Milchbar 10-00 AM.wav

Pre-gap length 0:00:02.00

Peak level 96.8 %
Extraction speed 5.0 X
Track quality 100.0 %
Test CRC A498E009
Copy CRC A498E009
Accurately ripped (confidence 1) [C70D19F7] (AR v2)
Copy OK

Track 2

Filename G:\Blank & Jones\Compilations\2015 - Milchbar Seaside Season 7 (Soundcolours #SC 0346)\02. Blank & Jones with Jason Caesar - Lovelee Dae (Morning Breeze Version).wav

Peak level 96.8 %
Extraction speed 5.1 X
Track quality 100.0 %
Test CRC 517CF817
Copy CRC 517CF817
Accurately ripped (confidence 1) [C1C1F92C] (AR v2)
Copy OK

Track 3

Filename G:\Blank & Jones\Compilations\2015 - Milchbar Seaside Season 7 (Soundcolours #SC 0346)\03. Nick & Samantha - Bitter Sweet Song (Milchbar Mix).wav

Peak level 96.8 %
Extraction speed 5.7 X
Track quality 100.0 %
Test CRC 824149DC
Copy CRC 824149DC
Accurately ripped (confidence 1) [A76723B1] (AR v2)
Copy OK

Track 4

Filename G:\Blank & Jones\Compilations\2015 - Milchbar Seaside Season 7 (Soundcolours #SC 0346)\04. Afterlife - Pirates (Milchbar Mix).wav

Peak level 96.8 %
Extraction speed 6.2 X
Track quality 100.0 %
Test CRC 2133AE2C
Copy CRC 2133AE2C
Accurately ripped (confidence 1) [F832B5AF] (AR v2)
Copy OK

Track 5

Filename G:\Blank & Jones\Compilations\2015 - Milchbar Seaside Season 7 (Soundcolours #SC 0346)\05. Unclubbed with Zoe Durrant - Need to Feel Loved (Blank & Jones Sunset Mix).wav

Peak level 85.4 %
Extraction speed 6.5 X
Track quality 100.0 %
Test CRC 43237F97
Copy CRC 43237F97
Accurately ripped (confidence 1) [E56989ED] (AR v2)
Copy OK

Track 6

Filename G:\Blank & Jones\Compilations\2015 - Milchbar Seaside Season 7 (Soundcolours #SC 0346)\06. Micko Roche - Brisas de Verano.wav

Peak level 96.8 %
Extraction speed 7.2 X
Track quality 100.0 %
Test CRC 770AA876
Copy CRC 770AA876
Accurately ripped (confidence 1) [82A1813E] (AR v2)
Copy OK

Track 7

Filename G:\Blank & Jones\Compilations\2015 - Milchbar Seaside Season 7 (Soundcolours #SC 0346)\07. NxGrandjean - Love Rocks.wav

Peak level 95.8 %
Extraction speed 7.1 X
Track quality 100.0 %
Test CRC ECCD74CF
Copy CRC ECCD74CF
Accurately ripped (confidence 1) [DD227B75] (AR v2)
Copy OK

Track 8

Filename G:\Blank & Jones\Compilations\2015 - Milchbar Seaside Season 7 (Soundcolours #SC 0346)\08. Tuccinelli - Solo un Delay.wav

Peak level 79.7 %
Extraction speed 6.7 X
Track quality 99.9 %
Test CRC 000FEC22
Copy CRC 000FEC22
Accurately ripped (confidence 1) [1C145DC9] (AR v2)
Copy OK

Track 9

Filename G:\Blank & Jones\Compilations\2015 - Milchbar Seaside Season 7 (Soundcolours #SC 0346)\09. Trumpet Thing - Feelings.wav

Peak level 96.8 %
Extraction speed 8.0 X
Track quality 100.0 %
Test CRC FA99FEA2
Copy CRC FA99FEA2
Accurately ripped (confidence 1) [67630E82] (AR v2)
Copy OK

Track 10

Filename G:\Blank & Jones\Compilations\2015 - Milchbar Seaside Season 7 (Soundcolours #SC 0346)\10. Moe Turk - What I Feel Like.wav

Peak level 96.8 %
Extraction speed 8.2 X
Track quality 100.0 %
Test CRC 32A8BB69
Copy CRC 32A8BB69
Accurately ripped (confidence 1) [EC14AA9E] (AR v2)
Copy OK

Track 11

Filename G:\Blank & Jones\Compilations\2015 - Milchbar Seaside Season 7 (Soundcolours #SC 0346)\11. The Kenneth Bager Experience - Sunset Over Hobro.wav

Peak level 66.3 %
Extraction speed 8.5 X
Track quality 100.0 %
Test CRC 5FF050C4
Copy CRC 5FF050C4
Accurately ripped (confidence 1) [A900FA56] (AR v2)
Copy OK

Track 12

Filename G:\Blank & Jones\Compilations\2015 - Milchbar Seaside Season 7 (Soundcolours #SC 0346)\12. Blank & Jones - Sunkissed (Interlude).wav

Peak level 95.9 %
Extraction speed 8.1 X
Track quality 100.0 %
Test CRC 6B10F807
Copy CRC 6B10F807
Accurately ripped (confidence 1) [F4505CED] (AR v2)
Copy OK

Track 13

Filename G:\Blank & Jones\Compilations\2015 - Milchbar Seaside Season 7 (Soundcolours #SC 0346)\13. Ben Macklin feat. Emma Brammer - It's Over.wav

Peak level 96.8 %
Extraction speed 8.9 X
Track quality 100.0 %
Test CRC C597D822
Copy CRC C597D822
Accurately ripped (confidence 1) [E0049789] (AR v2)
Copy OK

Track 14

Filename G:\Blank & Jones\Compilations\2015 - Milchbar Seaside Season 7 (Soundcolours #SC 0346)\14. Blank & Jones - Sunkissed.wav

Peak level 89.9 %
Extraction speed 9.0 X
Track quality 100.0 %
Test CRC CB92716C
Copy CRC CB92716C
Accurately ripped (confidence 1) [32DDFCED] (AR v2)
Copy OK

Track 15

Filename G:\Blank & Jones\Compilations\2015 - Milchbar Seaside Season 7 (Soundcolours #SC 0346)\15. Blank & Jones - Shining Star.wav

Peak level 96.8 %
Extraction speed 8.1 X
Track quality 99.9 %
Test CRC E30103F7
Copy CRC E30103F7
Accurately ripped (confidence 1) [C4D8F28B] (AR v2)
Copy OK

Track 16

Filename G:\Blank & Jones\Compilations\2015 - Milchbar Seaside Season 7 (Soundcolours #SC 0346)\16. Darko Kustura - Peninsula.wav

Peak level 96.8 %
Extraction speed 9.4 X
Track quality 100.0 %
Test CRC B46C3870
Copy CRC B46C3870
Accurately ripped (confidence 1) [BD29F990] (AR v2)
Copy OK

Track 17

Filename G:\Blank & Jones\Compilations\2015 - Milchbar Seaside Season 7 (Soundcolours #SC 0346)\17. Satin Jackets - Got to be Love.wav

Peak level 96.8 %
Extraction speed 9.6 X
Track quality 100.0 %
Test CRC 64ED210E
Copy CRC 64ED210E
Accurately ripped (confidence 1) [F8FF19B0] (AR v2)
Copy OK

Track 18

Filename G:\Blank & Jones\Compilations\2015 - Milchbar Seaside Season 7 (Soundcolours #SC 0346)\18. The Kenneth Bager Experience - Premiere Classe (Beat Mix).wav

Peak level 76.6 %
Extraction speed 9.1 X
Track quality 99.9 %
Test CRC 94C13440
Copy CRC 94C13440
Accurately ripped (confidence 1) [B05326D6] (AR v2)
Copy OK


All tracks accurately ripped

No errors occurred

End of status report

–– CUETools DB Plugin V2.1.6

[CTDB TOCID: HYmwY.AwSlLIImzHuKTD3j2lac4-] found
Submit result: HYmwY.AwSlLIImzHuKTD3j2lac4- has been confirmed
Track | CTDB Status
1 | (12/12) Accurately ripped
2 | (12/12) Accurately ripped
3 | (12/12) Accurately ripped
4 | (12/12) Accurately ripped
5 | (12/12) Accurately ripped
6 | (12/12) Accurately ripped
7 | (12/12) Accurately ripped
8 | (12/12) Accurately ripped
9 | (12/12) Accurately ripped
10 | (12/12) Accurately ripped
11 | (12/12) Accurately ripped
12 | (12/12) Accurately ripped
13 | (12/12) Accurately ripped
14 | (12/12) Accurately ripped
15 | (12/12) Accurately ripped
16 | (12/12) Accurately ripped
17 | (12/12) Accurately ripped
18 | (12/12) Accurately ripped


==== Log checksum 2055F79F6F2A43EBD3851E61BE88377DB55E3BE4280E8169A59470892792649F ====

[CUETools log; Date: 17.01.2020 15:22:07; Version: 2.1.4]
[CTDB TOCID: HYmwY.AwSlLIImzHuKTD3j2lac4-] found.
Track | CTDB Status
1 | (113/115) Accurately ripped
2 | (113/115) Accurately ripped
3 | (114/115) Accurately ripped
4 | (114/115) Accurately ripped
5 | (114/115) Accurately ripped
6 | (114/115) Accurately ripped
7 | (114/115) Accurately ripped
8 | (114/115) Accurately ripped
9 | (114/115) Accurately ripped
10 | (114/115) Accurately ripped
11 | (114/115) Accurately ripped
12 | (114/115) Accurately ripped
13 | (113/115) Accurately ripped
14 | (113/115) Accurately ripped
15 | (113/115) Accurately ripped
16 | (113/115) Accurately ripped
17 | (114/115) Accurately ripped
18 | (112/115) Accurately ripped
[AccurateRip ID: 0030cf74-02934928-0b121612] found.
Track [ CRC | V2 ] Status
01 [44092f29|c70d19f7] (00+39/39) Accurately ripped
02 [e599bbe6|c1c1f92c] (00+39/39) Accurately ripped
03 [55666711|a76723b1] (00+39/39) Accurately ripped
04 [04254f2c|f832b5af] (00+39/39) Accurately ripped
05 [2ae7537c|e56989ed] (00+39/39) Accurately ripped
06 [09d84d34|82a1813e] (00+39/39) Accurately ripped
07 [5414332a|dd227b75] (00+39/39) Accurately ripped
08 [d6fe9bd2|1c145dc9] (00+39/39) Accurately ripped
09 [d2807609|67630e82] (00+39/39) Accurately ripped
10 [af2a3ffa|ec14aa9e] (00+39/39) Accurately ripped
11 [843e4610|a900fa56] (00+39/39) Accurately ripped
12 [3438ed3e|f4505ced] (00+39/39) Accurately ripped
13 [3beb5208|e0049789] (00+39/39) Accurately ripped
14 [5c170d06|32ddfced] (00+39/39) Accurately ripped
15 [fcc2529c|c4d8f28b] (00+39/39) Accurately ripped
16 [549af35f|bd29f990] (00+39/39) Accurately ripped
17 [1f238720|f8ff19b0] (00+39/39) Accurately ripped
18 [681e49d3|b05326d6] (00+39/39) Accurately ripped

Track Peak [ CRC32 ] [W/O NULL] [ LOG ]
– 96,8 [B0882F64] [2FE9225F]
01 96,8 [A498E009] [A105141D] CRC32
02 96,8 [517CF817] [E3E991D7] CRC32
03 96,8 [824149DC] [F7BAFD27] CRC32
04 96,8 [2133AE2C] [9B57BBE7] CRC32
05 85,4 [43237F97] [4508F8E0] CRC32
06 96,8 [770AA876] [94AB3C9A] CRC32
07 95,8 [ECCD74CF] [7F2B8F1A] CRC32
08 79,7 [000FEC22] [65D6E8C8] CRC32
09 96,8 [FA99FEA2] [03241C2F] CRC32
10 96,8 [32A8BB69] [6A39552C] CRC32
11 66,3 [5FF050C4] [5272DF00] CRC32
12 95,9 [6B10F807] [071B0B01] CRC32
13 96,8 [C597D822] [E9747EE6] CRC32
14 89,9 [CB92716C] [3571E54C] CRC32
15 96,8 [E30103F7] [289A6391] CRC32
16 96,8 [B46C3870] [0ED06C5E] CRC32
17 96,8 [64ED210E] [0DA271C7] CRC32
18 76,6 [94C13440] [0FD4C5C1] CRC32

Thanks to DrStandBy

See also:
V.A. - Milchbar Seaside Season...d by Blank & Jones) (2018)
V.A. - Milchbar Seaside Season...d by Blank & Jones) (2019)