Subcategories

Wolfe Tones - 25th Anniversary (1989) 2CDs

Posted By: Designol
Wolfe Tones - 25th Anniversary (1989) 2CDs

Wolfe Tones - 25th Anniversary (1989) 2CDs
EAC | FLAC | Tracks (Cue&Log) ~ 635 Mb | Mp3 (CBR320) ~ 259 Mb | Scans included
Irish Rebel Folk, Celtic, Folk Pop | Label: Harmac | # HMCD 50 | Time: 01:51:17

Just as the title implies, 25 Years of Greatness is a career-spanning 32-track compilation covering most of the highlights of the Wolfe Tones' first quarter of a century. There is the important caveat, however, that like many folk groups, the Wolfe Tones have recorded many of their most popular songs several times, and this collection tends to favor more recent and/or more arranged versions of the Spartan originals that graced early albums like Let the People Sing. That's not as much of a problem as it would be with some groups, however, as the Wolfe Tones have wisely resisted any temptation to "update," "modernize," or otherwise ruin a traditional Irish folk style that has worked for them for so long; even the Fairport Convention-like electric track of the new "Rock On Rockall" has a bracingly traditional feel to it. This is the Wolfe Tones set to have if you're having just one, but there's plenty more where this came from.

Review by Stewart Mason, Allmusic.com

Wolfe Tones - 25th Anniversary (1989) 2CDs



Tracklist:

CD1:

01. Celtic Symphony (04:46)
02. The Merry Ploughboy (02:33)
03. Women of Ireland (06:19)
04. Rock on Rockall (02:55)
05. The Foggy Dew (03:27)
06. James Connolly (03:02)
07. The Man from Mullingar (02:41)
08. Flow Liffey Waters (04:09)
09. First of May (04:19)
10. The Piper that Played Before Moses (03:02)
11. Janie Mac I'm Nearly Forty (02:57)
12. Give Me Your Hand (02:47)
13. The Boy's of the Old Brigade (02:55)
14. Dingle Bay (03:41)
15. The Big Strong Man (02:09)
16. Monsignor Horan (03:36)

CD2:

01. Boston Rose (05:40)
02. The Zoological Gardens (02:55)
03. The Broad Black Brimmer (03:29)
04. Newgrange (Bru Na Boinne) (04:58)
05. Treat Me Daughter Kindly (03:30)
06. Come Out Ye Black and Tan (02:11)
07. Slieve Na Mban (03:36)
08. Far Away In Australia (02:51)
09. Goodbye (03:01)
10. Helicopter Song (03:14)
11. An Dord Feinne (02:21)
12. The Merman (04:23)
13. The Teddy Bear's Head (02:10)
14. Banna Strand (04:24)
15. Many Young Men of Twenty (02:27)
16. The Wests' Awake (04:36)


Exact Audio Copy V1.0 beta 3 from 29. August 2011

EAC extraction logfile from 12. July 2014, 22:52

Wolfe Tones / 25th Anniversary CD01

Used drive : HL-DT-STDVDRAM GSA-T50L Adapter: 1 ID: 0

Read mode : Secure
Utilize accurate stream : Yes
Defeat audio cache : No
Make use of C2 pointers : No

Read offset correction : 667
Overread into Lead-In and Lead-Out : No
Fill up missing offset samples with silence : Yes
Delete leading and trailing silent blocks : No
Null samples used in CRC calculations : Yes
Used interface : Native Win32 interface for Win NT & 2000
Gap handling : Appended to previous track

Used output format : User Defined Encoder
Selected bitrate : 1024 kBit/s
Quality : High
Add ID3 tag : No
Command line compressor : C:\Program Files\Exact Audio Copy\Flac\flac.exe
Additional command line options : -8 -V -T "ARTIST=%artist%" -T "TITLE=%title%" -T "ALBUM=%albumtitle%" -T "DATE=%year%" -T "TRACKNUMBER=%tracknr%" -T "GENRE=%genre%" -T "PERFORMER=%albuminterpret%" -T "COMPOSER=%composer%" %haslyrics%–tag-from-file=LYRICS="%lyricsfile%"%haslyrics% -T "ALBUMARTIST=%albumartist%" -T "DISCNUMBER=%cdnumber%" -T "TOTALDISCS=%totalcds%" -T "TOTALTRACKS=%numtracks%" -T "COMMENT=%comment%" %source% -o %dest%


TOC of the extracted CD

Track | Start | Length | Start sector | End sector
––––––––––––––––––––––––––––-
1 | 0:00.00 | 4:46.12 | 0 | 21461
2 | 4:46.12 | 2:33.55 | 21462 | 32991
3 | 7:19.67 | 6:19.10 | 32992 | 61426
4 | 13:39.02 | 2:55.35 | 61427 | 74586
5 | 16:34.37 | 3:27.28 | 74587 | 90139
6 | 20:01.65 | 3:02.57 | 90140 | 103846
7 | 23:04.47 | 2:41.18 | 103847 | 115939
8 | 25:45.65 | 4:09.17 | 115940 | 134631
9 | 29:55.07 | 4:19.25 | 134632 | 154081
10 | 34:14.32 | 3:02.10 | 154082 | 167741
11 | 37:16.42 | 2:57.73 | 167742 | 181089
12 | 40:14.40 | 2:47.35 | 181090 | 193649
13 | 43:02.00 | 2:55.27 | 193650 | 206801
14 | 45:57.27 | 3:41.43 | 206802 | 223419
15 | 49:38.70 | 2:09.60 | 223420 | 233154
16 | 51:48.55 | 3:36.02 | 233155 | 249356


Track 1

Filename C:\FLAC\01 Celtic Symphony.wav

Pre-gap length 0:00:02.00

Peak level 95.1 %
Extraction speed 4.3 X
Track quality 99.9 %
Test CRC E2F4FAC3
Copy CRC E2F4FAC3
Cannot be verified as accurate (confidence 1) [C3BD9565], AccurateRip returned [29C5ECD1] (AR v2)
Copy OK

Track 2

Filename C:\FLAC\02 The Merry Ploughboy.wav

Pre-gap length 0:00:01.82

Peak level 72.0 %
Extraction speed 4.8 X
Track quality 100.0 %
Test CRC 38323710
Copy CRC 38323710
Cannot be verified as accurate (confidence 2) [7EC49688], AccurateRip returned [63019FA9] (AR v2)
Copy OK

Track 3

Filename C:\FLAC\03 Women of Ireland.wav

Pre-gap length 0:00:02.06

Peak level 60.8 %
Extraction speed 5.2 X
Track quality 99.9 %
Test CRC F273E4DB
Copy CRC F273E4DB
Cannot be verified as accurate (confidence 2) [15056B8F], AccurateRip returned [7B6EF8E0] (AR v2)
Copy OK

Track 4

Filename C:\FLAC\04 Rock on Rockall.wav

Pre-gap length 0:00:01.96

Peak level 73.8 %
Extraction speed 5.6 X
Track quality 100.0 %
Test CRC FE0C0D92
Copy CRC FE0C0D92
Cannot be verified as accurate (confidence 2) [76778D34], AccurateRip returned [7E2A9359] (AR v2)
Copy OK

Track 5

Filename C:\FLAC\05 The Foggy Dew.wav

Pre-gap length 0:00:02.00

Peak level 54.7 %
Extraction speed 5.9 X
Track quality 100.0 %
Test CRC FEA5BBAE
Copy CRC FEA5BBAE
Cannot be verified as accurate (confidence 2) [E6AA375A], AccurateRip returned [0074DED8] (AR v2)
Copy OK

Track 6

Filename C:\FLAC\06 James Connolly.wav

Pre-gap length 0:00:02.00

Peak level 58.2 %
Extraction speed 6.1 X
Track quality 100.0 %
Test CRC FE3C0CEF
Copy CRC FE3C0CEF
Cannot be verified as accurate (confidence 2) [CD91E859], AccurateRip returned [2FBC12CA] (AR v2)
Copy OK

Track 7

Filename C:\FLAC\07 The Man from Mullingar.wav

Pre-gap length 0:00:01.96

Peak level 59.8 %
Extraction speed 6.3 X
Track quality 100.0 %
Test CRC 7334B7C3
Copy CRC 7334B7C3
Cannot be verified as accurate (confidence 1) [9D691750], AccurateRip returned [429240C3] (AR v2)
Copy OK

Track 8

Filename C:\FLAC\08 Flow Liffey Waters.wav

Pre-gap length 0:00:02.06

Peak level 56.5 %
Extraction speed 6.7 X
Track quality 100.0 %
Test CRC D8D00FDE
Copy CRC D8D00FDE
Cannot be verified as accurate (confidence 1) [93E115F3], AccurateRip returned [6AB0088B] (AR v2)
Copy OK

Track 9

Filename C:\FLAC\09 First of May.wav

Pre-gap length 0:00:02.02

Peak level 66.4 %
Extraction speed 7.2 X
Track quality 100.0 %
Test CRC 91980F0D
Copy CRC 91980F0D
Cannot be verified as accurate (confidence 2) [C5FD7E37], AccurateRip returned [96281B89] (AR v2)
Copy OK

Track 10

Filename C:\FLAC\10 The Piper that Played Before Moses.wav

Pre-gap length 0:00:02.00

Peak level 49.6 %
Extraction speed 7.2 X
Track quality 100.0 %
Test CRC 109B0BEA
Copy CRC 109B0BEA
Cannot be verified as accurate (confidence 1) [5CCF626F], AccurateRip returned [97371DCC] (AR v2)
Copy OK

Track 11

Filename C:\FLAC\11 Janie Mac I'm Nearly Forty.wav

Pre-gap length 0:00:02.00

Peak level 66.8 %
Extraction speed 7.4 X
Track quality 99.9 %
Test CRC 8F5170D6
Copy CRC 8F5170D6
Cannot be verified as accurate (confidence 2) [9EE187AF], AccurateRip returned [5B7C87D4] (AR v2)
Copy OK

Track 12

Filename C:\FLAC\12 Give Me Your Hand.wav

Pre-gap length 0:00:02.33

Peak level 52.3 %
Extraction speed 7.6 X
Track quality 100.0 %
Test CRC E0467549
Copy CRC E0467549
Cannot be verified as accurate (confidence 2) [B8EB7E20], AccurateRip returned [2121CF66] (AR v2)
Copy OK

Track 13

Filename C:\FLAC\13 The Boy's of the Old Brigade.wav

Pre-gap length 0:00:02.00

Peak level 61.0 %
Extraction speed 8.1 X
Track quality 100.0 %
Test CRC 7BA15DC9
Copy CRC 7BA15DC9
Cannot be verified as accurate (confidence 1) [1955948E], AccurateRip returned [467C9307] (AR v2)
Copy OK

Track 14

Filename C:\FLAC\14 Dingle Bay.wav

Pre-gap length 0:00:02.02

Peak level 62.6 %
Extraction speed 8.4 X
Track quality 100.0 %
Test CRC 1E78FB59
Copy CRC 1E78FB59
Cannot be verified as accurate (confidence 1) [CDC7216E], AccurateRip returned [CD36DCE1] (AR v2)
Copy OK

Track 15

Filename C:\FLAC\15 The Big Strong Man.wav

Pre-gap length 0:00:02.04

Peak level 61.4 %
Extraction speed 7.9 X
Track quality 99.9 %
Test CRC 0E475CB5
Copy CRC 0E475CB5
Cannot be verified as accurate (confidence 1) [9CEE9D1D], AccurateRip returned [CF952B92] (AR v2)
Copy OK

Track 16

Filename C:\FLAC\16 Monsignor Horan.wav

Pre-gap length 0:00:02.00

Peak level 64.0 %
Extraction speed 8.4 X
Track quality 100.0 %
Test CRC 7B70CE05
Copy CRC 7B70CE05
Cannot be verified as accurate (confidence 2) [4D508D35], AccurateRip returned [8F7D7BEE] (AR v2)
Copy OK


No tracks could be verified as accurate
You may have a different pressing from the one(s) in the database

No errors occurred

End of status report

–– CUETools DB Plugin V2.1.3

[CTDB TOCID: 7NWpeCqC09R.xRkf7Z7X92NVuDk-] database access error: The remote name could not be resolved: 'db.cuetools.net'


==== Log checksum F124BDD67A66F2CC08CBB5629356DD29A64706DB82BAD9B3E955A5DB2E00C23C ====

foobar2000 1.2 / Dynamic Range Meter 1.1.1
log date: 2014-07-14 18:48:14

––––––––––––––––––––––––––––––––––––––––
Analyzed: Wolfe Tones / 25th Anniversary CD01
––––––––––––––––––––––––––––––––––––––––

DR Peak RMS Duration Track
––––––––––––––––––––––––––––––––––––––––
DR14 -0.43 dB -16.22 dB 4:46 01-Celtic Symphony
DR15 -2.84 dB -19.44 dB 2:34 02-The Merry Ploughboy
DR14 -4.31 dB -20.45 dB 6:19 03-Women of Ireland
DR14 -2.63 dB -19.09 dB 2:55 04-Rock on Rockall
DR11 -5.23 dB -18.62 dB 3:27 05-The Foggy Dew
DR11 -4.69 dB -17.50 dB 3:03 06-James Connolly
DR15 -4.46 dB -21.03 dB 2:41 07-The Man from Mullingar
DR12 -4.96 dB -19.09 dB 4:09 08-Flow Liffey Waters
DR15 -3.55 dB -19.85 dB 4:19 09-First of May
DR12 -6.08 dB -21.38 dB 3:02 10-The Piper that Played Before Moses
DR14 -3.49 dB -18.93 dB 2:58 11-Janie Mac I'm Nearly Forty
DR13 -5.62 dB -19.51 dB 2:47 12-Give Me Your Hand
DR14 -4.29 dB -20.71 dB 2:55 13-The Boy's of the Old Brigade
DR13 -4.06 dB -19.06 dB 3:42 14-Dingle Bay
DR13 -4.24 dB -18.54 dB 2:10 15-The Big Strong Man
DR14 -3.87 dB -20.22 dB 3:36 16-Monsignor Horan
––––––––––––––––––––––––––––––––––––––––

Number of tracks: 16
Official DR value: DR13

Samplerate: 44100 Hz
Channels: 2
Bits per sample: 16
Bitrate: 819 kbps
Codec: FLAC
================================================================================


Exact Audio Copy V1.0 beta 3 from 29. August 2011

EAC extraction logfile from 13. July 2014, 1:57

Wolfe Tones / 25th Anniversary CD02

Used drive : HL-DT-STDVDRAM GSA-T50L Adapter: 1 ID: 0

Read mode : Secure
Utilize accurate stream : Yes
Defeat audio cache : No
Make use of C2 pointers : No

Read offset correction : 667
Overread into Lead-In and Lead-Out : No
Fill up missing offset samples with silence : Yes
Delete leading and trailing silent blocks : No
Null samples used in CRC calculations : Yes
Used interface : Native Win32 interface for Win NT & 2000
Gap handling : Appended to previous track

Used output format : User Defined Encoder
Selected bitrate : 1024 kBit/s
Quality : High
Add ID3 tag : No
Command line compressor : C:\Program Files\Exact Audio Copy\Flac\flac.exe
Additional command line options : -8 -V -T "ARTIST=%artist%" -T "TITLE=%title%" -T "ALBUM=%albumtitle%" -T "DATE=%year%" -T "TRACKNUMBER=%tracknr%" -T "GENRE=%genre%" -T "PERFORMER=%albuminterpret%" -T "COMPOSER=%composer%" %haslyrics%–tag-from-file=LYRICS="%lyricsfile%"%haslyrics% -T "ALBUMARTIST=%albumartist%" -T "DISCNUMBER=%cdnumber%" -T "TOTALDISCS=%totalcds%" -T "TOTALTRACKS=%numtracks%" -T "COMMENT=%comment%" %source% -o %dest%


TOC of the extracted CD

Track | Start | Length | Start sector | End sector
––––––––––––––––––––––––––––-
1 | 0:00.00 | 5:40.10 | 0 | 25509
2 | 5:40.10 | 2:55.15 | 25510 | 38649
3 | 8:35.25 | 3:29.42 | 38650 | 54366
4 | 12:04.67 | 4:58.63 | 54367 | 76779
5 | 17:03.55 | 3:30.07 | 76780 | 92536
6 | 20:33.62 | 2:11.63 | 92537 | 102424
7 | 22:45.50 | 3:36.50 | 102425 | 118674
8 | 26:22.25 | 2:51.00 | 118675 | 131499
9 | 29:13.25 | 3:01.35 | 131500 | 145109
10 | 32:14.60 | 3:14.67 | 145110 | 159726
11 | 35:29.52 | 2:21.30 | 159727 | 170331
12 | 37:51.07 | 4:23.03 | 170332 | 190059
13 | 42:14.10 | 2:10.60 | 190060 | 199869
14 | 44:24.70 | 4:24.32 | 199870 | 219701
15 | 48:49.27 | 2:27.08 | 219702 | 230734
16 | 51:16.35 | 4:36.17 | 230735 | 251451


Track 1

Filename C:\FLAC\01 Boston Rose.wav

Pre-gap length 0:00:02.00

Peak level 68.9 %
Extraction speed 4.4 X
Track quality 100.0 %
Test CRC 560EA483
Copy CRC 560EA483
Cannot be verified as accurate (confidence 2) [C0A61583], AccurateRip returned [C88669F7] (AR v2)
Copy OK

Track 2

Filename C:\FLAC\02 The Zoological Gardens.wav

Pre-gap length 0:00:01.93

Peak level 78.2 %
Extraction speed 4.8 X
Track quality 100.0 %
Test CRC 3138BDD0
Copy CRC 3138BDD0
Cannot be verified as accurate (confidence 2) [C95CB167], AccurateRip returned [3153E4FB] (AR v2)
Copy OK

Track 3

Filename C:\FLAC\03 The Broad Black Brimmer.wav

Pre-gap length 0:00:02.00

Peak level 72.1 %
Extraction speed 5.3 X
Track quality 100.0 %
Test CRC 9BFAF13D
Copy CRC 9BFAF13D
Cannot be verified as accurate (confidence 2) [2F392D44], AccurateRip returned [D55009A7] (AR v2)
Copy OK

Track 4

Filename C:\FLAC\04 Newgrange (Bru Na Boinne).wav

Pre-gap length 0:00:01.96

Peak level 52.6 %
Extraction speed 5.8 X
Track quality 100.0 %
Test CRC 82314116
Copy CRC 82314116
Cannot be verified as accurate (confidence 2) [D7617372], AccurateRip returned [5AC33B59] (AR v2)
Copy OK

Track 5

Filename C:\FLAC\05 Treat Me Daughter Kindly.wav

Pre-gap length 0:00:02.04

Peak level 66.4 %
Extraction speed 5.9 X
Track quality 100.0 %
Test CRC BABFE721
Copy CRC BABFE721
Cannot be verified as accurate (confidence 2) [CB14543A], AccurateRip returned [149E3EFB] (AR v2)
Copy OK

Track 6

Filename C:\FLAC\06 Come Out Ye Black and Tan.wav

Pre-gap length 0:00:02.00

Peak level 68.0 %
Extraction speed 6.4 X
Track quality 100.0 %
Test CRC F5CF6B53
Copy CRC F5CF6B53
Cannot be verified as accurate (confidence 2) [4D442277], AccurateRip returned [AC0A0726] (AR v2)
Copy OK

Track 7

Filename C:\FLAC\07 Slieve Na Mban.wav

Pre-gap length 0:00:01.97

Peak level 62.8 %
Extraction speed 6.4 X
Track quality 100.0 %
Test CRC E208B3DE
Copy CRC E208B3DE
Cannot be verified as accurate (confidence 2) [9784B815], AccurateRip returned [E0482FDC] (AR v2)
Copy OK

Track 8

Filename C:\FLAC\08 Far Away In Australia.wav

Pre-gap length 0:00:02.04

Peak level 50.7 %
Extraction speed 6.6 X
Track quality 99.9 %
Test CRC ACDB0D41
Copy CRC ACDB0D41
Cannot be verified as accurate (confidence 2) [523093D3], AccurateRip returned [6270B1B9] (AR v2)
Copy OK

Track 9

Filename C:\FLAC\09 Goodbye.wav

Pre-gap length 0:00:02.00

Peak level 63.3 %
Extraction speed 6.9 X
Track quality 100.0 %
Test CRC 2FF0DB75
Copy CRC 2FF0DB75
Cannot be verified as accurate (confidence 1) [5020711C], AccurateRip returned [62A1B886] (AR v2)
Copy OK

Track 10

Filename C:\FLAC\10 Helicopter Song.wav

Pre-gap length 0:00:01.97

Peak level 40.2 %
Extraction speed 7.1 X
Track quality 99.9 %
Test CRC 45B0C685
Copy CRC 45B0C685
Cannot be verified as accurate (confidence 1) [F5DECABE], AccurateRip returned [66D70022] (AR v2)
Copy OK

Track 11

Filename C:\FLAC\11 An Dord Feinne.wav

Pre-gap length 0:00:02.00

Peak level 48.2 %
Extraction speed 7.1 X
Track quality 99.9 %
Test CRC 92C2EC35
Copy CRC 92C2EC35
Cannot be verified as accurate (confidence 1) [C46ADDF8], AccurateRip returned [5379A9CC] (AR v2)
Copy OK

Track 12

Filename C:\FLAC\12 The Merman.wav

Pre-gap length 0:00:01.96

Peak level 51.5 %
Extraction speed 7.8 X
Track quality 100.0 %
Test CRC C9464032
Copy CRC C9464032
Cannot be verified as accurate (confidence 1) [E49A5D3B], AccurateRip returned [C849362F] (AR v2)
Copy OK

Track 13

Filename C:\FLAC\13 The Teddy Bear's Head.wav

Pre-gap length 0:00:02.04

Peak level 65.8 %
Extraction speed 7.5 X
Track quality 99.9 %
Test CRC 4E3A1220
Copy CRC 4E3A1220
Cannot be verified as accurate (confidence 1) [78CA378F], AccurateRip returned [CA50D0A1] (AR v2)
Copy OK

Track 14

Filename C:\FLAC\14 Banna Strand.wav

Pre-gap length 0:00:02.04

Peak level 50.7 %
Extraction speed 8.1 X
Track quality 100.0 %
Test CRC 6C546889
Copy CRC 6C546889
Cannot be verified as accurate (confidence 2) [C978E322], AccurateRip returned [53BACF77] (AR v2)
Copy OK

Track 15

Filename C:\FLAC\15 Many Young Men of Twenty.wav

Pre-gap length 0:00:02.00

Peak level 47.2 %
Extraction speed 8.5 X
Track quality 100.0 %
Test CRC A96FE1FD
Copy CRC A96FE1FD
Cannot be verified as accurate (confidence 2) [2C130E5A], AccurateRip returned [7A560264] (AR v2)
Copy OK

Track 16

Filename C:\FLAC\16 The Wests' Awake.wav

Pre-gap length 0:00:02.04

Peak level 51.7 %
Extraction speed 8.7 X
Track quality 99.9 %
Test CRC 90DC9782
Copy CRC 90DC9782
Cannot be verified as accurate (confidence 2) [A6C49503], AccurateRip returned [B79D5B71] (AR v2)
Copy OK


No tracks could be verified as accurate
You may have a different pressing from the one(s) in the database

No errors occurred

End of status report

–– CUETools DB Plugin V2.1.3

[CTDB TOCID: 7uNPPw2v5SQexsAc9XCIyc36QfA-] found, Submit result: 7uNPPw2v5SQexsAc9XCIyc36QfA- has been confirmed
[23203006] (1/1) Accurately ripped


==== Log checksum 028247EFF043DAD5784AD6727FEE92C80B1CAFE6D6D7C498CC04E550328523A3 ====

foobar2000 1.2 / Dynamic Range Meter 1.1.1
log date: 2014-07-14 18:48:32

––––––––––––––––––––––––––––––––––––––––
Analyzed: Wolfe Tones / 25th Anniversary CD02
––––––––––––––––––––––––––––––––––––––––

DR Peak RMS Duration Track
––––––––––––––––––––––––––––––––––––––––
DR13 -3.23 dB -18.86 dB 5:40 01-Boston Rose
DR12 -2.13 dB -15.83 dB 2:55 02-The Zoological Gardens
DR14 -2.83 dB -19.25 dB 3:30 03-The Broad Black Brimmer
DR11 -5.57 dB -19.27 dB 4:59 04-Newgrange (Bru Na Boinne)
DR13 -3.55 dB -18.08 dB 3:30 05-Treat Me Daughter Kindly
DR14 -3.34 dB -19.60 dB 2:12 06-Come Out Ye Black and Tan
DR11 -4.04 dB -16.57 dB 3:37 07-Slieve Na Mban
DR13 -5.88 dB -21.06 dB 2:51 08-Far Away In Australia
DR13 -3.97 dB -20.25 dB 3:01 09-Goodbye
DR13 -7.90 dB -22.12 dB 3:15 10-Helicopter Song
DR14 -6.33 dB -23.54 dB 2:21 11-An Dord Feinne
DR13 -5.75 dB -20.84 dB 4:23 12-The Merman
DR15 -3.63 dB -20.29 dB 2:11 13-The Teddy Bear's Head
DR12 -5.88 dB -20.15 dB 4:24 14-Banna Strand
DR13 -6.52 dB -21.90 dB 2:27 15-Many Young Men of Twenty
DR12 -5.72 dB -19.54 dB 4:36 16-The Wests' Awake
––––––––––––––––––––––––––––––––––––––––

Number of tracks: 16
Official DR value: DR13

Samplerate: 44100 Hz
Channels: 2
Bits per sample: 16
Bitrate: 691 kbps
Codec: FLAC
================================================================================

Wolfe Tones - 25th Anniversary (1989) 2CDs

Wolfe Tones - 25th Anniversary (1989) 2CDs

All thanks to original releaser - only1joe

More interesting music in My Blog