Subcategories

Yukihiro Takahashi - Early Albums Collection 1980-1983 (4CD) Remastered 2005-2007 [Re-Up]

Posted By: Designol
Yukihiro Takahashi - Early Albums Collection 1980-1983 (4CD) Remastered 2005-2007 [Re-Up]

Yukihiro Takahashi - Early Albums Collection 1980-1983 (4CD) [Remastered 2005-2007]
EAC | FLAC | Tracks (Cue&Log) ~ 1.2 Gb | Mp3 (CBR320) ~ 497 Mb | Scans included
Synthpop, Techno-Pop, New Wave, Electronic | Time: 02:55:23

Yukihiro Takahashi (高橋 幸宏 Takahashi Yukihiro) is a renowned Japanese musician, who is best known as the drummer and lead vocalist of the Yellow Magic Orchestra, and as the former drummer of the Sadistic Mika Band.

Yukihiro Takahashi first came to prominence as the drummer of the Sadistic Mika Band, and became known to western audiences after this band (led by Kazuhiko Kato, formerly of The Folk Crusaders) toured and recorded in the United Kingdom. After the Sadistic Mika Band disbanded, some of the members (including Takahashi) formed another band called The Sadistics, who released several albums. Finally Takahashi recorded his first solo album Saravah in 1977. In 1978, Takahashi joined Ryuichi Sakamoto and Haruomi Hosono to form the Yellow Magic Orchestra.

After the Yellow Magic Orchestra disbanded in the mid 80s, Takahashi went solo and released a large number of solo albums, primarily intended for the Japanese market. Takahashi has collaborated extensively with other musicians, including Bill Nelson, Iva Davies of Icehouse, Keiichi Suzuki of the Moonriders (often as a duo dubbed "The Beatniks", although Suzuki essentially functioned as a member of Takahashi's backing band during the Moonriders' brief hiatus) and in particular Steve Jansen. Takahashi has released a single Stay Close and an EP Pulse as a duo with Jansen.

Takahashi helped compose the soundtrack to the anime series Nadia: Secret of the Blue Water in 1989, including the song "Families". Takahashi participated in temporary reunions of both the Sadistic Mika Band (missing the lead vocalist Mika who was replaced by Kaela Kimura), and The Yellow Magic Orchestra (YMO). Both of these reunions included tours of Japan, and an album of new material.

In the early 2000s, Takahashi became a member of the duo Sketch Show, with Haruomi Hosono. Sketch Show has released two albums, one of which, Loophole, has been released in the UK. Both Takahashi and Hosono have recently reunited with Sakamoto as HASYMO - a combination of Human Audio Sponge and Yellow Magic Orchestra. This collaboration produced a new single "Rescue" in 2007 and a new album looks to be in the pipeline in the near future. Takahashi's latest solo album Page By Page was released in March 2009 in Japan.

Yukihiro Takahashi at Wiki



Yukihiro Takahashi - Early Albums Collection 1980-1983 (4CD) Remastered 2005-2007 [Re-Up]

Yukihiro Takahashi - Murdered By The Music (1980) Remastered Reissue 2005
EAC | FLAC | Tracks (Cue&Log) ~ 293 Mb | Mp3 (CBR320) ~ 115 Mb
Label: King Records | # KICS 1141 | Time: 00:42:19 | Scans included

All songs in English. Mosdell lyrics, Sandii, Sheena, Tachibana and Matsutake appear, One song each by Hosono and Sakamoto, who play also. A Technopop classic.

Tracklist:

01. School Of Thought (04:14)
02. Murdered By The Music (03:44)
03. Kid-Nap, The Dreamer (03:01)
04. I-Kasu! (01:23)
05. Radioactivist (03:16)
06. Numbers From A Calculated Conversation (04:39)
07. Bijin-Kyoshi At The Swimming School (04:10)
08. Blue Colour Worker (04:33)
09. Stop In The Name Of Love (03:16)
10. Mirrormanic (03:34)
11. The Core Of Eden (06:25)


Exact Audio Copy V0.99 prebeta 5 from 4. May 2009

EAC extraction logfile from 15. October 2009, 13:08

Yukihiro Takahashi / Murdered By The Music

Used drive : ASUS DRW-2014L1 Adapter: 0 ID: 0

Read mode : Secure
Utilize accurate stream : Yes
Defeat audio cache : Yes
Make use of C2 pointers : No

Read offset correction : 6
Overread into Lead-In and Lead-Out : No
Fill up missing offset samples with silence : Yes
Delete leading and trailing silent blocks : No
Null samples used in CRC calculations : Yes
Used interface : Native Win32 interface for Win NT & 2000
Gap handling : Appended to previous track

Used output format : User Defined Encoder
Selected bitrate : 1024 kBit/s
Quality : High
Add ID3 tag : No
Command line compressor : C:\Program Files\Exact Audio Copy\FLAC\FLAC.EXE
Additional command line options : -8 -V -T "ARTIST=%a" -T "TITLE=%t" -T "ALBUM=%g" -T "DATE=%y" -T "TRACKNUMBER=%n" -T "GENRE=%m" -T "COMMENT=EAC FLAC -8" %s


TOC of the extracted CD

Track | Start | Length | Start sector | End sector
––––––––––––––––––––––––––––-
1 | 0:00.00 | 4:14.67 | 0 | 19116
2 | 4:14.67 | 3:44.05 | 19117 | 35921
3 | 7:58.72 | 3:00.70 | 35922 | 49491
4 | 10:59.67 | 1:23.35 | 49492 | 55751
5 | 12:23.27 | 3:16.05 | 55752 | 70456
6 | 15:39.32 | 4:39.05 | 70457 | 91386
7 | 20:18.37 | 4:10.43 | 91387 | 110179
8 | 24:29.05 | 4:32.70 | 110180 | 130649
9 | 29:02.00 | 3:16.25 | 130650 | 145374
10 | 32:18.25 | 3:34.47 | 145375 | 161471
11 | 35:52.72 | 6:25.38 | 161472 | 190384


Track 1

Filename C:\Yukihiro Takahashi - Murdered By The Music (1980) [FLAC] {King Records KICS-1141}\01 - SCHOOL OF THOUGHT.wav

Pre-gap length 0:00:02.00

Peak level 99.8 %
Track quality 100.0 %
Test CRC A9B056AB
Copy CRC A9B056AB
Track not present in AccurateRip database
Copy OK

Track 2

Filename C:\Yukihiro Takahashi - Murdered By The Music (1980) [FLAC] {King Records KICS-1141}\02 - MURDERED BY THE MUSIC.wav

Pre-gap length 0:00:01.42

Peak level 99.8 %
Track quality 100.0 %
Test CRC 0216DBE7
Copy CRC 0216DBE7
Track not present in AccurateRip database
Copy OK

Track 3

Filename C:\Yukihiro Takahashi - Murdered By The Music (1980) [FLAC] {King Records KICS-1141}\03 - KID-NAP, THE DREAMER.wav

Pre-gap length 0:00:02.27

Peak level 99.8 %
Track quality 100.0 %
Test CRC 6A444B2E
Copy CRC 6A444B2E
Track not present in AccurateRip database
Copy OK

Track 4

Filename C:\Yukihiro Takahashi - Murdered By The Music (1980) [FLAC] {King Records KICS-1141}\04 - I-KASU!.wav

Peak level 99.8 %
Track quality 100.0 %
Test CRC 2423E1EF
Copy CRC 2423E1EF
Track not present in AccurateRip database
Copy OK

Track 5

Filename C:\Yukihiro Takahashi - Murdered By The Music (1980) [FLAC] {King Records KICS-1141}\05 - RADIOACTIVIST.wav

Pre-gap length 0:00:03.22

Peak level 99.8 %
Track quality 100.0 %
Test CRC E8828AB0
Copy CRC E8828AB0
Track not present in AccurateRip database
Copy OK

Track 6

Filename C:\Yukihiro Takahashi - Murdered By The Music (1980) [FLAC] {King Records KICS-1141}\06 - NUMBERS FROM A CALCULATED CONVERSATION.wav

Peak level 99.8 %
Track quality 100.0 %
Test CRC 6B36361B
Copy CRC 6B36361B
Track not present in AccurateRip database
Copy OK

Track 7

Filename C:\Yukihiro Takahashi - Murdered By The Music (1980) [FLAC] {King Records KICS-1141}\07 - BIJIN-KYOSHI AT THE SWIMMING SCHOOL.wav

Pre-gap length 0:00:02.40

Peak level 99.8 %
Track quality 100.0 %
Test CRC B8773CD7
Copy CRC B8773CD7
Track not present in AccurateRip database
Copy OK

Track 8

Filename C:\Yukihiro Takahashi - Murdered By The Music (1980) [FLAC] {King Records KICS-1141}\08 - BLUE COLOUR WORKER.wav

Peak level 99.8 %
Track quality 99.9 %
Test CRC D9358461
Copy CRC D9358461
Track not present in AccurateRip database
Copy OK

Track 9

Filename C:\Yukihiro Takahashi - Murdered By The Music (1980) [FLAC] {King Records KICS-1141}\09 - STOP IN THE NAME OF LOVE.wav

Pre-gap length 0:00:02.38

Peak level 99.8 %
Track quality 100.0 %
Test CRC 7EF737E9
Copy CRC 7EF737E9
Track not present in AccurateRip database
Copy OK

Track 10

Filename C:\Yukihiro Takahashi - Murdered By The Music (1980) [FLAC] {King Records KICS-1141}\10 - MIRRORMANIC.wav

Pre-gap length 0:00:02.55

Peak level 99.8 %
Track quality 100.0 %
Test CRC 80F76EDE
Copy CRC 80F76EDE
Track not present in AccurateRip database
Copy OK

Track 11

Filename C:\Yukihiro Takahashi - Murdered By The Music (1980) [FLAC] {King Records KICS-1141}\11 - THE CORE OF EDEN.wav

Peak level 99.8 %
Track quality 99.9 %
Test CRC C0739C1E
Copy CRC C0739C1E
Track not present in AccurateRip database
Copy OK


None of the tracks are present in the AccurateRip database

No errors occurred

End of status report

foobar2000 1.2 / Dynamic Range Meter 1.1.1
log date: 2013-04-03 10:49:40

––––––––––––––––––––––––––––––––––––––––
Analyzed: Yukihiro Takahashi / Murdered By The Music
––––––––––––––––––––––––––––––––––––––––

DR Peak RMS Duration Track
––––––––––––––––––––––––––––––––––––––––
DR7 -0.01 dB -9.47 dB 4:15 01-School Of Thought
DR8 -0.01 dB -9.43 dB 3:44 02-Murdered By The Music
DR7 -0.01 dB -8.67 dB 3:01 03-Kid-Nap, The Dreamer
DR8 -0.01 dB -9.82 dB 1:23 04-I-Kasu!
DR7 -0.01 dB -9.35 dB 3:16 05-Radioactivist
DR9 -0.01 dB -11.31 dB 4:39 06-Numbers From A Calculated Conversation
DR8 -0.01 dB -9.25 dB 4:11 07-Bijin-Kyoshi At The Swimming School
DR8 -0.01 dB -9.65 dB 4:33 08-Blue Colour Worker
DR8 -0.01 dB -9.91 dB 3:16 09-Stop In The Name Of Love
DR9 -0.01 dB -11.83 dB 3:35 10-Mirrormanic
DR8 -0.01 dB -10.06 dB 6:26 11-The Core Of Eden
––––––––––––––––––––––––––––––––––––––––

Number of tracks: 11
Official DR value: DR8

Samplerate: 44100 Hz
Channels: 2
Bits per sample: 16
Bitrate: 879 kbps
Codec: FLAC
================================================================================




Yukihiro Takahashi - Early Albums Collection 1980-1983 (4CD) Remastered 2005-2007 [Re-Up]

Yukihiro Takahashi - Neuromantic (1981) Remastered Reissue 2005
EAC | FLAC | Tracks (Cue&Log) ~ 290 Mb | Mp3 (CBR320) ~ 113 Mb
Label: Sony Music Direct (Japan) Inc. | # MHCL 513 | 00:40:43 | Scans included

Fans of Takahashi's style as a member of YMO won't be disappointed in this first post-YMO release, which features solid, clever songwriting, Takahashi's usual silvery, squooshy vocals, and sharp, programmed keyboards and beats. Technically a solo album, both Ryuichi Sakamoto and Harry Hosono lend a hand, as does stalwart YMO sessionman Kenji Omura, and the band's Western lyricists Peter Barakan and Chris Mosdell. More surprising are the appearances by Roxy Music's Phil Manzanera and Andy Mackay, lending guitar and sax to half the tracks. Stylistically, the album is a companion piece to YMO's Technodelic (from the same year), sharing much of the same sound and feel. "Drip Dry Eyes" could be a Roxy Music number, and not because of the guest stars, while "Extraordinary" and "Glass" are excellent techno-pop in its earliest incarnation. And the ending number "Something in the Air" is a beautiful up-tempo ballad like "Cue" from BGM. A satisfying album.

Review by Ted Mills, Allmusic.com

Tracklist:

01. Glass (06:03)
02. Grand Espoir (04:38)
03. Connection (05:05)
04. New (Red) Roses (03:48)
05. Extra-Ordinary (04:26)
06. Drip Dry Eyes (05:31)
07. Curtains (03:42)
08. Charge (02:34)
09. Something In The Air (04:52)


Exact Audio Copy V0.99 prebeta 5 from 4. May 2009

EAC extraction logfile from 10. October 2009, 17:49

Yukihiro Takahashi / NEUROMANTIC

Used drive : ASUS DRW-2014L1 Adapter: 0 ID: 0

Read mode : Secure
Utilize accurate stream : Yes
Defeat audio cache : Yes
Make use of C2 pointers : No

Read offset correction : 6
Overread into Lead-In and Lead-Out : No
Fill up missing offset samples with silence : Yes
Delete leading and trailing silent blocks : No
Null samples used in CRC calculations : Yes
Used interface : Native Win32 interface for Win NT & 2000
Gap handling : Appended to previous track

Used output format : User Defined Encoder
Selected bitrate : 1024 kBit/s
Quality : High
Add ID3 tag : No
Command line compressor : C:\Program Files\Exact Audio Copy\FLAC\FLAC.EXE
Additional command line options : -8 -V -T "ARTIST=%a" -T "TITLE=%t" -T "ALBUM=%g" -T "DATE=%y" -T "TRACKNUMBER=%n" -T "GENRE=%m" -T "COMMENT=EAC FLAC -8" %s


TOC of the extracted CD

Track | Start | Length | Start sector | End sector
––––––––––––––––––––––––––––-
1 | 0:00.00 | 6:03.64 | 0 | 27288
2 | 6:03.64 | 4:38.52 | 27289 | 48190
3 | 10:42.41 | 5:05.61 | 48191 | 71126
4 | 15:48.27 | 3:48.37 | 71127 | 88263
5 | 19:36.64 | 4:26.18 | 88264 | 108231
6 | 24:03.07 | 5:31.57 | 108232 | 133113
7 | 29:34.64 | 3:42.00 | 133114 | 149763
8 | 33:16.64 | 2:34.20 | 149764 | 161333
9 | 35:51.09 | 4:51.70 | 161334 | 183228


Track 1

Filename C:\Yukihiro Takahashi - Neuromantic (1981) [FLAC] {Sony Music Direct Japan MHCL-513}\01 - GLASS.wav

Pre-gap length 0:00:02.00

Peak level 99.8 %
Track quality 100.0 %
Test CRC 565A2077
Copy CRC 565A2077
Accurately ripped (confidence 2) [2DA8D685]
Copy OK

Track 2

Filename C:\Yukihiro Takahashi - Neuromantic (1981) [FLAC] {Sony Music Direct Japan MHCL-513}\02 - GRAND ESPOIR.wav

Pre-gap length 0:00:01.70

Peak level 99.8 %
Track quality 100.0 %
Test CRC 233E7D67
Copy CRC 233E7D67
Accurately ripped (confidence 2) [B6888F2A]
Copy OK

Track 3

Filename C:\Yukihiro Takahashi - Neuromantic (1981) [FLAC] {Sony Music Direct Japan MHCL-513}\03 - CONNECTION.wav

Peak level 99.8 %
Track quality 99.9 %
Test CRC 3509E5E7
Copy CRC 3509E5E7
Accurately ripped (confidence 2) [6CF97BE7]
Copy OK

Track 4

Filename C:\Yukihiro Takahashi - Neuromantic (1981) [FLAC] {Sony Music Direct Japan MHCL-513}\04 - NEW (RED) ROSES.wav

Pre-gap length 0:00:01.09

Peak level 99.8 %
Track quality 100.0 %
Test CRC 1E390D39
Copy CRC 1E390D39
Accurately ripped (confidence 2) [C263D371]
Copy OK

Track 5

Filename C:\Yukihiro Takahashi - Neuromantic (1981) [FLAC] {Sony Music Direct Japan MHCL-513}\05 - EXTRA-ORDINARY.wav

Pre-gap length 0:00:01.38

Peak level 99.8 %
Track quality 100.0 %
Test CRC 0C15CD5C
Copy CRC 0C15CD5C
Accurately ripped (confidence 2) [4AD1C6F4]
Copy OK

Track 6

Filename C:\Yukihiro Takahashi - Neuromantic (1981) [FLAC] {Sony Music Direct Japan MHCL-513}\06 - DRIP DRY EYES.wav

Pre-gap length 0:00:01.15

Peak level 99.8 %
Track quality 100.0 %
Test CRC 9110A39B
Copy CRC 9110A39B
Accurately ripped (confidence 2) [94267932]
Copy OK

Track 7

Filename C:\Yukihiro Takahashi - Neuromantic (1981) [FLAC] {Sony Music Direct Japan MHCL-513}\07 - CURTAINS.wav

Pre-gap length 0:00:00.74

Peak level 99.8 %
Track quality 100.0 %
Test CRC 9DD87FF5
Copy CRC 9DD87FF5
Accurately ripped (confidence 2) [C80747C6]
Copy OK

Track 8

Filename C:\Yukihiro Takahashi - Neuromantic (1981) [FLAC] {Sony Music Direct Japan MHCL-513}\08 - CHARGE.wav

Pre-gap length 0:00:00.59

Peak level 99.8 %
Track quality 100.0 %
Test CRC B9765749
Copy CRC B9765749
Accurately ripped (confidence 2) [F0C48374]
Copy OK

Track 9

Filename C:\Yukihiro Takahashi - Neuromantic (1981) [FLAC] {Sony Music Direct Japan MHCL-513}\09 - SOMETHING IN THE AIR.wav

Pre-gap length 0:00:01.34

Peak level 99.8 %
Track quality 100.0 %
Test CRC D47FFBE6
Copy CRC D47FFBE6
Accurately ripped (confidence 2) [A50594AB]
Copy OK


All tracks accurately ripped

No errors occurred

End of status report

foobar2000 1.2 / Dynamic Range Meter 1.1.1
log date: 2013-04-03 10:49:51

––––––––––––––––––––––––––––––––––––––––
Analyzed: Yukihiro Takahashi / Neuromantic
––––––––––––––––––––––––––––––––––––––––

DR Peak RMS Duration Track
––––––––––––––––––––––––––––––––––––––––
DR7 -0.01 dB -8.61 dB 6:04 01-Glass
DR8 -0.01 dB -9.65 dB 4:39 02-Grand Espoir
DR7 -0.01 dB -8.02 dB 5:06 03-Connection
DR8 -0.01 dB -10.14 dB 3:48 04-New (Red) Roses
DR8 -0.01 dB -8.96 dB 4:26 05-Extra-Ordinary
DR7 -0.01 dB -9.22 dB 5:32 06-Drip Dry Eyes
DR7 -0.01 dB -8.58 dB 3:42 07-Curtains
DR7 -0.01 dB -8.29 dB 2:34 08-Charge
DR7 -0.01 dB -8.70 dB 4:52 09-Something In The Air
––––––––––––––––––––––––––––––––––––––––

Number of tracks: 9
Official DR value: DR7

Samplerate: 44100 Hz
Channels: 2
Bits per sample: 16
Bitrate: 940 kbps
Codec: FLAC
================================================================================




Yukihiro Takahashi - Early Albums Collection 1980-1983 (4CD) Remastered 2005-2007 [Re-Up]

Yukihiro Takahashi - What, Me Worry? (1982) Remastered Reissue 2005
EAC | FLAC | Tracks (Cue&Log) ~ 380 Mb | Mp3 (CBR320) ~ 151 Mb
Label: Sony Music Direct (Japan) Inc. | # MHCL 514 | 00:51:34 | Scans included

One of the best Yukihiro Takahashi album during his Yellow Magic Orchestra period, it is certainly a varied one. Melody-wise most songs are strong and a few additional singers provide some welcome relief to Takahashi's "characteristic vocal style" (to put it politely), although he does sing with real passion throughout this album. The two short tracks are instrumentals with a Japanese feel, whereas the songs are clearly influenced by, or themselves influenced the early eighties British synthpop scene featuring the likes of the Human League etc.

The English-lyric songs are all co-written by Peter Barakan who also helped out YMO in this respect. As usual the other two YMO members help out their friend here, but they only make an appearance on the wonderful 'Flashback', for which Ryuichi Sakamoto also provides the music. Other highlights include 'Sayonara' which has Japanese lyrics, 'This Strange Obsession' (written and partly performed by Zaine Griff), the melancholic 'Disposable Love' about the effects of a relationship breaking up and the fun 'All You've Got To Do'.

'The Real You' continues the vocal style first heard on YMO's 1981 album ‘Technodelic’ with its multiple vocal layers sort of sliding over the accompaniment. The last track on the album is a cover of a George Harrison song from the surreal ‘Yellow Submarine’ soundtrack and anybody who knows the heavily psychedelic Beatles original will raise an eyebrow because here Takahashi manages to turn it into a nice upbeat pop-song, although some psychedelic elements like a Hammond organ sound and the well-known Beatles trick of inverted drum-sounds are retained.

Review by Ivar de Vries

Tracklist:

01. What, Me Worry? (01:06)
02. It's Gonna Work Out (04:01)
03. Sayonara (05:32)
04. This Strange Obsession (03:45)
05. Flashback (05:18)
06. The Real You (04:46)
07. Disposable Love (04:29)
08. My Highland Home In Thailand (01:11)
09. All You've Got To Do (03:31)
10. It's All Too Much (04:41)
11. Futari No Kage Ni (04:39)
12. Disposable Love (Japanese version) (04:30)
13. Ich Bin Der Glucklichste Mensch Auf Der Welt (04:00)


Exact Audio Copy V0.99 prebeta 5 from 4. May 2009

EAC extraction logfile from 26. October 2009, 22:09

Yukihiro Takahashi / What Me Worry (2005 Remastered)

Used drive : ASUS DRW-2014L1 Adapter: 0 ID: 0

Read mode : Secure
Utilize accurate stream : Yes
Defeat audio cache : Yes
Make use of C2 pointers : No

Read offset correction : 6
Overread into Lead-In and Lead-Out : No
Fill up missing offset samples with silence : Yes
Delete leading and trailing silent blocks : No
Null samples used in CRC calculations : Yes
Used interface : Native Win32 interface for Win NT & 2000
Gap handling : Appended to previous track

Used output format : User Defined Encoder
Selected bitrate : 1024 kBit/s
Quality : High
Add ID3 tag : No
Command line compressor : C:\Program Files\Exact Audio Copy\FLAC\FLAC.EXE
Additional command line options : -8 -V -T "ARTIST=%a" -T "TITLE=%t" -T "ALBUM=%g" -T "DATE=%y" -T "TRACKNUMBER=%n" -T "GENRE=%m" -T "COMMENT=EAC FLAC -8" %s


TOC of the extracted CD

Track | Start | Length | Start sector | End sector
––––––––––––––––––––––––––––-
1 | 0:00.00 | 1:06.22 | 0 | 4971
2 | 1:06.22 | 4:01.10 | 4972 | 23056
3 | 5:07.32 | 5:32.16 | 23057 | 47972
4 | 10:39.48 | 3:45.21 | 47973 | 64868
5 | 14:24.69 | 5:18.06 | 64869 | 88724
6 | 19:43.00 | 4:46.59 | 88725 | 110233
7 | 24:29.59 | 4:29.59 | 110234 | 130467
8 | 28:59.43 | 1:11.24 | 130468 | 135816
9 | 30:10.67 | 3:31.18 | 135817 | 151659
10 | 33:42.10 | 4:41.56 | 151660 | 172790
11 | 38:23.66 | 4:39.02 | 172791 | 193717
12 | 43:02.68 | 4:29.74 | 193718 | 213966
13 | 47:32.67 | 4:00.26 | 213967 | 231992


Track 1

Filename C:\Yukihiro Takahashi - What Me Worry + EP (1982) [FLAC] {Sony Music Direct Japan MHCL-514}\01 - What, Me Worry .wav

Pre-gap length 0:00:02.00

Peak level 79.6 %
Track quality 100.0 %
Test CRC 9C81FC0B
Copy CRC 9C81FC0B
Track not present in AccurateRip database
Copy OK

Track 2

Filename C:\Yukihiro Takahashi - What Me Worry + EP (1982) [FLAC] {Sony Music Direct Japan MHCL-514}\02 - It's Gonna Work Out.wav

Peak level 99.8 %
Track quality 100.0 %
Test CRC 1701A3E4
Copy CRC 1701A3E4
Track not present in AccurateRip database
Copy OK

Track 3

Filename C:\Yukihiro Takahashi - What Me Worry + EP (1982) [FLAC] {Sony Music Direct Japan MHCL-514}\03 - Sayonara.wav

Pre-gap length 0:00:01.03

Peak level 99.8 %
Track quality 100.0 %
Test CRC A33BBA58
Copy CRC A33BBA58
Track not present in AccurateRip database
Copy OK

Track 4

Filename C:\Yukihiro Takahashi - What Me Worry + EP (1982) [FLAC] {Sony Music Direct Japan MHCL-514}\04 - This Strange Obsession.wav

Pre-gap length 0:00:01.10

Peak level 99.8 %
Track quality 100.0 %
Test CRC CD5679B2
Copy CRC CD5679B2
Track not present in AccurateRip database
Copy OK

Track 5

Filename C:\Yukihiro Takahashi - What Me Worry + EP (1982) [FLAC] {Sony Music Direct Japan MHCL-514}\05 - Flashback.wav

Pre-gap length 0:00:02.36

Peak level 99.8 %
Track quality 100.0 %
Test CRC EA3E0DFD
Copy CRC EA3E0DFD
Track not present in AccurateRip database
Copy OK

Track 6

Filename C:\Yukihiro Takahashi - What Me Worry + EP (1982) [FLAC] {Sony Music Direct Japan MHCL-514}\06 - The Real You.wav

Pre-gap length 0:00:01.36

Peak level 99.8 %
Track quality 100.0 %
Test CRC D21D970D
Copy CRC D21D970D
Track not present in AccurateRip database
Copy OK

Track 7

Filename C:\Yukihiro Takahashi - What Me Worry + EP (1982) [FLAC] {Sony Music Direct Japan MHCL-514}\07 - Disposable Love.wav

Pre-gap length 0:00:01.21

Peak level 99.8 %
Track quality 100.0 %
Test CRC 4FF7C7A5
Copy CRC 4FF7C7A5
Track not present in AccurateRip database
Copy OK

Track 8

Filename C:\Yukihiro Takahashi - What Me Worry + EP (1982) [FLAC] {Sony Music Direct Japan MHCL-514}\08 - My Highland Home In Thailand.wav

Pre-gap length 0:00:01.60

Peak level 98.8 %
Track quality 100.0 %
Test CRC B865A9F0
Copy CRC B865A9F0
Track not present in AccurateRip database
Copy OK

Track 9

Filename C:\Yukihiro Takahashi - What Me Worry + EP (1982) [FLAC] {Sony Music Direct Japan MHCL-514}\09 - All You've Got To Do.wav

Peak level 99.8 %
Track quality 100.0 %
Test CRC 430273C1
Copy CRC 430273C1
Track not present in AccurateRip database
Copy OK

Track 10

Filename C:\Yukihiro Takahashi - What Me Worry + EP (1982) [FLAC] {Sony Music Direct Japan MHCL-514}\10 - It's All Too Much.wav

Peak level 99.8 %
Track quality 100.0 %
Test CRC 8F05D0DE
Copy CRC 8F05D0DE
Track not present in AccurateRip database
Copy OK

Track 11

Filename C:\Yukihiro Takahashi - What Me Worry + EP (1982) [FLAC] {Sony Music Direct Japan MHCL-514}\11 - Futari No Kage Ni.wav

Pre-gap length 0:00:02.38

Peak level 99.8 %
Track quality 100.0 %
Test CRC E6E072A3
Copy CRC E6E072A3
Track not present in AccurateRip database
Copy OK

Track 12

Filename C:\Yukihiro Takahashi - What Me Worry + EP (1982) [FLAC] {Sony Music Direct Japan MHCL-514}\12 - Disposable Love (Japanese version).wav

Pre-gap length 0:00:01.38

Peak level 99.8 %
Track quality 99.9 %
Test CRC 4583A4F5
Copy CRC 4583A4F5
Track not present in AccurateRip database
Copy OK

Track 13

Filename C:\Yukihiro Takahashi - What Me Worry + EP (1982) [FLAC] {Sony Music Direct Japan MHCL-514}\13 - Ich Bin Der Glucklichste Mensch Auf Der Welt.wav

Pre-gap length 0:00:01.38

Peak level 99.8 %
Track quality 100.0 %
Test CRC F14DD7B8
Copy CRC F14DD7B8
Track not present in AccurateRip database
Copy OK


None of the tracks are present in the AccurateRip database

No errors occurred

End of status report

foobar2000 1.2 / Dynamic Range Meter 1.1.1
log date: 2013-04-03 10:50:15

––––––––––––––––––––––––––––––––––––––––
Analyzed: Yukihiro Takahashi / What Me Worry (2005 Remastered)
––––––––––––––––––––––––––––––––––––––––

DR Peak RMS Duration Track
––––––––––––––––––––––––––––––––––––––––
DR11 -1.98 dB -16.81 dB 1:06 01-What, Me Worry?
DR6 -0.01 dB -7.11 dB 4:01 02-It's Gonna Work Out
DR7 -0.01 dB -9.22 dB 5:32 03-Sayonara
DR7 -0.01 dB -7.81 dB 3:45 04-This Strange Obsession
DR8 -0.01 dB -9.51 dB 5:18 05-Flashback
DR7 -0.01 dB -8.74 dB 4:47 06-The Real You
DR7 -0.01 dB -8.38 dB 4:30 07-Disposable Love
DR8 -0.10 dB -10.75 dB 1:11 08-My Highland Home In Thailand
DR7 -0.01 dB -7.71 dB 3:31 09-All You've Got To Do
DR7 -0.01 dB -8.63 dB 4:42 10-It's All Too Much
DR7 -0.01 dB -9.08 dB 4:39 11-Futari No Kage Ni
DR8 -0.01 dB -8.92 dB 4:30 12-Disposable Love (Japanese version)
DR8 -0.01 dB -8.88 dB 4:00 13-Ich Bin Der Glucklichste Mensch Auf Der Welt
––––––––––––––––––––––––––––––––––––––––

Number of tracks: 13
Official DR value: DR8

Samplerate: 44100 Hz
Channels: 2
Bits per sample: 16
Bitrate: 944 kbps
Codec: FLAC
================================================================================




Yukihiro Takahashi - Early Albums Collection 1980-1983 (4CD) Remastered 2005-2007 [Re-Up]

Yukihiro Takahashi - Tomorrow's Just Another Day (1983) Remastered Reissue 2007
EAC | FLAC | Tracks (Cue&Log) ~ 277 Mb | Mp3 (CBR320) ~ 118 Mb
Label: Sony Music Direct (Japan) Inc. | # MHCL 791 | 00:40:49 | Scans included

Takashi switched to Yen Records, a subsidiary of Alfa Japan, for this rather straight-ahead pop album. That being said, the lack of studio trickery or any need to hook up with Western rock stars (apart from usual suspect Bill Nelson) seems to focus Takahashi's attention on writing some hummable melodies, with several dips into the inkwells of Lennon, '60s girl groups, and the British Invasion to supply the inspiration (though not the sound, which is typically synth-driven new wave). Instrumental influences come by way of Barry White, sitar rock, and Northern soul. "Coincidence" leads off side two with its striking wall-of-sound production, its nods to "Strawberry Fields Forever," and the kind of sequenced propulsion that marks his best work in YMO; it stands out as the most successful track here.

Review by Ted Mills, Allmusic.com

Tracklist:

01. Ripple (04:26)
02. My bright tomorrow (03:34)
03. Kagerou (04:55)
04. Rokugatsu no Tenshi (03:21)
05. Maebure (04:24)
06. Coincidence (04:19)
07. This island Earth (04:37)
08. Are you receiving me? (Remix) (04:24)
09. Good time (03:33)
10. The April fools (03:11)


Exact Audio Copy V0.99 prebeta 5 from 4. May 2009

EAC extraction logfile from 16. October 2009, 19:26

Yukihiro Takahashi / Tomorrow's just another day

Used drive : ASUS DRW-2014L1 Adapter: 0 ID: 0

Read mode : Secure
Utilize accurate stream : Yes
Defeat audio cache : Yes
Make use of C2 pointers : No

Read offset correction : 6
Overread into Lead-In and Lead-Out : No
Fill up missing offset samples with silence : Yes
Delete leading and trailing silent blocks : No
Null samples used in CRC calculations : Yes
Used interface : Native Win32 interface for Win NT & 2000
Gap handling : Appended to previous track

Used output format : User Defined Encoder
Selected bitrate : 1024 kBit/s
Quality : High
Add ID3 tag : No
Command line compressor : C:\Program Files\Exact Audio Copy\FLAC\FLAC.EXE
Additional command line options : -8 -V -T "ARTIST=%a" -T "TITLE=%t" -T "ALBUM=%g" -T "DATE=%y" -T "TRACKNUMBER=%n" -T "GENRE=%m" -T "COMMENT=EAC FLAC -8" %s


TOC of the extracted CD

Track | Start | Length | Start sector | End sector
––––––––––––––––––––––––––––-
1 | 0:00.00 | 4:26.20 | 0 | 19969
2 | 4:26.20 | 3:34.42 | 19970 | 36061
3 | 8:00.62 | 4:55.59 | 36062 | 58245
4 | 12:56.46 | 3:20.70 | 58246 | 73315
5 | 16:17.41 | 4:24.43 | 73316 | 93158
6 | 20:42.09 | 4:19.17 | 93159 | 112600
7 | 25:01.26 | 4:37.66 | 112601 | 133441
8 | 29:39.17 | 4:24.45 | 133442 | 153286
9 | 34:03.62 | 3:33.01 | 153287 | 169262
10 | 37:36.63 | 3:11.50 | 169263 | 183637


Track 1

Filename C:\Yukihiro Takahashi - Tomorrow's Just Another Day (1983) [FLAC] {Sony Music Direct Japan MHCL-791}\01 - Ripple.wav

Pre-gap length 0:00:02.00

Peak level 99.7 %
Track quality 100.0 %
Test CRC 7419B6EC
Copy CRC 7419B6EC
Track not present in AccurateRip database
Copy OK

Track 2

Filename C:\Yukihiro Takahashi - Tomorrow's Just Another Day (1983) [FLAC] {Sony Music Direct Japan MHCL-791}\02 - My bright tomorrow.wav

Peak level 99.8 %
Track quality 100.0 %
Test CRC 37EB3CBB
Copy CRC 37EB3CBB
Track not present in AccurateRip database
Copy OK

Track 3

Filename C:\Yukihiro Takahashi - Tomorrow's Just Another Day (1983) [FLAC] {Sony Music Direct Japan MHCL-791}\03 - Kagerou.wav

Pre-gap length 0:00:01.42

Peak level 99.8 %
Track quality 100.0 %
Test CRC 89C5ADAA
Copy CRC 89C5ADAA
Track not present in AccurateRip database
Copy OK

Track 4

Filename C:\Yukihiro Takahashi - Tomorrow's Just Another Day (1983) [FLAC] {Sony Music Direct Japan MHCL-791}\04 - Rokugatsu no Tenshi.wav

Peak level 99.8 %
Track quality 100.0 %
Test CRC A05E6D4B
Copy CRC A05E6D4B
Track not present in AccurateRip database
Copy OK

Track 5

Filename C:\Yukihiro Takahashi - Tomorrow's Just Another Day (1983) [FLAC] {Sony Music Direct Japan MHCL-791}\05 - Maebure.wav

Peak level 99.8 %
Track quality 100.0 %
Test CRC B9CBD7CF
Copy CRC B9CBD7CF
Track not present in AccurateRip database
Copy OK

Track 6

Filename C:\Yukihiro Takahashi - Tomorrow's Just Another Day (1983) [FLAC] {Sony Music Direct Japan MHCL-791}\06 - Coincidence.wav

Pre-gap length 0:00:01.40

Peak level 99.8 %
Track quality 100.0 %
Test CRC CDAFCA71
Copy CRC CDAFCA71
Track not present in AccurateRip database
Copy OK

Track 7

Filename C:\Yukihiro Takahashi - Tomorrow's Just Another Day (1983) [FLAC] {Sony Music Direct Japan MHCL-791}\07 - This island Earth.wav

Peak level 99.8 %
Track quality 100.0 %
Test CRC 8892707F
Copy CRC 8892707F
Track not present in AccurateRip database
Copy OK

Track 8

Filename C:\Yukihiro Takahashi - Tomorrow's Just Another Day (1983) [FLAC] {Sony Music Direct Japan MHCL-791}\08 - Are you receiving me (Remix).wav

Peak level 99.8 %
Track quality 100.0 %
Test CRC 33F6DDF4
Copy CRC 33F6DDF4
Track not present in AccurateRip database
Copy OK

Track 9

Filename C:\Yukihiro Takahashi - Tomorrow's Just Another Day (1983) [FLAC] {Sony Music Direct Japan MHCL-791}\09 - Good time.wav

Pre-gap length 0:00:03.19

Peak level 99.8 %
Track quality 100.0 %
Test CRC 3D156730
Copy CRC 3D156730
Track not present in AccurateRip database
Copy OK

Track 10

Filename C:\Yukihiro Takahashi - Tomorrow's Just Another Day (1983) [FLAC] {Sony Music Direct Japan MHCL-791}\10 - The April fools.wav

Peak level 99.8 %
Track quality 100.0 %
Test CRC B56580B6
Copy CRC B56580B6
Track not present in AccurateRip database
Copy OK


None of the tracks are present in the AccurateRip database

No errors occurred

End of status report

foobar2000 1.2 / Dynamic Range Meter 1.1.1
log date: 2013-04-03 10:50:01

––––––––––––––––––––––––––––––––––––––––
Analyzed: Yukihiro Takahashi / Tomorrow's just another day
––––––––––––––––––––––––––––––––––––––––

DR Peak RMS Duration Track
––––––––––––––––––––––––––––––––––––––––
DR9 -0.02 dB -12.31 dB 4:26 01-Ripple
DR8 -0.01 dB -9.25 dB 3:35 02-My bright tomorrow
DR8 -0.01 dB -9.47 dB 4:56 03-Kagerou
DR7 -0.01 dB -8.29 dB 3:21 04-Rokugatsu no Tenshi
DR7 -0.01 dB -9.02 dB 4:25 05-Maebure
DR9 -0.01 dB -9.86 dB 4:19 06-Coincidence
DR8 -0.01 dB -9.36 dB 4:38 07-This island Earth
DR8 -0.01 dB -9.34 dB 4:25 08-Are you receiving me? (Remix)
DR7 -0.01 dB -10.49 dB 3:33 09-Good time
DR9 -0.01 dB -12.71 dB 3:12 10-The April fools
––––––––––––––––––––––––––––––––––––––––

Number of tracks: 10
Official DR value: DR8

Samplerate: 44100 Hz
Channels: 2
Bits per sample: 16
Bitrate: 700 kbps
Codec: FLAC
================================================================================