Tags
Language
Tags

Big Country - Wonderland: The Essential Big Country (2017)

Posted By: delpotro
Big Country - Wonderland: The Essential Big Country (2017)

Big Country - Wonderland: The Essential Big Country (2017)
XLD Rip | FLAC (tracks+log+.cue) - 1,36 Gb | MP3 CBR 320 kbps - 495 Mb | 03:32:36
Alternative Rock, Pop Rock, New Wave, Celtic Rock | Label: Universal Music, Spectrum Music

Universal Music will issue another great value three-CD Essential set under their budget Spectrum imprint, this time featuring Scottish rock band Big Country. This package includes all 13 of the band’s UK top 30 singles (including ‘Look Away’, ‘One Great Thing’, ‘Chance’ and ‘Wonderland’) as well as highlighting key album cuts (including the title track of 1986’s The Seer which features one Kate Bush) and offering a smattering of remixes. A live cover of the soul classic ‘The Tracks of My Tears’ features at the end of CD 2.

This set takes us up to 1991, although the band would continue releasing albums and touring until the end of the millennium. Frontman Stuart Adamson tragically took his own life in December 2001.

Like the previously announced The Human League Essential package (due out on 5 June) this triple-disc Big Country offering is not really one for the diehards, although anyone with half an interest should find plenty of rewards for their £7 investment.
Tracklist:
Disc 1 (01:05:36)
1. Harvest Home (04:20)
2. Balcony (03:57)
3. Fields of Fire (03:31)
4. Angle Park (04:04)
5. Chance (04:26)
6. The Tracks of My Tears (live From Locarno Tiffany’s, Glasgow / 1983) (03:32)
7. In a Big Country (04:42)
8. All of Us (04:09)
9. The Storm (06:20)
10. Heart and Soul (04:33)
11. A Thousand Stars (03:51)
12. Wonderland (12″ mix) (07:08)
13. The Crossing (07:06)
14. Giant (03:57)

Disc 2 (01:13:56)
1. East of Eden (04:29)
2. Prairie Rose (04:46)
3. Where the Rose Is Sown (04:58)
4. Belief in the Small Man (05:17)
5. Come Back to Me (04:35)
6. Steeltown (04:38)
7. Just a Shadow (05:40)
8. Winter Sky (03:15)
9. Look Away (04:23)
10. Restless Natives (04:00)
11. One Great Thing (04:02)
12. The Seer (feat. Kate Bush) (05:20)
13. Song of the South (04:59)
14. The Great Divide (04:49)
15. Tall Ships Go (04:37)
16. The Teacher (04:08)

Disc 3 (01:13:05)
1. King of Emotion (04:51)
2. The Travellers (03:13)
3. Starred & Crossed (04:23)
4. Broken Heart (Thirteen Valleys) (05:10)
5. Soapy Soutar Strikes Back (instrumental) (04:11)
6. River of Hope (04:29)
7. Heart of the World (03:43)
8. Black Skinned Blue Eyed Boys (03:19)
9. Save Me (04:29)
10. Pass Me By (03:56)
11. World on Fire (03:47)
12. Beautiful People (05:32)
13. Return of the Two Headed King (04:28)
14. Fly Like an Eagle (04:25)
15. Republican Party Reptile (04:01)
16. Freedom Song (04:31)
17. I’m Only Waiting (04:37)

X Lossless Decoder version 20170729 (150.3)

XLD extraction logfile from 2018-02-07 18:27:49 -0500

Big Country / Wonderland: The Essential Big Country

Used drive : HL-DT-ST DVDRW GX30N (revision RP09)
Media type : Pressed CD

Ripper mode : XLD Secure Ripper
Disable audio cache : OK for the drive with a cache less than 1375KiB
Make use of C2 pointers : NO
Read offset correction : 6
Max retry count : 20
Gap status : Analyzed, Appended (except HTOA)

TOC of the extracted CD
Track | Start | Length | Start sector | End sector
––––––––––––––––––––––––––––-
1 | 00:00:00 | 04:20:13 | 0 | 19512
2 | 04:20:13 | 03:57:12 | 19513 | 37299
3 | 08:17:25 | 03:31:18 | 37300 | 53142
4 | 11:48:43 | 04:04:00 | 53143 | 71442
5 | 15:52:43 | 04:26:05 | 71443 | 91397
6 | 20:18:48 | 03:32:05 | 91398 | 107302
7 | 23:50:53 | 04:42:00 | 107303 | 128452
8 | 28:32:53 | 04:08:60 | 128453 | 147112
9 | 32:41:38 | 06:19:70 | 147113 | 175607
10 | 39:01:33 | 04:33:00 | 175608 | 196082
11 | 43:34:33 | 03:50:65 | 196083 | 213397
12 | 47:25:23 | 07:07:63 | 213398 | 245485
13 | 54:33:11 | 07:06:00 | 245486 | 277435
14 | 61:39:11 | 03:57:11 | 277436 | 295221

AccurateRip Summary (DiscID: 001f6a93-01550649-b70f600e)
Track 01 : OK (v2, confidence 4/4)
Track 02 : OK (v2, confidence 4/4)
Track 03 : OK (v2, confidence 4/4)
Track 04 : OK (v2, confidence 4/4)
Track 05 : OK (v2, confidence 4/4)
Track 06 : OK (v2, confidence 4/4)
Track 07 : OK (v2, confidence 4/4)
Track 08 : OK (v2, confidence 4/4)
Track 09 : OK (v2, confidence 4/4)
Track 10 : OK (v2, confidence 4/4)
Track 11 : OK (v2, confidence 4/4)
Track 12 : OK (v2, confidence 4/4)
Track 13 : OK (v2, confidence 4/4)
Track 14 : OK (v2, confidence 4/4)
->All tracks accurately ripped.

All Tracks
Album gain : -6.06 dB
Peak : 0.999908
Statistics
Read error : 0
Jitter error (maybe fixed) : 0
Retry sector count : 0
Damaged sector count : 0

Track 01
Filename : /Volumes/Elements 4TB/Torrents 2018/Big Country - Wonderland: The Essential Big Country (2017) [FLAC]/01-01 Harvest Home.flac
Pre-gap length : 00:02:00

Track gain : -5.67 dB
Peak : 0.999908
CRC32 hash (test run) : 1126F1D0
CRC32 hash : 1126F1D0
CRC32 hash (skip zero) : 0C0CBFE2
AccurateRip v1 signature : 953C96EB
AccurateRip v2 signature : 5BA1CF37
->Accurately ripped (v2, confidence 4/4)
Statistics
Read error : 0
Jitter error (maybe fixed) : 0
Retry sector count : 0
Damaged sector count : 0

Track 02
Filename : /Volumes/Elements 4TB/Torrents 2018/Big Country - Wonderland: The Essential Big Country (2017) [FLAC]/01-02 Balcony.flac

Track gain : -4.91 dB
Peak : 0.999908
CRC32 hash (test run) : F30B0F17
CRC32 hash : F30B0F17
CRC32 hash (skip zero) : 70CBF117
AccurateRip v1 signature : 5B267797
AccurateRip v2 signature : 9380B4D9
->Accurately ripped (v2, confidence 4/4)
Statistics
Read error : 0
Jitter error (maybe fixed) : 0
Retry sector count : 0
Damaged sector count : 0

Track 03
Filename : /Volumes/Elements 4TB/Torrents 2018/Big Country - Wonderland: The Essential Big Country (2017) [FLAC]/01-03 Fields of Fire.flac

Track gain : -6.94 dB
Peak : 0.999908
CRC32 hash (test run) : 7E6C6B8E
CRC32 hash : 7E6C6B8E
CRC32 hash (skip zero) : 61933B09
AccurateRip v1 signature : 53B57514
AccurateRip v2 signature : 43D3A8FE
->Accurately ripped (v2, confidence 4/4)
Statistics
Read error : 0
Jitter error (maybe fixed) : 0
Retry sector count : 0
Damaged sector count : 0

Track 04
Filename : /Volumes/Elements 4TB/Torrents 2018/Big Country - Wonderland: The Essential Big Country (2017) [FLAC]/01-04 Angle Park.flac

Track gain : -6.55 dB
Peak : 0.999878
CRC32 hash (test run) : C73B2252
CRC32 hash : C73B2252
CRC32 hash (skip zero) : A151136C
AccurateRip v1 signature : 106F9A8B
AccurateRip v2 signature : 23094DA6
->Accurately ripped (v2, confidence 4/4)
Statistics
Read error : 0
Jitter error (maybe fixed) : 0
Retry sector count : 0
Damaged sector count : 0

Track 05
Filename : /Volumes/Elements 4TB/Torrents 2018/Big Country - Wonderland: The Essential Big Country (2017) [FLAC]/01-05 Chance.flac

Track gain : -6.58 dB
Peak : 0.999908
CRC32 hash (test run) : A02BCF12
CRC32 hash : A02BCF12
CRC32 hash (skip zero) : A2334330
AccurateRip v1 signature : 01F5FD05
AccurateRip v2 signature : D00271E6
->Accurately ripped (v2, confidence 4/4)
Statistics
Read error : 0
Jitter error (maybe fixed) : 0
Retry sector count : 0
Damaged sector count : 0

Track 06
Filename : /Volumes/Elements 4TB/Torrents 2018/Big Country - Wonderland: The Essential Big Country (2017) [FLAC]/01-06 The Tracks of My Tears (live From Locarno Tiffany’s, Glasgow / 1983).flac

Track gain : -4.28 dB
Peak : 0.999908
CRC32 hash (test run) : 40C47CD2
CRC32 hash : 40C47CD2
CRC32 hash (skip zero) : 4474364D
AccurateRip v1 signature : 2A749A88
AccurateRip v2 signature : D2D94F38
->Accurately ripped (v2, confidence 4/4)
Statistics
Read error : 0
Jitter error (maybe fixed) : 0
Retry sector count : 0
Damaged sector count : 0

Track 07
Filename : /Volumes/Elements 4TB/Torrents 2018/Big Country - Wonderland: The Essential Big Country (2017) [FLAC]/01-07 In a Big Country.flac

Track gain : -8.61 dB
Peak : 0.999908
CRC32 hash (test run) : AA261527
CRC32 hash : AA261527
CRC32 hash (skip zero) : 5956F346
AccurateRip v1 signature : AECDC12D
AccurateRip v2 signature : FE9889DE
->Accurately ripped (v2, confidence 4/4)
Statistics
Read error : 0
Jitter error (maybe fixed) : 0
Retry sector count : 0
Damaged sector count : 0

Track 08
Filename : /Volumes/Elements 4TB/Torrents 2018/Big Country - Wonderland: The Essential Big Country (2017) [FLAC]/01-08 All of Us.flac

Track gain : -6.68 dB
Peak : 0.999878
CRC32 hash (test run) : 2B9D06C5
CRC32 hash : 2B9D06C5
CRC32 hash (skip zero) : 6FD7512C
AccurateRip v1 signature : 91D854F0
AccurateRip v2 signature : 6AC34472
->Accurately ripped (v2, confidence 4/4)
Statistics
Read error : 0
Jitter error (maybe fixed) : 0
Retry sector count : 0
Damaged sector count : 0

Track 09
Filename : /Volumes/Elements 4TB/Torrents 2018/Big Country - Wonderland: The Essential Big Country (2017) [FLAC]/01-09 The Storm.flac

Track gain : -4.63 dB
Peak : 0.999878
CRC32 hash (test run) : 3CA1527A
CRC32 hash : 3CA1527A
CRC32 hash (skip zero) : 74F85510
AccurateRip v1 signature : 2A813F94
AccurateRip v2 signature : E36915D2
->Accurately ripped (v2, confidence 4/4)
Statistics
Read error : 0
Jitter error (maybe fixed) : 0
Retry sector count : 0
Damaged sector count : 0

Track 10
Filename : /Volumes/Elements 4TB/Torrents 2018/Big Country - Wonderland: The Essential Big Country (2017) [FLAC]/01-10 Heart and Soul.flac

Track gain : -3.89 dB
Peak : 0.999878
CRC32 hash (test run) : 31F215DF
CRC32 hash : 31F215DF
CRC32 hash (skip zero) : 39A79899
AccurateRip v1 signature : A5317E58
AccurateRip v2 signature : 1F9CC997
->Accurately ripped (v2, confidence 4/4)
Statistics
Read error : 0
Jitter error (maybe fixed) : 0
Retry sector count : 0
Damaged sector count : 0

Track 11
Filename : /Volumes/Elements 4TB/Torrents 2018/Big Country - Wonderland: The Essential Big Country (2017) [FLAC]/01-11 A Thousand Stars.flac

Track gain : -5.46 dB
Peak : 0.999908
CRC32 hash (test run) : 1079DCCF
CRC32 hash : 1079DCCF
CRC32 hash (skip zero) : E7A5818E
AccurateRip v1 signature : 779E1857
AccurateRip v2 signature : FD3CEC79
->Accurately ripped (v2, confidence 4/4)
Statistics
Read error : 0
Jitter error (maybe fixed) : 0
Retry sector count : 0
Damaged sector count : 0

Track 12
Filename : /Volumes/Elements 4TB/Torrents 2018/Big Country - Wonderland: The Essential Big Country (2017) [FLAC]/01-12 Wonderland (12″ mix).flac

Track gain : -4.54 dB
Peak : 0.999878
CRC32 hash (test run) : 503A4573
CRC32 hash : 503A4573
CRC32 hash (skip zero) : 1E5EF13B
AccurateRip v1 signature : 6F6A3F76
AccurateRip v2 signature : F24986AE
->Accurately ripped (v2, confidence 4/4)
Statistics
Read error : 0
Jitter error (maybe fixed) : 0
Retry sector count : 0
Damaged sector count : 0

Track 13
Filename : /Volumes/Elements 4TB/Torrents 2018/Big Country - Wonderland: The Essential Big Country (2017) [FLAC]/01-13 The Crossing.flac

Track gain : -2.77 dB
Peak : 0.999908
CRC32 hash (test run) : F7AE56B2
CRC32 hash : F7AE56B2
CRC32 hash (skip zero) : FFD6D58A
AccurateRip v1 signature : 20616DAB
AccurateRip v2 signature : 97DB05C3
->Accurately ripped (v2, confidence 4/4)
Statistics
Read error : 0
Jitter error (maybe fixed) : 0
Retry sector count : 0
Damaged sector count : 0

Track 14
Filename : /Volumes/Elements 4TB/Torrents 2018/Big Country - Wonderland: The Essential Big Country (2017) [FLAC]/01-14 Giant.flac

Track gain : -3.88 dB
Peak : 0.999908
CRC32 hash (test run) : 1258A8C9
CRC32 hash : 1258A8C9
CRC32 hash (skip zero) : E4B6D549
AccurateRip v1 signature : 4E2C9C3E
AccurateRip v2 signature : 7E080FEA
->Accurately ripped (v2, confidence 4/4)
Statistics
Read error : 0
Jitter error (maybe fixed) : 0
Retry sector count : 0
Damaged sector count : 0

No errors occurred

End of status report

––-BEGIN XLD SIGNATURE––-
XxFA2Zs8aZ07DLvgAjYDOvAUMx8o01.VJYm0U.9vdEp3idrqVryFxRCHbZH9TiWTNk0StJMtL.4Wus07kNzsBfaCbDMeqCqV_VlTwse
––-END XLD SIGNATURE––-
X Lossless Decoder version 20170729 (150.3)

XLD extraction logfile from 2018-02-07 18:51:58 -0500

Big Country / Wonderland: The Essential Big Country

Used drive : HL-DT-ST DVDRW GX30N (revision RP09)
Media type : Pressed CD

Ripper mode : XLD Secure Ripper
Disable audio cache : OK for the drive with a cache less than 1375KiB
Make use of C2 pointers : NO
Read offset correction : 6
Max retry count : 20
Gap status : Analyzed, Appended (except HTOA)

TOC of the extracted CD
Track | Start | Length | Start sector | End sector
––––––––––––––––––––––––––––-
1 | 00:00:00 | 04:28:64 | 0 | 20163
2 | 04:28:64 | 04:46:01 | 20164 | 41614
3 | 09:14:65 | 04:57:60 | 41615 | 63949
4 | 14:12:50 | 05:17:00 | 63950 | 87724
5 | 19:29:50 | 04:34:73 | 87725 | 108347
6 | 24:04:48 | 04:38:00 | 108348 | 129197
7 | 28:42:48 | 05:40:00 | 129198 | 154697
8 | 34:22:48 | 03:15:02 | 154698 | 169324
9 | 37:37:50 | 04:23:23 | 169325 | 189072
10 | 42:00:73 | 04:00:00 | 189073 | 207072
11 | 46:00:73 | 04:01:74 | 207073 | 225221
12 | 50:02:72 | 05:19:63 | 225222 | 249209
13 | 55:22:60 | 04:59:04 | 249210 | 271638
14 | 60:21:64 | 04:49:01 | 271639 | 293314
15 | 65:10:65 | 04:37:00 | 293315 | 314089
16 | 69:47:65 | 04:07:51 | 314090 | 332665

AccurateRip Summary (DiscID: 002b995f-02096456-d3115310)
Track 01 : OK (v2, confidence 3/3)
Track 02 : OK (v2, confidence 3/3)
Track 03 : OK (v2, confidence 3/3)
Track 04 : OK (v2, confidence 3/3)
Track 05 : OK (v2, confidence 3/3)
Track 06 : OK (v2, confidence 3/3)
Track 07 : OK (v2, confidence 3/3)
Track 08 : OK (v2, confidence 3/3)
Track 09 : OK (v2, confidence 3/3)
Track 10 : OK (v2, confidence 3/3)
Track 11 : OK (v2, confidence 3/3)
Track 12 : OK (v2, confidence 3/3)
Track 13 : OK (v2, confidence 3/3)
Track 14 : OK (v2, confidence 3/3)
Track 15 : OK (v2, confidence 3/3)
Track 16 : OK (v2, confidence 3/3)
->All tracks accurately ripped.

All Tracks
Album gain : -5.78 dB
Peak : 0.999908
Statistics
Read error : 0
Jitter error (maybe fixed) : 0
Retry sector count : 0
Damaged sector count : 0

Track 01
Filename : /Volumes/Elements 4TB/Torrents 2018/Big Country - Wonderland: The Essential Big Country (2017) [FLAC]/02-01 East of Eden.flac
Pre-gap length : 00:02:00

Track gain : -5.26 dB
Peak : 0.999908
CRC32 hash (test run) : 38663AA3
CRC32 hash : 38663AA3
CRC32 hash (skip zero) : 670ABE62
AccurateRip v1 signature : F3484CE4
AccurateRip v2 signature : 39B10C6C
->Accurately ripped (v2, confidence 3/3)
Statistics
Read error : 0
Jitter error (maybe fixed) : 0
Retry sector count : 0
Damaged sector count : 0

Track 02
Filename : /Volumes/Elements 4TB/Torrents 2018/Big Country - Wonderland: The Essential Big Country (2017) [FLAC]/02-02 Prairie Rose.flac

Track gain : -3.93 dB
Peak : 0.999908
CRC32 hash (test run) : 0F43DA81
CRC32 hash : 0F43DA81
CRC32 hash (skip zero) : D4784567
AccurateRip v1 signature : A54AF7DE
AccurateRip v2 signature : 95647A24
->Accurately ripped (v2, confidence 3/3)
Statistics
Read error : 0
Jitter error (maybe fixed) : 0
Retry sector count : 0
Damaged sector count : 0

Track 03
Filename : /Volumes/Elements 4TB/Torrents 2018/Big Country - Wonderland: The Essential Big Country (2017) [FLAC]/02-03 Where the Rose Is Sown.flac

Track gain : -6.52 dB
Peak : 0.999908
CRC32 hash (test run) : 83369BB8
CRC32 hash : 83369BB8
CRC32 hash (skip zero) : E4D41275
AccurateRip v1 signature : 44FB1AE4
AccurateRip v2 signature : 0C614C54
->Accurately ripped (v2, confidence 3/3)
Statistics
Read error : 0
Jitter error (maybe fixed) : 0
Retry sector count : 0
Damaged sector count : 0

Track 04
Filename : /Volumes/Elements 4TB/Torrents 2018/Big Country - Wonderland: The Essential Big Country (2017) [FLAC]/02-04 Belief in the Small Man.flac

Track gain : -5.35 dB
Peak : 0.999908
CRC32 hash (test run) : 4A03180B
CRC32 hash : 4A03180B
CRC32 hash (skip zero) : 3E2DCD6D
AccurateRip v1 signature : A39F28F6
AccurateRip v2 signature : BAE24B39
->Accurately ripped (v2, confidence 3/3)
Statistics
Read error : 0
Jitter error (maybe fixed) : 0
Retry sector count : 0
Damaged sector count : 0

Track 05
Filename : /Volumes/Elements 4TB/Torrents 2018/Big Country - Wonderland: The Essential Big Country (2017) [FLAC]/02-05 Come Back to Me.flac

Track gain : -6.24 dB
Peak : 0.999908
CRC32 hash (test run) : 32CAB9E7
CRC32 hash : 32CAB9E7
CRC32 hash (skip zero) : 43368B47
AccurateRip v1 signature : 87BAB59A
AccurateRip v2 signature : 360B4805
->Accurately ripped (v2, confidence 3/3)
Statistics
Read error : 0
Jitter error (maybe fixed) : 0
Retry sector count : 0
Damaged sector count : 0

Track 06
Filename : /Volumes/Elements 4TB/Torrents 2018/Big Country - Wonderland: The Essential Big Country (2017) [FLAC]/02-06 Steeltown.flac

Track gain : -5.71 dB
Peak : 0.999908
CRC32 hash (test run) : 7D121AFA
CRC32 hash : 7D121AFA
CRC32 hash (skip zero) : 27605159
AccurateRip v1 signature : 313E24D1
AccurateRip v2 signature : 7DE01C2B
->Accurately ripped (v2, confidence 3/3)
Statistics
Read error : 0
Jitter error (maybe fixed) : 0
Retry sector count : 0
Damaged sector count : 0

Track 07
Filename : /Volumes/Elements 4TB/Torrents 2018/Big Country - Wonderland: The Essential Big Country (2017) [FLAC]/02-07 Just a Shadow.flac

Track gain : -5.81 dB
Peak : 0.999908
CRC32 hash (test run) : B2A5FCCC
CRC32 hash : B2A5FCCC
CRC32 hash (skip zero) : A01A71A2
AccurateRip v1 signature : CAC68139
AccurateRip v2 signature : 7DC1D494
->Accurately ripped (v2, confidence 3/3)
Statistics
Read error : 0
Jitter error (maybe fixed) : 0
Retry sector count : 0
Damaged sector count : 0

Track 08
Filename : /Volumes/Elements 4TB/Torrents 2018/Big Country - Wonderland: The Essential Big Country (2017) [FLAC]/02-08 Winter Sky.flac

Track gain : -6.88 dB
Peak : 0.999908
CRC32 hash (test run) : E31FDE52
CRC32 hash : E31FDE52
CRC32 hash (skip zero) : 10AA7137
AccurateRip v1 signature : 279D3EC1
AccurateRip v2 signature : 752D16A1
->Accurately ripped (v2, confidence 3/3)
Statistics
Read error : 0
Jitter error (maybe fixed) : 0
Retry sector count : 0
Damaged sector count : 0

Track 09
Filename : /Volumes/Elements 4TB/Torrents 2018/Big Country - Wonderland: The Essential Big Country (2017) [FLAC]/02-09 Look Away.flac

Track gain : -5.69 dB
Peak : 0.999908
CRC32 hash (test run) : B146A657
CRC32 hash : B146A657
CRC32 hash (skip zero) : 14C24E68
AccurateRip v1 signature : A5367893
AccurateRip v2 signature : D23C0019
->Accurately ripped (v2, confidence 3/3)
Statistics
Read error : 0
Jitter error (maybe fixed) : 0
Retry sector count : 0
Damaged sector count : 0

Track 10
Filename : /Volumes/Elements 4TB/Torrents 2018/Big Country - Wonderland: The Essential Big Country (2017) [FLAC]/02-10 Restless Natives.flac

Track gain : -6.80 dB
Peak : 0.999908
CRC32 hash (test run) : 11C66073
CRC32 hash : 11C66073
CRC32 hash (skip zero) : 47EB8A21
AccurateRip v1 signature : 2A948B76
AccurateRip v2 signature : E32D266A
->Accurately ripped (v2, confidence 3/3)
Statistics
Read error : 0
Jitter error (maybe fixed) : 0
Retry sector count : 0
Damaged sector count : 0

Track 11
Filename : /Volumes/Elements 4TB/Torrents 2018/Big Country - Wonderland: The Essential Big Country (2017) [FLAC]/02-11 One Great Thing.flac

Track gain : -4.07 dB
Peak : 0.999908
CRC32 hash (test run) : 38EC11B9
CRC32 hash : 38EC11B9
CRC32 hash (skip zero) : 1225D3AD
AccurateRip v1 signature : 15BF20B9
AccurateRip v2 signature : 51F16D8B
->Accurately ripped (v2, confidence 3/3)
Statistics
Read error : 0
Jitter error (maybe fixed) : 0
Retry sector count : 0
Damaged sector count : 0

Track 12
Filename : /Volumes/Elements 4TB/Torrents 2018/Big Country - Wonderland: The Essential Big Country (2017) [FLAC]/02-12 The Seer.flac

Track gain : -5.10 dB
Peak : 0.999878
CRC32 hash (test run) : 11B0853F
CRC32 hash : 11B0853F
CRC32 hash (skip zero) : 1E352D07
AccurateRip v1 signature : 8656C287
AccurateRip v2 signature : F29E6CA8
->Accurately ripped (v2, confidence 3/3)
Statistics
Read error : 0
Jitter error (maybe fixed) : 0
Retry sector count : 0
Damaged sector count : 0

Track 13
Filename : /Volumes/Elements 4TB/Torrents 2018/Big Country - Wonderland: The Essential Big Country (2017) [FLAC]/02-13 Song of the South.flac

Track gain : -4.84 dB
Peak : 0.999908
CRC32 hash (test run) : 32A7C783
CRC32 hash : 32A7C783
CRC32 hash (skip zero) : 2C32C330
AccurateRip v1 signature : B2361152
AccurateRip v2 signature : 55B0B69C
->Accurately ripped (v2, confidence 3/3)
Statistics
Read error : 0
Jitter error (maybe fixed) : 0
Retry sector count : 0
Damaged sector count : 0

Track 14
Filename : /Volumes/Elements 4TB/Torrents 2018/Big Country - Wonderland: The Essential Big Country (2017) [FLAC]/02-14 The Great Divide.flac

Track gain : -6.10 dB
Peak : 0.999908
CRC32 hash (test run) : D6B1347D
CRC32 hash : D6B1347D
CRC32 hash (skip zero) : 874913F8
AccurateRip v1 signature : AEA9FA51
AccurateRip v2 signature : AF9CB7E5
->Accurately ripped (v2, confidence 3/3)
Statistics
Read error : 0
Jitter error (maybe fixed) : 0
Retry sector count : 0
Damaged sector count : 0

Track 15
Filename : /Volumes/Elements 4TB/Torrents 2018/Big Country - Wonderland: The Essential Big Country (2017) [FLAC]/02-15 Tall Ships Go.flac

Track gain : -5.77 dB
Peak : 0.999908
CRC32 hash (test run) : 58BB805D
CRC32 hash : 58BB805D
CRC32 hash (skip zero) : AA1E9EE4
AccurateRip v1 signature : 6BC32DEC
AccurateRip v2 signature : B97F2414
->Accurately ripped (v2, confidence 3/3)
Statistics
Read error : 0
Jitter error (maybe fixed) : 0
Retry sector count : 0
Damaged sector count : 0

Track 16
Filename : /Volumes/Elements 4TB/Torrents 2018/Big Country - Wonderland: The Essential Big Country (2017) [FLAC]/02-16 The Teacher.flac

Track gain : -6.33 dB
Peak : 0.999908
CRC32 hash (test run) : CD96D8B7
CRC32 hash : CD96D8B7
CRC32 hash (skip zero) : 98476324
AccurateRip v1 signature : E51BCE76
AccurateRip v2 signature : 74B1B1A4
->Accurately ripped (v2, confidence 3/3)
Statistics
Read error : 0
Jitter error (maybe fixed) : 0
Retry sector count : 0
Damaged sector count : 0

No errors occurred

End of status report

––-BEGIN XLD SIGNATURE––-
F8zuj0P43vUnl.em.vyjLOuXDV3lsQSsQ49n.7HfmxyWoDxOttZ8XBc6pM9QvBhaLE0kckQJkz41DemGs171yFag8Iu7r0mqHqlNPDy
––-END XLD SIGNATURE––-
X Lossless Decoder version 20170729 (150.3)

XLD extraction logfile from 2018-02-07 19:19:50 -0500

Big Country / Wonderland: The Essential Big Country

Used drive : HL-DT-ST DVDRW GX30N (revision RP09)
Media type : Pressed CD

Ripper mode : XLD Secure Ripper
Disable audio cache : OK for the drive with a cache less than 1375KiB
Make use of C2 pointers : NO
Read offset correction : 6
Max retry count : 20
Gap status : Analyzed, Appended (except HTOA)

TOC of the extracted CD
Track | Start | Length | Start sector | End sector
––––––––––––––––––––––––––––-
1 | 00:00:00 | 04:50:64 | 0 | 21813
2 | 04:50:64 | 03:12:55 | 21814 | 36268
3 | 08:03:44 | 04:23:00 | 36269 | 55993
4 | 12:26:44 | 05:09:69 | 55994 | 79237
5 | 17:36:38 | 04:11:00 | 79238 | 98062
6 | 21:47:38 | 04:29:35 | 98063 | 118272
7 | 26:16:73 | 03:43:22 | 118273 | 135019
8 | 30:00:20 | 03:18:71 | 135020 | 149940
9 | 33:19:16 | 04:29:00 | 149941 | 170115
10 | 37:48:16 | 03:56:15 | 170116 | 187830
11 | 41:44:31 | 03:46:53 | 187831 | 204833
12 | 45:31:09 | 05:32:04 | 204834 | 229737
13 | 51:03:13 | 04:27:57 | 229738 | 249819
14 | 55:30:70 | 04:25:00 | 249820 | 269694
15 | 59:55:70 | 04:00:59 | 269695 | 287753
16 | 63:56:54 | 04:30:74 | 287754 | 308077
17 | 68:27:53 | 04:36:43 | 308078 | 328820

AccurateRip Summary (DiscID: 002cba63-02369cb8-ed112011)
Track 01 : OK (v2, confidence 3/3)
Track 02 : OK (v2, confidence 3/3)
Track 03 : OK (v2, confidence 3/3)
Track 04 : OK (v2, confidence 3/3)
Track 05 : OK (v2, confidence 3/3)
Track 06 : OK (v2, confidence 3/3)
Track 07 : OK (v2, confidence 3/3)
Track 08 : OK (v2, confidence 3/3)
Track 09 : OK (v2, confidence 3/3)
Track 10 : OK (v2, confidence 3/3)
Track 11 : OK (v2, confidence 3/3)
Track 12 : OK (v2, confidence 3/3)
Track 13 : OK (v2, confidence 3/3)
Track 14 : OK (v2, confidence 3/3)
Track 15 : OK (v2, confidence 3/3)
Track 16 : OK (v2, confidence 3/3)
Track 17 : OK (v2, confidence 3/3)
->All tracks accurately ripped.

All Tracks
Album gain : -4.79 dB
Peak : 0.999908
Statistics
Read error : 0
Jitter error (maybe fixed) : 0
Retry sector count : 0
Damaged sector count : 0

Track 01
Filename : /Volumes/Elements 4TB/Torrents 2018/Big Country - Wonderland: The Essential Big Country (2017) [FLAC]/03-01 King of Emotion.flac
Pre-gap length : 00:02:00

Track gain : -3.01 dB
Peak : 0.999908
CRC32 hash (test run) : 5DAADCD5
CRC32 hash : 5DAADCD5
CRC32 hash (skip zero) : A6D772B8
AccurateRip v1 signature : EBD6530C
AccurateRip v2 signature : 7B9A6E68
->Accurately ripped (v2, confidence 3/3)
Statistics
Read error : 0
Jitter error (maybe fixed) : 0
Retry sector count : 0
Damaged sector count : 0

Track 02
Filename : /Volumes/Elements 4TB/Torrents 2018/Big Country - Wonderland: The Essential Big Country (2017) [FLAC]/03-02 The Travellers.flac

Track gain : 0.52 dB
Peak : 0.999908
CRC32 hash (test run) : 584D9504
CRC32 hash : 584D9504
CRC32 hash (skip zero) : 5542CD00
AccurateRip v1 signature : FFCD9612
AccurateRip v2 signature : F2FC0A48
->Accurately ripped (v2, confidence 3/3)
Statistics
Read error : 0
Jitter error (maybe fixed) : 0
Retry sector count : 0
Damaged sector count : 0

Track 03
Filename : /Volumes/Elements 4TB/Torrents 2018/Big Country - Wonderland: The Essential Big Country (2017) [FLAC]/03-03 Starred & Crossed.flac

Track gain : -2.50 dB
Peak : 0.999908
CRC32 hash (test run) : 0FC15EB8
CRC32 hash : 0FC15EB8
CRC32 hash (skip zero) : 4C050C20
AccurateRip v1 signature : B989C132
AccurateRip v2 signature : 051B9E5C
->Accurately ripped (v2, confidence 3/3)
Statistics
Read error : 0
Jitter error (maybe fixed) : 0
Retry sector count : 0
Damaged sector count : 0

Track 04
Filename : /Volumes/Elements 4TB/Torrents 2018/Big Country - Wonderland: The Essential Big Country (2017) [FLAC]/03-04 Broken Heart (Thirteen Valleys).flac

Track gain : -2.13 dB
Peak : 0.999908
CRC32 hash (test run) : DB17F732
CRC32 hash : DB17F732
CRC32 hash (skip zero) : D6700CD2
AccurateRip v1 signature : 9505C30E
AccurateRip v2 signature : AA004AA6
->Accurately ripped (v2, confidence 3/3)
Statistics
Read error : 0
Jitter error (maybe fixed) : 0
Retry sector count : 0
Damaged sector count : 0

Track 05
Filename : /Volumes/Elements 4TB/Torrents 2018/Big Country - Wonderland: The Essential Big Country (2017) [FLAC]/03-05 Soapy Soutar Strikes Back (instrumental).flac

Track gain : -3.79 dB
Peak : 0.999908
CRC32 hash (test run) : BFB9A237
CRC32 hash : BFB9A237
CRC32 hash (skip zero) : 38697CBC
AccurateRip v1 signature : 78EC7113
AccurateRip v2 signature : 0C4ED260
->Accurately ripped (v2, confidence 3/3)
Statistics
Read error : 0
Jitter error (maybe fixed) : 0
Retry sector count : 0
Damaged sector count : 0

Track 06
Filename : /Volumes/Elements 4TB/Torrents 2018/Big Country - Wonderland: The Essential Big Country (2017) [FLAC]/03-06 River of Hope.flac

Track gain : -2.05 dB
Peak : 0.999878
CRC32 hash (test run) : 017A50AB
CRC32 hash : 017A50AB
CRC32 hash (skip zero) : 662408D8
AccurateRip v1 signature : D59668E5
AccurateRip v2 signature : A8DC9ED5
->Accurately ripped (v2, confidence 3/3)
Statistics
Read error : 0
Jitter error (maybe fixed) : 0
Retry sector count : 0
Damaged sector count : 0

Track 07
Filename : /Volumes/Elements 4TB/Torrents 2018/Big Country - Wonderland: The Essential Big Country (2017) [FLAC]/03-07 Heart of the World.flac

Track gain : -4.51 dB
Peak : 0.999908
CRC32 hash (test run) : 0781C64B
CRC32 hash : 0781C64B
CRC32 hash (skip zero) : 20099960
AccurateRip v1 signature : 9DD873C3
AccurateRip v2 signature : 0A60A0F4
->Accurately ripped (v2, confidence 3/3)
Statistics
Read error : 0
Jitter error (maybe fixed) : 0
Retry sector count : 0
Damaged sector count : 0

Track 08
Filename : /Volumes/Elements 4TB/Torrents 2018/Big Country - Wonderland: The Essential Big Country (2017) [FLAC]/03-08 Black Skinned Blue Eyed Boys.flac

Track gain : -4.36 dB
Peak : 0.999908
CRC32 hash (test run) : 55B709F0
CRC32 hash : 55B709F0
CRC32 hash (skip zero) : A0461D38
AccurateRip v1 signature : 76234A05
AccurateRip v2 signature : ED7B5535
->Accurately ripped (v2, confidence 3/3)
Statistics
Read error : 0
Jitter error (maybe fixed) : 0
Retry sector count : 0
Damaged sector count : 0

Track 09
Filename : /Volumes/Elements 4TB/Torrents 2018/Big Country - Wonderland: The Essential Big Country (2017) [FLAC]/03-09 Save Me.flac

Track gain : -5.36 dB
Peak : 0.999908
CRC32 hash (test run) : C199FE33
CRC32 hash : C199FE33
CRC32 hash (skip zero) : 5CC91740
AccurateRip v1 signature : 5B470E84
AccurateRip v2 signature : 7FFE783C
->Accurately ripped (v2, confidence 3/3)
Statistics
Read error : 0
Jitter error (maybe fixed) : 0
Retry sector count : 0
Damaged sector count : 0

Track 10
Filename : /Volumes/Elements 4TB/Torrents 2018/Big Country - Wonderland: The Essential Big Country (2017) [FLAC]/03-10 Pass Me By.flac

Track gain : -4.93 dB
Peak : 0.999908
CRC32 hash (test run) : D22B2C4F
CRC32 hash : D22B2C4F
CRC32 hash (skip zero) : 19F24AC0
AccurateRip v1 signature : FC760DDA
AccurateRip v2 signature : 2DE2CCCE
->Accurately ripped (v2, confidence 3/3)
Statistics
Read error : 0
Jitter error (maybe fixed) : 0
Retry sector count : 0
Damaged sector count : 0

Track 11
Filename : /Volumes/Elements 4TB/Torrents 2018/Big Country - Wonderland: The Essential Big Country (2017) [FLAC]/03-11 World on Fire.flac

Track gain : -4.98 dB
Peak : 0.999908
CRC32 hash (test run) : 5A833AA1
CRC32 hash : 5A833AA1
CRC32 hash (skip zero) : C137ED5A
AccurateRip v1 signature : 0C89989D
AccurateRip v2 signature : 7743AEC0
->Accurately ripped (v2, confidence 3/3)
Statistics
Read error : 0
Jitter error (maybe fixed) : 0
Retry sector count : 0
Damaged sector count : 0

Track 12
Filename : /Volumes/Elements 4TB/Torrents 2018/Big Country - Wonderland: The Essential Big Country (2017) [FLAC]/03-12 Beautiful People.flac

Track gain : -4.60 dB
Peak : 0.999878
CRC32 hash (test run) : 8ACF21DF
CRC32 hash : 8ACF21DF
CRC32 hash (skip zero) : 75A3A50C
AccurateRip v1 signature : 9C2B44D8
AccurateRip v2 signature : 4B25A878
->Accurately ripped (v2, confidence 3/3)
Statistics
Read error : 0
Jitter error (maybe fixed) : 0
Retry sector count : 0
Damaged sector count : 0

Track 13
Filename : /Volumes/Elements 4TB/Torrents 2018/Big Country - Wonderland: The Essential Big Country (2017) [FLAC]/03-13 Return of the Two Headed King.flac

Track gain : -3.46 dB
Peak : 0.999908
CRC32 hash (test run) : ABE647CE
CRC32 hash : ABE647CE
CRC32 hash (skip zero) : 5007765E
AccurateRip v1 signature : C660892E
AccurateRip v2 signature : B45CB054
->Accurately ripped (v2, confidence 3/3)
Statistics
Read error : 0
Jitter error (maybe fixed) : 0
Retry sector count : 0
Damaged sector count : 0

Track 14
Filename : /Volumes/Elements 4TB/Torrents 2018/Big Country - Wonderland: The Essential Big Country (2017) [FLAC]/03-14 Fly Like an Eagle.flac

Track gain : -4.13 dB
Peak : 0.999878
CRC32 hash (test run) : 34BE89A6
CRC32 hash : 34BE89A6
CRC32 hash (skip zero) : FECB7ED4
AccurateRip v1 signature : 061A82F2
AccurateRip v2 signature : E9F985F0
->Accurately ripped (v2, confidence 3/3)
Statistics
Read error : 0
Jitter error (maybe fixed) : 0
Retry sector count : 0
Damaged sector count : 0

Track 15
Filename : /Volumes/Elements 4TB/Torrents 2018/Big Country - Wonderland: The Essential Big Country (2017) [FLAC]/03-15 Republican Party Reptile.flac

Track gain : -5.95 dB
Peak : 0.999908
CRC32 hash (test run) : 552DC815
CRC32 hash : 552DC815
CRC32 hash (skip zero) : 10DACFBA
AccurateRip v1 signature : F99B9777
AccurateRip v2 signature : 18461AC1
->Accurately ripped (v2, confidence 3/3)
Statistics
Read error : 0
Jitter error (maybe fixed) : 0
Retry sector count : 0
Damaged sector count : 0

Track 16
Filename : /Volumes/Elements 4TB/Torrents 2018/Big Country - Wonderland: The Essential Big Country (2017) [FLAC]/03-16 Freedom Song.flac

Track gain : -4.24 dB
Peak : 0.999878
CRC32 hash (test run) : 266D432E
CRC32 hash : 266D432E
CRC32 hash (skip zero) : 83DCC76E
AccurateRip v1 signature : 51A084A6
AccurateRip v2 signature : CAFA4A3E
->Accurately ripped (v2, confidence 3/3)
Statistics
Read error : 0
Jitter error (maybe fixed) : 0
Retry sector count : 0
Damaged sector count : 0

Track 17
Filename : /Volumes/Elements 4TB/Torrents 2018/Big Country - Wonderland: The Essential Big Country (2017) [FLAC]/03-17 I’m Only Waiting.flac

Track gain : -6.41 dB
Peak : 0.999908
CRC32 hash (test run) : 6ED00065
CRC32 hash : 6ED00065
CRC32 hash (skip zero) : 70980B67
AccurateRip v1 signature : 4E7EE684
AccurateRip v2 signature : 40ACD8FB
->Accurately ripped (v2, confidence 3/3)
Statistics
Read error : 0
Jitter error (maybe fixed) : 0
Retry sector count : 0
Damaged sector count : 0

No errors occurred

End of status report

––-BEGIN XLD SIGNATURE––-
37JcOBzxbtWAHAPzUwc1.rdpw.ntgSzivz_g_dyALXA1bFWdNlkfMIBHDUWzsV2nlyvmlufVgTk2nihq6ppJLOliKu72vB7gqo8AUDu
––-END XLD SIGNATURE––-

Thanks to the Original ripper !