Tags
Language
Tags
January 2023
Su Mo Tu We Th Fr Sa
1 2 3 4 5 6 7
8 9 10 11 12 13 14
15 16 17 18 19 20 21
22 23 24 25 26 27 28
29 30 31 1 2 3 4

Bill Nelson - The Practice Of Everyday Life: Celebrating 40 Years Of Recordings (2011) {8CD BoxSet Esoteric COCDBOX 1002}

Posted By: ruskaval
Bill Nelson - The Practice Of Everyday Life: Celebrating 40 Years Of Recordings (2011) {8CD BoxSet Esoteric COCDBOX 1002}

Bill Nelson - The Practice Of Everyday Life: Celebrating 40 Years Of Recordings (2011) {8CD BoxSet Esoteric COCDBOX 1002}
EAC rip (secure mode) | FLAC (tracks)+CUE+LOG -> 3.51 Gb | MP3 @320 -> 1.34 Gb
Full Artwork @ 600 dpi (png) -> 2.21 Gb | 5% repair rar
© 2011 Esoteric / Cocteau Discs / Cherry Red | COCDBOX 1002
Rock / Avant-Garde / Electronic / Glam Rock / Ambient / Electro Jazz / Guitar

Lavish eight CD box set from the acclaimed guitarist, producer, singer and songwriter, released to coincide with the 40th anniversary of the beginning of Nelson's recording career. This is the most extensive and detailed anthology of Bill's astoundingly creative career to date. Over the past four decades Bill has consistently proved himself to be one of Britain's most original and creative musicians, exploring an astonishing diversity of musical styles, consistently pushing musical boundaries and earning the admiration of legions of fans throughout the world and enlightened critics alike. As a guitarist, Bill ranks as a great and uniquely gifted figure, but this eclectic selection of tracks also highlights his work as a singer/songwriter and instrumental composer. The set begins with his earliest recordings and includes previously unreleased material by Be Bop Deluxe, along with examples from Bill's extensive solo catalogue, exploring a wide range of styles. Esoteric.
Bill Nelson - The Practice Of Everyday Life: Celebrating 40 Years Of Recordings (2011) {8CD BoxSet Esoteric COCDBOX 1002}

* An Extensive 8cd Deluxe Boxed Set Career Anthology - Celebrating 40 Years Of Bill Nelson's Recording Career From 1971 - 2011
* Featuring Solo Recordings, Be Bop Deluxe & Bill Nelson's Red Noise Including 11 Unreleased Tracks
* 68 Page Lavishly Illustrated Book With Notes By Bill Nelson & Previously Unseen Photos & Memorabilia

Bill Nelson - The Practice Of Everyday Life: Celebrating 40 Years Of Recordings (2011) {8CD BoxSet Esoteric COCDBOX 1002}


The year 2011 marks the 40th anniversary of BILL NELSON's recording career and to celebrate this Esoteric Recordings announce a new release on their recently launched Cocteau Discs imprint, the lavish boxed set "THE PRACTICE OF EVERYDAY LIFE - Celebrating Forty Years of Recordings." This is the most extensive and detailed anthology of Bill's astoundingly creative career to date. Over the past four decades Bill has consistently proved himself to be one of Britain's most original and creative musicians, exploring an astonishing diversity of musical styles, consistently pushing musical boundaries and earning the admiration of legions of fans throughout the world and enlightened critics alike. As a guitarist, Bill ranks as a great and uniquely gifted figure, but this eclectic selection of tracks also highlights his work as a singer/songwriter and instrumental composer.

The 1971 album "Northern Dream" was the first release of his illustrious career. Although recorded on rudimentary equipment at a small Wakefield recording studio, the record was a fine early example of an independently produced album. "Northern Dream" was championed by the legendary DJ John Peel and paved the way for Bill's future career, beginning with his legendary band Be Bop Deluxe, (a group who recorded five successful studio albums plus a live album for EMI's Harvest label), and the equally innovative Red Noise. His acclaimed solo career continued with the release of the album "Quit Dreaming and Get on the Beam", and a succession of diverse releases for both major labels and his own independent company, Cocteau Records (a venture which saw Bill become a pioneer of the "do-it-yourself" approach to recording and releasing music).

Track listed by Bill himself, this deluxe anthology gathers together more than 150 tracks over Eight CDs. The set begins with his earliest recordings and includes previously unreleased material by Be Bop Deluxe, along with examples from Bill's extensive solo catalogue, exploring a wide range of styles. The anthology also includes a selection of material from his more recent albums, self-released by Bill on his Sonoluxe label. The set is rounded off by the inclusion of a bonus CD featuring two previously unreleased BBC Radio One sessions from 1981 and 1983 respectively.
Bill Nelson - The Practice Of Everyday Life: Celebrating 40 Years Of Recordings (2011) {8CD BoxSet Esoteric COCDBOX 1002}

How does one annotate a four-decade-plus career as prolific – and sometimes as obscure – as guitarist, songwriter, composer, and pop conceptualist Bill Nelson's? With an enormous box set, of course. The founder of Be Bop Deluxe has released 51 solo albums under different monikers. His entire career to date has been documented by Cherry Red's Esoteric Records via Nelson's own label Cocteau, in a lavishly designed, eight-CD box set, curated by Nelson and Esoteric label boss Mark Powell. It also includes an exhaustively annotated booklet filled not only with a liner essay, but loads of rare photos and reflections from Nelson.

Bill Nelson - The Practice Of Everyday Life: Celebrating 40 Years Of Recordings (2011) {8CD BoxSet Esoteric COCDBOX 1002}


The first two discs in the set document selections from his very first album, Northern Dream, with Nelson as a singer/songwriter. It was recorded in 1970 and released in 1971. It's followed with tracks from every Be Bop Deluxe recording, and contains rare B-sides and extraneous material. Disc two ends with his first recordings after the breakup of Be Bop in 1978, when he emerged as Bill Nelson's Red Noise in 1979; the latter's only recordings were the album Sound on Sound and the EP Revolt Into Style. The final track on disc two is the A-side single, "Do You Dream I Colour," under Nelson's own name in 1980. Then begins a wondrously illuminating, four-disc trawl through Nelson's labyrinthine solo career. These discs are made up equally of '80s home studio tapes of his commissions for theater and cinema, ambient works and songs, and his more formally produced recordings, such as his two albums as Orchestra Arcana. They move into the '90s with his formal return to songwriting and recording with an ambition and execution that puts David Bowie to shame. There are cuts from the stellar Blue Moons and Laughing Guitars, Jukebox for Jet Boy, Practically Wired…Or How I Became Guitar Boy, After the Satellite Sings, and Atom Shop, to mention a few.

Bill Nelson - The Practice Of Everyday Life: Celebrating 40 Years Of Recordings (2011) {8CD BoxSet Esoteric COCDBOX 1002}


There are numerous sides from 12" EPs and 7" singles provided as well. Disc seven is devoted to Nelson's material from the first decade of the new century, of which there were 15 albums! This disc offers tracks that display Nelson's requisite sense of humor (three album titles: Stargazing with Ranger Bill, Alchemical Adventures with Sailor Bill, Golden Memories of Tomorrow), as well as his vast experimentation with a wide array of styles, from shimmering acoustic guitar workouts to electro-jazz constructs to majestic ambient works to intimate classical tone poems, all infused with 21st century futurism. The final disc in the package compiles tracks from John Peel's and David "Kid" Jensen's shows at the BBC's Radio One in the '80s. In sum, while it's an intimidating amount of material, it is more than worth going through. Despite Nelson's relative obscurity in North America, he is followed and celebrated across the rest of the globe. Aside from his well-deserved reputation as a gifted guitarist, Nelson is one of Britain's most original and creative artists. His astonishing diversity and mastery of so many musical styles is singular in contemporary music.
Bill Nelson - The Practice Of Everyday Life: Celebrating 40 Years Of Recordings (2011) {8CD BoxSet Esoteric COCDBOX 1002}


tracklist:
CD 1

01. Photograph (A Beginning)
02. Northern Dreamer
03. See It Through
04. Love's a Way
05. Teenage Archangel - Be Bop Deluxe
06. Jets at Dawn - Be Bop Deluxe
07. Axe Victim - Be Bop Deluxe
08. Adventures in a Yorkshire Landscape - Be Bop Deluxe
09. Darkness L'Immoraliste - Be Bop Deluxe
10. Night Creatures - Be Bop Deluxe
11. Music in Dreamland - Be Bop Deluxe
12. Maid in Heaven - Be Bop Deluxe
13. Jean Cocteau - Be Bop Deluxe
14. Sister Seagull - Be Bop Deluxe
15. Between the Worlds - Be Bop Deluxe
16. Swan Song - Be Bop Deluxe
17. Crystal Gazing - Be Bop Deluxe
18. Heavenly Homes - Be Bop Deluxe
19. Ships in the Night - Be Bop Deluxe
20. Crying to the Sky (Alternate Guitar Solo/Alternate Take) - Be Bop Deluxe
21. Sleep That Burns - Be Bop Deluxe

CD 2
01. Modern Music
02. Dancing in the Moonlight (All Alone)
03. Honeymoon on Mars
04. Lost in the Neon World
05. Dance of the Uncle Sam Humanoids
06. Modern Music (Reprise)
07. Kiss of Light - Be Bop Deluxe
08. Forbidden Lovers - Be Bop Deluxe
09. Down on Terminal Street - Be Bop Deluxe
10. Life in the Air Age (Live) - Be Bop Deluxe
11. Piece of Mine (Live) - Be Bop Deluxe
12. Blimps - Be Bop Deluxe
13. Futurist Manifesto - Be Bop Deluxe
14. Lovers Are Mortal - Be Bop Deluxe
15. Surreal Estate - Be Bop Deluxe
16. Visions of Endless Hope - Be Bop Deluxe
17. Panic in the World (Juan Les Pins Mix/Remix) - Be Bop Deluxe
18. Don't Touch Me (I'm Electric)
19. Revolt Into Style
20. Furniture Music
21. Stay Young
22. Out of Touch
23. Do You Dream in Colour?

CD 3
01. Banal
02. Life Runs Out Like Sand
03. Living in My Limousine
04. Mr. Magnetism Himself
05. Sleep
06. Opium
07. Near East
08. The Funeral
09. The Sonambulist and the Children
10. The Dream Dance of Jane and the Somnambulist
11. Beauty and the Beast
12. The Enchanted Glove
13. Eros Arriving
14. Hope for the Heartbeat
15. A Private View
16. The October Man
17. The Passion
18. Echo in Her Eyes (The Lamps of Oblivion)
19. Glow World
20. The Real Adventure
21. Acceleration (Short Version)
22. Happily Addicted to You
23. The Last Summer for Dancing
24. Les Amoureux
25. Another Kiss for Your Slender Neck

CD 4
01. The Eternal Female
02. Sleeplessness
03. The Golden Bough
04. Tomorrowland (The Threshold of 1947)
05. Sacrament
06. Over Ocean
07. Perfido Incanto
08. City One
09. Blue Sky
10. To the Sea in Ships
11. Suvasini
12. Contemplation
13. Wildest Dreams
14. The Hidden Flame
15. Illusions of You
16. Search and Listen
17. Right Then Left
18. Iconography
19. Clock Conscious
20. At the Gates of the Singing Garden
21. Water of Life (Transfiguration)
22. Spinning Creatures
23. The Angel at the Western Window
24. Day of Eternity
25. Night Tides
26. Finis Floria Mundi

CD 5
01. Calling Heaven, Calling Heaven
02. Deva Dance
03. Um, Ah Good Evening
04. Short Wave
05. Aqua Magica
06. Heros de Lumiere
07. Kiss Goodbye
08. Dreams of Yesterday
09. Playing Jesus to Her Judas
10. Still Waiting
11. Feels Like Up to Me
12. Only Love Can Tell
13. Broken
14. Heartbreak Thru the Telephone
15. Love's Immortal Shining Angel
16. Man on Fire
17. Aeroplane Wings
18. Stay with Me
19. A Luminous Kind of Guy
20. Is This Alchemy
21. Wait for Tomorrow
22. God Man Slain
23. Boat to Forever
24. The Invisible Man and the Unforgettable Girl
25. Dream Ships Set Sail
26. Crimsworth Part One

CD 6
01. Big Noise in Twang Town
02. Pink Buddah Blues
03. Her Presence in Flowers
04. Big River
05. The Big Illumination
06. Buddah Head
07. Begin to Burn
08. Heaven's Happy Hemisphere
09. It's All True
10. Year 44 (The Birthday Song)
11. Dreamnoise and Angel
12. No Fool for You
13. On a Train I Never Boarded
14. Hold On to Your Heart
15. Deeply Dazzled
16. Memory Babe
17. Zoom Sequence
18. Quarter Moons and Stars
19. Candyland
20. Sun at Six Windows
21. Queer Weather
22. The Girl I Never Forgot

CD 7
01. Pointing at the Moon
02. Dreamland Avenue
03. Humming in the Void/Girl with the Thousand Watt Smile
04. Big Yellow Moon
05. Planet of Guitars
06. Wonderful Weather in Woodgates Lane
07. The Ceremonial Arrival of the Great Golden Cloud
08. Moments Catch Fire on the Crests of Waves
09. Cascade (Improvisation for Three Harp Guitars)
10. Superserene
11. Young Dreams Whirled Away
12. Fearless Beauty (Kisses and Cream)
13. The Golden Days of Radio (Compact Mix/Remix)
14. The Trace We Left When All Was Gone
15. Once I Had a Time Machine
16. Music Spins My Globe
17. Moon Gold Palladium

CD 8
01. Rooms with Brittle Views (John Peel Show, BBC Radio One, 1981)
02. Stay Young (John Peel Show, BBC Radio One, 1981)
03. Sleep Cycle (John Peel Show, BBC Radio One, 1981)
04. Jazz (John Peel Show, BBC Radio One, 1981)
05. Dancing on a Knife's Edge (David "Kid" Jensen Show, BBC Radio One, 1983)
06. Time Tracking (David "Kid" Jensen Show, BBC Radio One, 1983)
07. Contemplation (David "Kid" Jensen Show, BBC Radio One, 1983)
08. Indiscretion (David "Kid" Jensen Show, BBC Radio One, 1983)

Exact Audio Copy V1.0 beta 3 from 29. August 2011

EAC extraction logfile from 27. July 2013, 16:58

Bill Nelson / The Practice Of Everyday Life. Celebrating 40 Years Of Recordings (CD1)

Used drive : ATAPI iHAS124 B Adapter: 4 ID: 0

Read mode : Secure
Utilize accurate stream : Yes
Defeat audio cache : Yes
Make use of C2 pointers : No

Read offset correction : 6
Overread into Lead-In and Lead-Out : No
Fill up missing offset samples with silence : Yes
Delete leading and trailing silent blocks : No
Null samples used in CRC calculations : Yes
Used interface : Native Win32 interface for Win NT & 2000
Gap handling : Appended to previous track

Used output format : User Defined Encoder
Selected bitrate : 1024 kBit/s
Quality : High
Add ID3 tag : No
Command line compressor : C:\Program Files (x86)\FLAC\flac.exe
Additional command line options : -8 -V -T "ARTIST=%artist%" -T "TITLE=%title%" -T "ALBUM=%albumtitle%" -T "DATE=%year%" -T "TRACKNUMBER=%tracknr%" -T "TOTALTRACKS=%numtracks%" -T "GENRE=%genre%" -T "ALBUMARTIST=%albumartist%" -T "ALBUM ARTIST=%albumartist%" -T "COMMENT=EAC Secure Mode, Test & Copy, AccurateRip, FLAC -8" %source%


TOC of the extracted CD

Track | Start | Length | Start sector | End sector
––––––––––––––––––––––––––––-
1 | 0:00.00 | 0:18.02 | 0 | 1351
2 | 0:18.02 | 2:42.70 | 1352 | 13571
3 | 3:00.72 | 3:15.05 | 13572 | 28201
4 | 6:16.02 | 3:34.66 | 28202 | 44317
5 | 9:50.68 | 3:31.56 | 44318 | 60198
6 | 13:22.49 | 6:52.01 | 60199 | 91099
7 | 20:14.50 | 5:04.23 | 91100 | 113922
8 | 25:18.73 | 3:26.22 | 113923 | 129394
9 | 28:45.20 | 3:22.03 | 129395 | 144547
10 | 32:07.23 | 3:35.00 | 144548 | 160672
11 | 35:42.23 | 4:46.42 | 160673 | 182164
12 | 40:28.65 | 2:28.05 | 182165 | 193269
13 | 42:56.70 | 2:51.65 | 193270 | 206159
14 | 45:48.60 | 3:38.10 | 206160 | 222519
15 | 49:26.70 | 3:18.10 | 222520 | 237379
16 | 52:45.05 | 6:02.53 | 237380 | 264582
17 | 58:47.58 | 3:26.41 | 264583 | 280073
18 | 62:14.24 | 3:36.50 | 280074 | 296323
19 | 65:50.74 | 4:08.19 | 296324 | 314942
20 | 69:59.18 | 3:50.48 | 314943 | 332240
21 | 73:49.66 | 5:17.46 | 332241 | 356061


Track 1

Filename G:\Bill Nelson - The Practice Of Everyday Life. Celebrating 40 Years Of Recordings (2011) [8CD BoxSet] {Esoteric}\CD1\01 - Photograph (A Beginning).wav

Pre-gap length 0:00:02.00

Peak level 97.4 %
Extraction speed 1.3 X
Track quality 100.0 %
Test CRC 35C809FF
Copy CRC 35C809FF
Accurately ripped (confidence 4) [3051FB54] (AR v2)
Copy OK

Track 2

Filename G:\Bill Nelson - The Practice Of Everyday Life. Celebrating 40 Years Of Recordings (2011) [8CD BoxSet] {Esoteric}\CD1\02 - Northern Dreamer.wav

Peak level 97.7 %
Extraction speed 3.6 X
Track quality 100.0 %
Test CRC 734DE5AE
Copy CRC 734DE5AE
Accurately ripped (confidence 4) [93737911] (AR v2)
Copy OK

Track 3

Filename G:\Bill Nelson - The Practice Of Everyday Life. Celebrating 40 Years Of Recordings (2011) [8CD BoxSet] {Esoteric}\CD1\03 - See It Through.wav

Pre-gap length 0:00:01.43

Peak level 99.4 %
Extraction speed 4.0 X
Track quality 100.0 %
Test CRC 5996F97F
Copy CRC 5996F97F
Accurately ripped (confidence 4) [6A79A59C] (AR v2)
Copy OK

Track 4

Filename G:\Bill Nelson - The Practice Of Everyday Life. Celebrating 40 Years Of Recordings (2011) [8CD BoxSet] {Esoteric}\CD1\04 - Love's A Way.wav

Pre-gap length 0:00:01.56

Peak level 99.4 %
Extraction speed 4.3 X
Track quality 100.0 %
Test CRC 22DA3C2A
Copy CRC 22DA3C2A
Accurately ripped (confidence 4) [24DB23B6] (AR v2)
Copy OK

Track 5

Filename G:\Bill Nelson - The Practice Of Everyday Life. Celebrating 40 Years Of Recordings (2011) [8CD BoxSet] {Esoteric}\CD1\05 - Teenage Archangel.wav

Pre-gap length 0:00:01.47

Peak level 99.4 %
Extraction speed 4.6 X
Track quality 100.0 %
Test CRC D8265BD9
Copy CRC D8265BD9
Accurately ripped (confidence 4) [AFC47FD6] (AR v2)
Copy OK

Track 6

Filename G:\Bill Nelson - The Practice Of Everyday Life. Celebrating 40 Years Of Recordings (2011) [8CD BoxSet] {Esoteric}\CD1\06 - Jets At Dawn (A & B sides of single).wav

Pre-gap length 0:00:01.31

Peak level 99.4 %
Extraction speed 4.7 X
Track quality 99.9 %
Test CRC 86982B7F
Copy CRC 86982B7F
Accurately ripped (confidence 4) [13CB0FE2] (AR v2)
Copy OK

Track 7

Filename G:\Bill Nelson - The Practice Of Everyday Life. Celebrating 40 Years Of Recordings (2011) [8CD BoxSet] {Esoteric}\CD1\07 - Axe Victim (recorded at Decca studios).wav

Pre-gap length 0:00:01.49

Peak level 96.6 %
Extraction speed 5.6 X
Track quality 100.0 %
Test CRC 4299D2FE
Copy CRC 4299D2FE
Accurately ripped (confidence 4) [239ECA0A] (AR v2)
Copy OK

Track 8

Filename G:\Bill Nelson - The Practice Of Everyday Life. Celebrating 40 Years Of Recordings (2011) [8CD BoxSet] {Esoteric}\CD1\08 - Adventures In A Yorkshire Landscape.wav

Pre-gap length 0:00:01.58

Peak level 99.4 %
Extraction speed 5.5 X
Track quality 100.0 %
Test CRC 645AEDD6
Copy CRC 645AEDD6
Accurately ripped (confidence 4) [B17E46FD] (AR v2)
Copy OK

Track 9

Filename G:\Bill Nelson - The Practice Of Everyday Life. Celebrating 40 Years Of Recordings (2011) [8CD BoxSet] {Esoteric}\CD1\09 - Darkness L'Immoraliste.wav

Pre-gap length 0:00:01.38

Peak level 99.4 %
Extraction speed 5.7 X
Track quality 100.0 %
Test CRC 75F3EFD3
Copy CRC 75F3EFD3
Accurately ripped (confidence 4) [8B2451B5] (AR v2)
Copy OK

Track 10

Filename G:\Bill Nelson - The Practice Of Everyday Life. Celebrating 40 Years Of Recordings (2011) [8CD BoxSet] {Esoteric}\CD1\10 - Night Creatures.wav

Pre-gap length 0:00:01.32

Peak level 99.4 %
Extraction speed 5.9 X
Track quality 100.0 %
Test CRC 6684DEFA
Copy CRC 6684DEFA
Accurately ripped (confidence 4) [25D47A5F] (AR v2)
Copy OK

Track 11

Filename G:\Bill Nelson - The Practice Of Everyday Life. Celebrating 40 Years Of Recordings (2011) [8CD BoxSet] {Esoteric}\CD1\11 - Music In Dreamland.wav

Pre-gap length 0:00:01.52

Peak level 99.4 %
Extraction speed 6.4 X
Track quality 100.0 %
Test CRC 226149E9
Copy CRC 226149E9
Accurately ripped (confidence 4) [E78FFC0B] (AR v2)
Copy OK

Track 12

Filename G:\Bill Nelson - The Practice Of Everyday Life. Celebrating 40 Years Of Recordings (2011) [8CD BoxSet] {Esoteric}\CD1\12 - Maid In Heaven.wav

Pre-gap length 0:00:01.58

Peak level 91.9 %
Extraction speed 4.3 X
Track quality 99.9 %
Test CRC C9F408EF
Copy CRC C9F408EF
Accurately ripped (confidence 4) [A2C94FBC] (AR v2)
Copy OK

Track 13

Filename G:\Bill Nelson - The Practice Of Everyday Life. Celebrating 40 Years Of Recordings (2011) [8CD BoxSet] {Esoteric}\CD1\13 - Jean Cocteau.wav

Pre-gap length 0:00:01.68

Peak level 99.4 %
Extraction speed 6.3 X
Track quality 100.0 %
Test CRC F50856ED
Copy CRC F50856ED
Accurately ripped (confidence 4) [51364A02] (AR v2)
Copy OK

Track 14

Filename G:\Bill Nelson - The Practice Of Everyday Life. Celebrating 40 Years Of Recordings (2011) [8CD BoxSet] {Esoteric}\CD1\14 - Sister Seagull.wav

Pre-gap length 0:00:01.59

Peak level 99.4 %
Extraction speed 5.3 X
Track quality 99.9 %
Test CRC 7F0F82CF
Copy CRC 7F0F82CF
Accurately ripped (confidence 4) [869B3471] (AR v2)
Copy OK

Track 15

Filename G:\Bill Nelson - The Practice Of Everyday Life. Celebrating 40 Years Of Recordings (2011) [8CD BoxSet] {Esoteric}\CD1\15 - Between The Worlds.wav

Pre-gap length 0:00:01.61

Peak level 99.4 %
Extraction speed 6.7 X
Track quality 100.0 %
Test CRC 32D249EE
Copy CRC 32D249EE
Accurately ripped (confidence 4) [82359328] (AR v2)
Copy OK

Track 16

Filename G:\Bill Nelson - The Practice Of Everyday Life. Celebrating 40 Years Of Recordings (2011) [8CD BoxSet] {Esoteric}\CD1\16 - Swan Song.wav

Peak level 99.4 %
Extraction speed 7.5 X
Track quality 100.0 %
Test CRC 2ECA6E04
Copy CRC 2ECA6E04
Accurately ripped (confidence 4) [85654A23] (AR v2)
Copy OK

Track 17

Filename G:\Bill Nelson - The Practice Of Everyday Life. Celebrating 40 Years Of Recordings (2011) [8CD BoxSet] {Esoteric}\CD1\17 - Crystal Gazing.wav

Pre-gap length 0:00:01.43

Peak level 99.4 %
Extraction speed 7.2 X
Track quality 100.0 %
Test CRC C55FC0B0
Copy CRC C55FC0B0
Accurately ripped (confidence 4) [966B86C0] (AR v2)
Copy OK

Track 18

Filename G:\Bill Nelson - The Practice Of Everyday Life. Celebrating 40 Years Of Recordings (2011) [8CD BoxSet] {Esoteric}\CD1\18 - Heavenly Homes.wav

Pre-gap length 0:00:01.65

Peak level 99.4 %
Extraction speed 7.4 X
Track quality 100.0 %
Test CRC F4505CB9
Copy CRC F4505CB9
Accurately ripped (confidence 4) [13C5EDD0] (AR v2)
Copy OK

Track 19

Filename G:\Bill Nelson - The Practice Of Everyday Life. Celebrating 40 Years Of Recordings (2011) [8CD BoxSet] {Esoteric}\CD1\19 - Ships In The Night.wav

Peak level 99.4 %
Extraction speed 7.7 X
Track quality 100.0 %
Test CRC 697CF74F
Copy CRC 697CF74F
Accurately ripped (confidence 4) [E284A0D3] (AR v2)
Copy OK

Track 20

Filename G:\Bill Nelson - The Practice Of Everyday Life. Celebrating 40 Years Of Recordings (2011) [8CD BoxSet] {Esoteric}\CD1\20 - Crying To The Sky (alternate guitar solo).wav

Peak level 99.4 %
Extraction speed 7.8 X
Track quality 100.0 %
Test CRC BCEAECD9
Copy CRC BCEAECD9
Accurately ripped (confidence 4) [59D2ABA4] (AR v2)
Copy OK

Track 21

Filename G:\Bill Nelson - The Practice Of Everyday Life. Celebrating 40 Years Of Recordings (2011) [8CD BoxSet] {Esoteric}\CD1\21 - Sleep That Burns.wav

Peak level 99.4 %
Extraction speed 8.4 X
Track quality 100.0 %
Test CRC 4C7E6583
Copy CRC 4C7E6583
Accurately ripped (confidence 4) [D3D6DE58] (AR v2)
Copy OK


All tracks accurately ripped

No errors occurred

End of status report

==== Log checksum 2FACE9DD09758D675F2B13EBC48BD0FA4A95AE95F7E0E04C461BAF0023635FFA ====

Exact Audio Copy V1.0 beta 3 from 29. August 2011

EAC extraction logfile from 27. July 2013, 18:09

Bill Nelson / The Practice Of Everyday Life. Celebrating 40 Years Of Recordings (CD2)

Used drive : ATAPI iHAS124 B Adapter: 4 ID: 0

Read mode : Secure
Utilize accurate stream : Yes
Defeat audio cache : Yes
Make use of C2 pointers : No

Read offset correction : 6
Overread into Lead-In and Lead-Out : No
Fill up missing offset samples with silence : Yes
Delete leading and trailing silent blocks : No
Null samples used in CRC calculations : Yes
Used interface : Native Win32 interface for Win NT & 2000
Gap handling : Appended to previous track

Used output format : User Defined Encoder
Selected bitrate : 1024 kBit/s
Quality : High
Add ID3 tag : No
Command line compressor : C:\Program Files (x86)\FLAC\flac.exe
Additional command line options : -8 -V -T "ARTIST=%artist%" -T "TITLE=%title%" -T "ALBUM=%albumtitle%" -T "DATE=%year%" -T "TRACKNUMBER=%tracknr%" -T "TOTALTRACKS=%numtracks%" -T "GENRE=%genre%" -T "ALBUMARTIST=%albumartist%" -T "ALBUM ARTIST=%albumartist%" -T "COMMENT=EAC Secure Mode, Test & Copy, AccurateRip, FLAC -8" %source%


TOC of the extracted CD

Track | Start | Length | Start sector | End sector
––––––––––––––––––––––––––––-
1 | 0:00.00 | 3:42.12 | 0 | 16661
2 | 3:42.12 | 2:09.41 | 16662 | 26377
3 | 5:51.53 | 1:22.12 | 26378 | 32539
4 | 7:13.65 | 0:48.05 | 32540 | 36144
5 | 8:01.70 | 2:12.12 | 36145 | 46056
6 | 10:14.07 | 1:39.31 | 46057 | 53512
7 | 11:53.38 | 3:11.30 | 53513 | 67867
8 | 15:04.68 | 5:03.09 | 67868 | 90601
9 | 20:08.02 | 4:00.49 | 90602 | 108650
10 | 24:08.51 | 4:23.36 | 108651 | 128411
11 | 28:32.12 | 5:13.00 | 128412 | 151886
12 | 33:45.12 | 2:47.45 | 151887 | 164456
13 | 36:32.57 | 4:32.22 | 164457 | 184878
14 | 41:05.04 | 4:55.69 | 184879 | 207072
15 | 46:00.73 | 5:02.04 | 207073 | 229726
16 | 51:03.02 | 2:25.26 | 229727 | 240627
17 | 53:28.28 | 4:59.59 | 240628 | 263111
18 | 58:28.12 | 1:51.57 | 263112 | 271493
19 | 60:19.69 | 3:25.07 | 271494 | 286875
20 | 63:45.01 | 3:33.40 | 286876 | 302890
21 | 67:18.41 | 3:00.17 | 302891 | 316407
22 | 70:18.58 | 3:43.52 | 316408 | 333184
23 | 74:02.35 | 3:48.31 | 333185 | 350315


Track 1

Filename G:\Bill Nelson - The Practice Of Everyday Life. Celebrating 40 Years Of Recordings (2011) [8CD BoxSet] {Esoteric}\CD2\01 - Modern Music.wav

Pre-gap length 0:00:02.00

Peak level 99.4 %
Extraction speed 3.7 X
Track quality 100.0 %
Test CRC 8B572787
Copy CRC 8B572787
Accurately ripped (confidence 3) [95E6E508] (AR v2)
Copy OK

Track 2

Filename G:\Bill Nelson - The Practice Of Everyday Life. Celebrating 40 Years Of Recordings (2011) [8CD BoxSet] {Esoteric}\CD2\02 - Dancing In The Moonlight (All Alone).wav

Peak level 99.4 %
Extraction speed 3.6 X
Track quality 100.0 %
Test CRC A87E1042
Copy CRC A87E1042
Accurately ripped (confidence 3) [C678E6B2] (AR v2)
Copy OK

Track 3

Filename G:\Bill Nelson - The Practice Of Everyday Life. Celebrating 40 Years Of Recordings (2011) [8CD BoxSet] {Esoteric}\CD2\03 - Honeymoon On Mars.wav

Peak level 99.4 %
Extraction speed 3.3 X
Track quality 100.0 %
Test CRC 9AD156A6
Copy CRC 9AD156A6
Accurately ripped (confidence 3) [87305270] (AR v2)
Copy OK

Track 4

Filename G:\Bill Nelson - The Practice Of Everyday Life. Celebrating 40 Years Of Recordings (2011) [8CD BoxSet] {Esoteric}\CD2\04 - Lost In The Neon World.wav

Peak level 99.4 %
Extraction speed 2.7 X
Track quality 100.0 %
Test CRC CAEC59FC
Copy CRC CAEC59FC
Accurately ripped (confidence 3) [C3E7B5AC] (AR v2)
Copy OK

Track 5

Filename G:\Bill Nelson - The Practice Of Everyday Life. Celebrating 40 Years Of Recordings (2011) [8CD BoxSet] {Esoteric}\CD2\05 - Dance Of The Uncle Sam Humanoids.wav

Peak level 99.4 %
Extraction speed 2.8 X
Track quality 99.9 %
Test CRC 8EAC2804
Copy CRC 8EAC2804
Accurately ripped (confidence 3) [A1C3B44C] (AR v2)
Copy OK

Track 6

Filename G:\Bill Nelson - The Practice Of Everyday Life. Celebrating 40 Years Of Recordings (2011) [8CD BoxSet] {Esoteric}\CD2\06 - Modern Music (reprise).wav

Peak level 99.4 %
Extraction speed 3.9 X
Track quality 100.0 %
Test CRC F3CAD36B
Copy CRC F3CAD36B
Accurately ripped (confidence 3) [0AB3CEEA] (AR v2)
Copy OK

Track 7

Filename G:\Bill Nelson - The Practice Of Everyday Life. Celebrating 40 Years Of Recordings (2011) [8CD BoxSet] {Esoteric}\CD2\07 - Kiss Of Light.wav

Peak level 99.4 %
Extraction speed 4.6 X
Track quality 100.0 %
Test CRC 3CBBFCBE
Copy CRC 3CBBFCBE
Accurately ripped (confidence 3) [39C45056] (AR v2)
Copy OK

Track 8

Filename G:\Bill Nelson - The Practice Of Everyday Life. Celebrating 40 Years Of Recordings (2011) [8CD BoxSet] {Esoteric}\CD2\08 - Forbidden Lovers.wav

Peak level 99.4 %
Extraction speed 4.4 X
Track quality 99.9 %
Test CRC EF5CD0CC
Copy CRC EF5CD0CC
Accurately ripped (confidence 3) [F88BFFB3] (AR v2)
Copy OK

Track 9

Filename G:\Bill Nelson - The Practice Of Everyday Life. Celebrating 40 Years Of Recordings (2011) [8CD BoxSet] {Esoteric}\CD2\09 - Down On Terminal Street.wav

Peak level 99.4 %
Extraction speed 4.3 X
Track quality 99.9 %
Test CRC 8AB4800C
Copy CRC 8AB4800C
Accurately ripped (confidence 3) [0905147E] (AR v2)
Copy OK

Track 10

Filename G:\Bill Nelson - The Practice Of Everyday Life. Celebrating 40 Years Of Recordings (2011) [8CD BoxSet] {Esoteric}\CD2\10 - Life In The Air Age (live).wav

Pre-gap length 0:00:01.64

Peak level 99.4 %
Extraction speed 5.7 X
Track quality 100.0 %
Test CRC 344DF84D
Copy CRC 344DF84D
Accurately ripped (confidence 3) [7AF57A02] (AR v2)
Copy OK

Track 11

Filename G:\Bill Nelson - The Practice Of Everyday Life. Celebrating 40 Years Of Recordings (2011) [8CD BoxSet] {Esoteric}\CD2\11 - Piece Of Mine (live).wav

Pre-gap length 0:00:01.74

Peak level 99.4 %
Extraction speed 6.1 X
Track quality 100.0 %
Test CRC 9691B6BA
Copy CRC 9691B6BA
Accurately ripped (confidence 3) [D6402B6D] (AR v2)
Copy OK

Track 12

Filename G:\Bill Nelson - The Practice Of Everyday Life. Celebrating 40 Years Of Recordings (2011) [8CD BoxSet] {Esoteric}\CD2\12 - Blimps.wav

Pre-gap length 0:00:01.59

Peak level 99.4 %
Extraction speed 5.7 X
Track quality 100.0 %
Test CRC 1D807AAB
Copy CRC 1D807AAB
Accurately ripped (confidence 3) [37F27665] (AR v2)
Copy OK

Track 13

Filename G:\Bill Nelson - The Practice Of Everyday Life. Celebrating 40 Years Of Recordings (2011) [8CD BoxSet] {Esoteric}\CD2\13 - Futurist Manifesto (B-Side of single).wav

Pre-gap length 0:00:01.56

Peak level 99.4 %
Extraction speed 6.5 X
Track quality 100.0 %
Test CRC EA429A67
Copy CRC EA429A67
Accurately ripped (confidence 3) [B9681B24] (AR v2)
Copy OK

Track 14

Filename G:\Bill Nelson - The Practice Of Everyday Life. Celebrating 40 Years Of Recordings (2011) [8CD BoxSet] {Esoteric}\CD2\14 - Lovers Are Mortal.wav

Pre-gap length 0:00:01.46

Peak level 99.4 %
Extraction speed 6.8 X
Track quality 100.0 %
Test CRC 42BBDFAC
Copy CRC 42BBDFAC
Accurately ripped (confidence 3) [579E25D9] (AR v2)
Copy OK

Track 15

Filename G:\Bill Nelson - The Practice Of Everyday Life. Celebrating 40 Years Of Recordings (2011) [8CD BoxSet] {Esoteric}\CD2\15 - Surreal Estate.wav

Pre-gap length 0:00:01.57

Peak level 99.4 %
Extraction speed 7.0 X
Track quality 100.0 %
Test CRC AE21CE6B
Copy CRC AE21CE6B
Accurately ripped (confidence 3) [562FB12C] (AR v2)
Copy OK

Track 16

Filename G:\Bill Nelson - The Practice Of Everyday Life. Celebrating 40 Years Of Recordings (2011) [8CD BoxSet] {Esoteric}\CD2\16 - Visions Of Endless Hope.wav

Pre-gap length 0:00:01.37

Peak level 74.9 %
Extraction speed 6.4 X
Track quality 100.0 %
Test CRC 6897A813
Copy CRC 6897A813
Accurately ripped (confidence 3) [3810C5B1] (AR v2)
Copy OK

Track 17

Filename G:\Bill Nelson - The Practice Of Everyday Life. Celebrating 40 Years Of Recordings (2011) [8CD BoxSet] {Esoteric}\CD2\17 - Panic In The World (Juan Les Pins mix).wav

Pre-gap length 0:00:01.53

Peak level 99.4 %
Extraction speed 6.0 X
Track quality 99.9 %
Test CRC EAA2E7F8
Copy CRC EAA2E7F8
Accurately ripped (confidence 3) [7DD976D1] (AR v2)
Copy OK

Track 18

Filename G:\Bill Nelson - The Practice Of Everyday Life. Celebrating 40 Years Of Recordings (2011) [8CD BoxSet] {Esoteric}\CD2\18 - Don't Touch Me (I'm Electric).wav

Pre-gap length 0:00:01.59

Peak level 58.2 %
Extraction speed 6.2 X
Track quality 100.0 %
Test CRC 415D19EF
Copy CRC 415D19EF
Accurately ripped (confidence 3) [CB4DCF6B] (AR v2)
Copy OK

Track 19

Filename G:\Bill Nelson - The Practice Of Everyday Life. Celebrating 40 Years Of Recordings (2011) [8CD BoxSet] {Esoteric}\CD2\19 - Revolt Into Style.wav

Pre-gap length 0:00:01.52

Peak level 63.6 %
Extraction speed 7.3 X
Track quality 100.0 %
Test CRC 896434FC
Copy CRC 896434FC
Accurately ripped (confidence 3) [212EDD18] (AR v2)
Copy OK

Track 20

Filename G:\Bill Nelson - The Practice Of Everyday Life. Celebrating 40 Years Of Recordings (2011) [8CD BoxSet] {Esoteric}\CD2\20 - Furniture Music.wav

Pre-gap length 0:00:01.47

Peak level 61.0 %
Extraction speed 7.3 X
Track quality 100.0 %
Test CRC B9E16455
Copy CRC B9E16455
Accurately ripped (confidence 3) [A81C5E9A] (AR v2)
Copy OK

Track 21

Filename G:\Bill Nelson - The Practice Of Everyday Life. Celebrating 40 Years Of Recordings (2011) [8CD BoxSet] {Esoteric}\CD2\21 - Stay Young (live).wav

Pre-gap length 0:00:01.69

Peak level 99.4 %
Extraction speed 5.5 X
Track quality 99.9 %
Test CRC 82A05B57
Copy CRC 82A05B57
Accurately ripped (confidence 3) [A2815A01] (AR v2)
Copy OK

Track 22

Filename G:\Bill Nelson - The Practice Of Everyday Life. Celebrating 40 Years Of Recordings (2011) [8CD BoxSet] {Esoteric}\CD2\22 - Out Of Touch (live).wav

Pre-gap length 0:00:01.53

Peak level 95.8 %
Extraction speed 7.7 X
Track quality 100.0 %
Test CRC BDACCB25
Copy CRC BDACCB25
Accurately ripped (confidence 3) [D7D09BA5] (AR v2)
Copy OK

Track 23

Filename G:\Bill Nelson - The Practice Of Everyday Life. Celebrating 40 Years Of Recordings (2011) [8CD BoxSet] {Esoteric}\CD2\23 - Do You Dream In Colour (A-Side of single).wav

Pre-gap length 0:00:01.64

Peak level 80.0 %
Extraction speed 6.2 X
Track quality 99.9 %
Test CRC 18725418
Copy CRC 18725418
Accurately ripped (confidence 3) [AB9BE878] (AR v2)
Copy OK


All tracks accurately ripped

No errors occurred

End of status report

==== Log checksum F8AAFE026C9C19C0CF41CD8683E6D97ED830E2A6D6B27A5FBF8D29B39B8EB6EB ====

Exact Audio Copy V1.0 beta 3 from 29. August 2011

EAC extraction logfile from 27. July 2013, 18:46

Bill Nelson / The Practice Of Everyday Life. Celebrating 40 Years Of Recordings (CD3)

Used drive : ATAPI iHAS124 B Adapter: 4 ID: 0

Read mode : Secure
Utilize accurate stream : Yes
Defeat audio cache : Yes
Make use of C2 pointers : No

Read offset correction : 6
Overread into Lead-In and Lead-Out : No
Fill up missing offset samples with silence : Yes
Delete leading and trailing silent blocks : No
Null samples used in CRC calculations : Yes
Used interface : Native Win32 interface for Win NT & 2000
Gap handling : Appended to previous track

Used output format : User Defined Encoder
Selected bitrate : 1024 kBit/s
Quality : High
Add ID3 tag : No
Command line compressor : C:\Program Files (x86)\FLAC\flac.exe
Additional command line options : -8 -V -T "ARTIST=%artist%" -T "TITLE=%title%" -T "ALBUM=%albumtitle%" -T "DATE=%year%" -T "TRACKNUMBER=%tracknr%" -T "TOTALTRACKS=%numtracks%" -T "GENRE=%genre%" -T "ALBUMARTIST=%albumartist%" -T "ALBUM ARTIST=%albumartist%" -T "COMMENT=EAC Secure Mode, Test & Copy, AccurateRip, FLAC -8" %source%


TOC of the extracted CD

Track | Start | Length | Start sector | End sector
––––––––––––––––––––––––––––-
1 | 0:00.00 | 3:55.44 | 0 | 17668
2 | 3:55.44 | 5:24.63 | 17669 | 42031
3 | 9:20.32 | 4:12.41 | 42032 | 60972
4 | 13:32.73 | 3:12.69 | 60973 | 75441
5 | 16:45.67 | 3:22.54 | 75442 | 90645
6 | 20:08.46 | 1:48.15 | 90646 | 98760
7 | 21:56.61 | 2:19.40 | 98761 | 109225
8 | 24:16.26 | 3:07.50 | 109226 | 123300
9 | 27:24.01 | 0:44.05 | 123301 | 126605
10 | 28:08.06 | 1:48.24 | 126606 | 134729
11 | 29:56.30 | 2:04.00 | 134730 | 144029
12 | 32:00.30 | 1:21.34 | 144030 | 150138
13 | 33:21.64 | 3:36.04 | 150139 | 166342
14 | 36:57.68 | 3:55.07 | 166343 | 183974
15 | 40:53.00 | 5:30.73 | 183975 | 208797
16 | 46:23.73 | 6:43.65 | 208798 | 239087
17 | 53:07.63 | 3:10.59 | 239088 | 253396
18 | 56:18.47 | 2:04.20 | 253397 | 262716
19 | 58:22.67 | 4:07.23 | 262717 | 281264
20 | 62:30.15 | 4:12.49 | 281265 | 300213
21 | 66:42.64 | 3:51.08 | 300214 | 317546
22 | 70:33.72 | 1:02.59 | 317547 | 322255
23 | 71:36.56 | 2:09.31 | 322256 | 331961
24 | 73:46.12 | 2:50.00 | 331962 | 344711
25 | 76:36.12 | 2:08.04 | 344712 | 354315


Track 1

Filename G:\Bill Nelson - The Practice Of Everyday Life. Celebrating 40 Years Of Recordings (2011) [8CD BoxSet] {Esoteric}\CD3\01 - Banal.wav

Pre-gap length 0:00:02.00

Peak level 80.5 %
Extraction speed 3.8 X
Track quality 100.0 %
Test CRC 2F1BEBE3
Copy CRC 2F1BEBE3
Accurately ripped (confidence 3) [0F45FE30] (AR v2)
Copy OK

Track 2

Filename G:\Bill Nelson - The Practice Of Everyday Life. Celebrating 40 Years Of Recordings (2011) [8CD BoxSet] {Esoteric}\CD3\02 - Life Runs Out Like Sand.wav

Pre-gap length 0:00:01.69

Peak level 99.4 %
Extraction speed 4.5 X
Track quality 100.0 %
Test CRC 3B581D0F
Copy CRC 3B581D0F
Accurately ripped (confidence 3) [010A3283] (AR v2)
Copy OK

Track 3

Filename G:\Bill Nelson - The Practice Of Everyday Life. Celebrating 40 Years Of Recordings (2011) [8CD BoxSet] {Esoteric}\CD3\03 - Living In My Limousine.wav

Pre-gap length 0:00:01.50

Peak level 89.8 %
Extraction speed 4.7 X
Track quality 100.0 %
Test CRC AE2B9584
Copy CRC AE2B9584
Accurately ripped (confidence 3) [9CF593BE] (AR v2)
Copy OK

Track 4

Filename G:\Bill Nelson - The Practice Of Everyday Life. Celebrating 40 Years Of Recordings (2011) [8CD BoxSet] {Esoteric}\CD3\04 - Mr. Magnetism Himself (B-side of single).wav

Pre-gap length 0:00:01.45

Peak level 92.5 %
Extraction speed 3.7 X
Track quality 99.9 %
Test CRC 7ACB7242
Copy CRC 7ACB7242
Accurately ripped (confidence 3) [5F5DA828] (AR v2)
Copy OK

Track 5

Filename G:\Bill Nelson - The Practice Of Everyday Life. Celebrating 40 Years Of Recordings (2011) [8CD BoxSet] {Esoteric}\CD3\05 - Sleep.wav

Pre-gap length 0:00:01.56

Peak level 77.1 %
Extraction speed 5.0 X
Track quality 100.0 %
Test CRC B5D38CCC
Copy CRC B5D38CCC
Accurately ripped (confidence 3) [CA7F0F54] (AR v2)
Copy OK

Track 6

Filename G:\Bill Nelson - The Practice Of Everyday Life. Celebrating 40 Years Of Recordings (2011) [8CD BoxSet] {Esoteric}\CD3\06 - Opium.wav

Pre-gap length 0:00:02.10

Peak level 74.0 %
Extraction speed 3.1 X
Track quality 99.9 %
Test CRC E7DD56A0
Copy CRC E7DD56A0
Accurately ripped (confidence 3) [5B864B4E] (AR v2)
Copy OK

Track 7

Filename G:\Bill Nelson - The Practice Of Everyday Life. Celebrating 40 Years Of Recordings (2011) [8CD BoxSet] {Esoteric}\CD3\07 - Near East.wav

Pre-gap length 0:00:01.50

Peak level 98.5 %
Extraction speed 5.0 X
Track quality 100.0 %
Test CRC ED881059
Copy CRC ED881059
Accurately ripped (confidence 3) [36B84817] (AR v2)
Copy OK

Track 8

Filename G:\Bill Nelson - The Practice Of Everyday Life. Celebrating 40 Years Of Recordings (2011) [8CD BoxSet] {Esoteric}\CD3\08 - The Funeral.wav

Pre-gap length 0:00:02.01

Peak level 79.4 %
Extraction speed 5.4 X
Track quality 100.0 %
Test CRC 73824F36
Copy CRC 73824F36
Accurately ripped (confidence 3) [09B2FB2A] (AR v2)
Copy OK

Track 9

Filename G:\Bill Nelson - The Practice Of Everyday Life. Celebrating 40 Years Of Recordings (2011) [8CD BoxSet] {Esoteric}\CD3\09 - The Sonambulist And The Children.wav

Pre-gap length 0:00:02.11

Peak level 82.8 %
Extraction speed 3.5 X
Track quality 100.0 %
Test CRC F4473ACD
Copy CRC F4473ACD
Accurately ripped (confidence 3) [DB567F37] (AR v2)
Copy OK

Track 10

Filename G:\Bill Nelson - The Practice Of Everyday Life. Celebrating 40 Years Of Recordings (2011) [8CD BoxSet] {Esoteric}\CD3\10 - The Dream Dance Of Jane And The Sonambulist.wav

Pre-gap length 0:00:01.58

Peak level 70.4 %
Extraction speed 4.9 X
Track quality 100.0 %
Test CRC F0853A9B
Copy CRC F0853A9B
Accurately ripped (confidence 3) [7EF1F555] (AR v2)
Copy OK

Track 11

Filename G:\Bill Nelson - The Practice Of Everyday Life. Celebrating 40 Years Of Recordings (2011) [8CD BoxSet] {Esoteric}\CD3\11 - Beauty And The Beast.wav

Pre-gap length 0:00:01.52

Peak level 91.1 %
Extraction speed 5.2 X
Track quality 100.0 %
Test CRC 900EE8DF
Copy CRC 900EE8DF
Accurately ripped (confidence 3) [80F98F82] (AR v2)
Copy OK

Track 12

Filename G:\Bill Nelson - The Practice Of Everyday Life. Celebrating 40 Years Of Recordings (2011) [8CD BoxSet] {Esoteric}\CD3\12 - The Enchanted Glove.wav

Pre-gap length 0:00:01.71

Peak level 53.4 %
Extraction speed 4.7 X
Track quality 100.0 %
Test CRC 2259392A
Copy CRC 2259392A
Accurately ripped (confidence 3) [676B9137] (AR v2)
Copy OK

Track 13

Filename G:\Bill Nelson - The Practice Of Everyday Life. Celebrating 40 Years Of Recordings (2011) [8CD BoxSet] {Esoteric}\CD3\13 - Eros Arriving.wav

Pre-gap length 0:00:01.37

Peak level 92.9 %
Extraction speed 6.1 X
Track quality 100.0 %
Test CRC CC87AD21
Copy CRC CC87AD21
Accurately ripped (confidence 3) [A7B97CCA] (AR v2)
Copy OK

Track 14

Filename G:\Bill Nelson - The Practice Of Everyday Life. Celebrating 40 Years Of Recordings (2011) [8CD BoxSet] {Esoteric}\CD3\14 - Hope For The Heartbeat.wav

Pre-gap length 0:00:01.63

Peak level 94.3 %
Extraction speed 6.4 X
Track quality 100.0 %
Test CRC A98260D9
Copy CRC A98260D9
Accurately ripped (confidence 3) [0BB56389] (AR v2)
Copy OK

Track 15

Filename G:\Bill Nelson - The Practice Of Everyday Life. Celebrating 40 Years Of Recordings (2011) [8CD BoxSet] {Esoteric}\CD3\15 - A Private View.wav

Pre-gap length 0:00:01.58

Peak level 89.8 %
Extraction speed 5.8 X
Track quality 99.9 %
Test CRC 16A78BB6
Copy CRC 16A78BB6
Accurately ripped (confidence 3) [F57F6003] (AR v2)
Copy OK

Track 16

Filename G:\Bill Nelson - The Practice Of Everyday Life. Celebrating 40 Years Of Recordings (2011) [8CD BoxSet] {Esoteric}\CD3\16 - The October Man.wav

Pre-gap length 0:00:02.02

Peak level 88.5 %
Extraction speed 7.3 X
Track quality 100.0 %
Test CRC 7C6B434C
Copy CRC 7C6B434C
Accurately ripped (confidence 3) [720F8B16] (AR v2)
Copy OK

Track 17

Filename G:\Bill Nelson - The Practice Of Everyday Life. Celebrating 40 Years Of Recordings (2011) [8CD BoxSet] {Esoteric}\CD3\17 - The Passion (B-side of single).wav

Pre-gap length 0:00:01.48

Peak level 68.4 %
Extraction speed 6.8 X
Track quality 100.0 %
Test CRC 3B9A21F8
Copy CRC 3B9A21F8
Accurately ripped (confidence 3) [5B3E08D5] (AR v2)
Copy OK

Track 18

Filename G:\Bill Nelson - The Practice Of Everyday Life. Celebrating 40 Years Of Recordings (2011) [8CD BoxSet] {Esoteric}\CD3\18 - Echo In Her Eyes (The Lamps Of Oblivion).wav

Pre-gap length 0:00:02.00

Peak level 63.1 %
Extraction speed 6.4 X
Track quality 100.0 %
Test CRC 1BC4D13C
Copy CRC 1BC4D13C
Accurately ripped (confidence 3) [ADF05520] (AR v2)
Copy OK

Track 19

Filename G:\Bill Nelson - The Practice Of Everyday Life. Celebrating 40 Years Of Recordings (2011) [8CD BoxSet] {Esoteric}\CD3\19 - Glow World.wav

Pre-gap length 0:00:02.06

Peak level 70.4 %
Extraction speed 5.9 X
Track quality 99.9 %
Test CRC 1384AEE2
Copy CRC 1384AEE2
Accurately ripped (confidence 3) [ADA82E0B] (AR v2)
Copy OK

Track 20

Filename G:\Bill Nelson - The Practice Of Everyday Life. Celebrating 40 Years Of Recordings (2011) [8CD BoxSet] {Esoteric}\CD3\20 - The Real Adventure.wav

Pre-gap length 0:00:01.62

Peak level 71.5 %
Extraction speed 6.1 X
Track quality 99.9 %
Test CRC 91517FAF
Copy CRC 91517FAF
Accurately ripped (confidence 3) [D0339102] (AR v2)
Copy OK

Track 21

Filename G:\Bill Nelson - The Practice Of Everyday Life. Celebrating 40 Years Of Recordings (2011) [8CD BoxSet] {Esoteric}\CD3\21 - Acceleration (short version).wav

Pre-gap length 0:00:01.74

Peak level 69.4 %
Extraction speed 7.6 X
Track quality 100.0 %
Test CRC 3E179DDD
Copy CRC 3E179DDD
Accurately ripped (confidence 3) [0F4A0C0F] (AR v2)
Copy OK

Track 22

Filename G:\Bill Nelson - The Practice Of Everyday Life. Celebrating 40 Years Of Recordings (2011) [8CD BoxSet] {Esoteric}\CD3\22 - Happily Addicted To You.wav

Pre-gap length 0:00:01.74

Peak level 76.8 %
Extraction speed 5.5 X
Track quality 100.0 %
Test CRC CBD387D9
Copy CRC CBD387D9
Accurately ripped (confidence 3) [CE0BB278] (AR v2)
Copy OK

Track 23

Filename G:\Bill Nelson - The Practice Of Everyday Life. Celebrating 40 Years Of Recordings (2011) [8CD BoxSet] {Esoteric}\CD3\23 - The Last Summer For Dancing.wav

Pre-gap length 0:00:01.67

Peak level 99.4 %
Extraction speed 7.0 X
Track quality 100.0 %
Test CRC 906968F4
Copy CRC 906968F4
Accurately ripped (confidence 3) [1E6B6207] (AR v2)
Copy OK

Track 24

Filename G:\Bill Nelson - The Practice Of Everyday Life. Celebrating 40 Years Of Recordings (2011) [8CD BoxSet] {Esoteric}\CD3\24 - Les Amoureux.wav

Pre-gap length 0:00:01.49

Peak level 99.4 %
Extraction speed 5.9 X
Track quality 99.9 %
Test CRC CFB4A0DD
Copy CRC CFB4A0DD
Accurately ripped (confidence 3) [458E3093] (AR v2)
Copy OK

Track 25

Filename G:\Bill Nelson - The Practice Of Everyday Life. Celebrating 40 Years Of Recordings (2011) [8CD BoxSet] {Esoteric}\CD3\25 - Another Kiss For Your Slender Neck.wav

Pre-gap length 0:00:01.56

Peak level 99.4 %
Extraction speed 7.1 X
Track quality 100.0 %
Test CRC 72500288
Copy CRC 72500288
Accurately ripped (confidence 3) [64EB0517] (AR v2)
Copy OK


All tracks accurately ripped

No errors occurred

End of status report

==== Log checksum 17D5BC0366BF8C81A918A6C3BE25BE19BE650336A87AA37D9A7CD43FB081427C ====

Exact Audio Copy V1.0 beta 3 from 29. August 2011

EAC extraction logfile from 27. July 2013, 22:42

Bill Nelson / The Practice Of Everyday Life. Celebrating 40 Years Of Recordings (CD4)

Used drive : ATAPI iHAS124 B Adapter: 4 ID: 0

Read mode : Secure
Utilize accurate stream : Yes
Defeat audio cache : Yes
Make use of C2 pointers : No

Read offset correction : 6
Overread into Lead-In and Lead-Out : No
Fill up missing offset samples with silence : Yes
Delete leading and trailing silent blocks : No
Null samples used in CRC calculations : Yes
Used interface : Native Win32 interface for Win NT & 2000
Gap handling : Appended to previous track

Used output format : User Defined Encoder
Selected bitrate : 1024 kBit/s
Quality : High
Add ID3 tag : No
Command line compressor : C:\Program Files (x86)\FLAC\flac.exe
Additional command line options : -8 -V -T "ARTIST=%artist%" -T "TITLE=%title%" -T "ALBUM=%albumtitle%" -T "DATE=%year%" -T "TRACKNUMBER=%tracknr%" -T "TOTALTRACKS=%numtracks%" -T "GENRE=%genre%" -T "ALBUMARTIST=%albumartist%" -T "ALBUM ARTIST=%albumartist%" -T "COMMENT=EAC Secure Mode, Test & Copy, AccurateRip, FLAC -8" %source%


TOC of the extracted CD

Track | Start | Length | Start sector | End sector
––––––––––––––––––––––––––––-
1 | 0:00.00 | 2:58.43 | 0 | 13392
2 | 2:58.43 | 6:11.29 | 13393 | 41246
3 | 9:09.72 | 3:36.18 | 41247 | 57464
4 | 12:46.15 | 3:15.14 | 57465 | 72103
5 | 16:01.29 | 2:45.09 | 72104 | 84487
6 | 18:46.38 | 1:29.46 | 84488 | 91208
7 | 20:16.09 | 1:20.37 | 91209 | 97245
8 | 21:36.46 | 1:16.14 | 97246 | 102959
9 | 22:52.60 | 1:30.11 | 102960 | 109720
10 | 24:22.71 | 2:32.18 | 109721 | 121138
11 | 26:55.14 | 1:43.55 | 121139 | 128918
12 | 28:38.69 | 8:57.58 | 128919 | 169251
13 | 37:36.52 | 4:37.49 | 169252 | 190075
14 | 42:14.26 | 4:27.32 | 190076 | 210132
15 | 46:41.58 | 3:39.09 | 210133 | 226566
16 | 50:20.67 | 2:11.46 | 226567 | 236437
17 | 52:32.38 | 3:35.26 | 236438 | 252588
18 | 56:07.64 | 2:17.42 | 252589 | 262905
19 | 58:25.31 | 4:25.39 | 262906 | 282819
20 | 62:50.70 | 1:25.34 | 282820 | 289228
21 | 64:16.29 | 4:59.67 | 289229 | 311720
22 | 69:16.21 | 1:23.69 | 311721 | 318014
23 | 70:40.15 | 2:57.72 | 318015 | 331361
24 | 73:38.12 | 1:13.57 | 331362 | 336893
25 | 74:51.69 | 2:02.43 | 336894 | 346086
26 | 76:54.37 | 3:00.08 | 346087 | 359594


Track 1

Filename G:\Bill Nelson - The Practice Of Everyday Life. Celebrating 40 Years Of Recordings (2011) [8CD BoxSet] {Esoteric}\CD4\01 - The Eternal Female.wav

Pre-gap length 0:00:02.00

Peak level 70.3 %
Extraction speed 1.9 X
Track quality 100.0 %
Test CRC ADDB2B73
Copy CRC ADDB2B73
Accurately ripped (confidence 3) [DCA0C411] (AR v2)
Copy OK

Track 2

Filename G:\Bill Nelson - The Practice Of Everyday Life. Celebrating 40 Years Of Recordings (2011) [8CD BoxSet] {Esoteric}\CD4\02 - Sleeplessness.wav

Pre-gap length 0:00:01.58

Peak level 82.9 %
Extraction speed 2.4 X
Track quality 100.0 %
Test CRC 3E3C3030
Copy CRC 3E3C3030
Accurately ripped (confidence 3) [5DA80A6A] (AR v2)
Copy OK

Track 3

Filename G:\Bill Nelson - The Practice Of Everyday Life. Celebrating 40 Years Of Recordings (2011) [8CD BoxSet] {Esoteric}\CD4\03 - The Golden Bough.wav

Pre-gap length 0:00:01.71

Peak level 74.0 %
Extraction speed 2.5 X
Track quality 100.0 %
Test CRC EAD78060
Copy CRC EAD78060
Accurately ripped (confidence 3) [A5771180] (AR v2)
Copy OK

Track 4

Filename G:\Bill Nelson - The Practice Of Everyday Life. Celebrating 40 Years Of Recordings (2011) [8CD BoxSet] {Esoteric}\CD4\04 - Tomorrowland (The Threshold Of 1947).wav

Pre-gap length 0:00:01.47

Peak level 83.7 %
Extraction speed 1.8 X
Track quality 99.9 %
Test CRC 218FFF11
Copy CRC 218FFF11
Accurately ripped (confidence 3) [C34E310A] (AR v2)
Copy OK

Track 5

Filename G:\Bill Nelson - The Practice Of Everyday Life. Celebrating 40 Years Of Recordings (2011) [8CD BoxSet] {Esoteric}\CD4\05 - Sacrament.wav

Pre-gap length 0:00:01.58

Peak level 84.3 %
Extraction speed 2.6 X
Track quality 100.0 %
Test CRC 2F5B3A44
Copy CRC 2F5B3A44
Accurately ripped (confidence 3) [F0DA7A4B] (AR v2)
Copy OK

Track 6

Filename G:\Bill Nelson - The Practice Of Everyday Life. Celebrating 40 Years Of Recordings (2011) [8CD BoxSet] {Esoteric}\CD4\06 - Over Ocean.wav

Pre-gap length 0:00:01.53

Peak level 70.8 %
Extraction speed 1.2 X
Track quality 99.8 %
Test CRC A8C7E532
Copy CRC A8C7E532
Accurately ripped (confidence 3) [58BD1B99] (AR v2)
Copy OK

Track 7

Filename G:\Bill Nelson - The Practice Of Everyday Life. Celebrating 40 Years Of Recordings (2011) [8CD BoxSet] {Esoteric}\CD4\07 - Perfido Incanto.wav

Pre-gap length 0:00:01.52

Peak level 95.0 %
Extraction speed 2.2 X
Track quality 100.0 %
Test CRC 68F837AE
Copy CRC 68F837AE
Accurately ripped (confidence 3) [2B69F4E7] (AR v2)
Copy OK

Track 8

Filename G:\Bill Nelson - The Practice Of Everyday Life. Celebrating 40 Years Of Recordings (2011) [8CD BoxSet] {Esoteric}\CD4\08 - City One.wav

Pre-gap length 0:00:01.66

Peak level 74.5 %
Extraction speed 2.2 X
Track quality 100.0 %
Test CRC E653C86D
Copy CRC E653C86D
Accurately ripped (confidence 3) [54A0E8EA] (AR v2)
Copy OK

Track 9

Filename G:\Bill Nelson - The Practice Of Everyday Life. Celebrating 40 Years Of Recordings (2011) [8CD BoxSet] {Esoteric}\CD4\09 - Blue Sky.wav

Pre-gap length 0:00:01.53

Peak level 72.3 %
Extraction speed 2.4 X
Track quality 100.0 %
Test CRC 04C61244
Copy CRC 04C61244
Accurately ripped (confidence 3) [08EAB911] (AR v2)
Copy OK

Track 10

Filename G:\Bill Nelson - The Practice Of Everyday Life. Celebrating 40 Years Of Recordings (2011) [8CD BoxSet] {Esoteric}\CD4\10 - To The Sea In Ships.wav

Pre-gap length 0:00:01.49

Peak level 72.3 %
Extraction speed 2.8 X
Track quality 100.0 %
Test CRC 34439079
Copy CRC 34439079
Accurately ripped (confidence 3) [CD1F56E9] (AR v2)
Copy OK

Track 11

Filename G:\Bill Nelson - The Practice Of Everyday Life. Celebrating 40 Years Of Recordings (2011) [8CD BoxSet] {Esoteric}\CD4\11 - Suvasini.wav

Pre-gap length 0:00:01.70

Peak level 54.4 %
Extraction speed 2.6 X
Track quality 100.0 %
Test CRC C55436BF
Copy CRC C55436BF
Accurately ripped (confidence 3) [76855319] (AR v2)
Copy OK

Track 12

Filename G:\Bill Nelson - The Practice Of Everyday Life. Celebrating 40 Years Of Recordings (2011) [8CD BoxSet] {Esoteric}\CD4\12 - Contemplation.wav

Peak level 56.7 %
Extraction speed 3.6 X
Track quality 100.0 %
Test CRC 5174E51B
Copy CRC 5174E51B
Accurately ripped (confidence 3) [C00AA80A] (AR v2)
Copy OK

Track 13

Filename G:\Bill Nelson - The Practice Of Everyday Life. Celebrating 40 Years Of Recordings (2011) [8CD BoxSet] {Esoteric}\CD4\13 - Wildest Dreams.wav

Pre-gap length 0:00:01.63

Peak level 56.8 %
Extraction speed 3.6 X
Track quality 100.0 %
Test CRC 6420AA3E
Copy CRC 6420AA3E
Accurately ripped (confidence 3) [FEC10C13] (AR v2)
Copy OK

Track 14

Filename G:\Bill Nelson - The Practice Of Everyday Life. Celebrating 40 Years Of Recordings (2011) [8CD BoxSet] {Esoteric}\CD4\14 - The Hidden Flame.wav

Pre-gap length 0:00:01.65

Peak level 66.3 %
Extraction speed 3.6 X
Track quality 100.0 %
Test CRC 2FD4B0F5
Copy CRC 2FD4B0F5
Accurately ripped (confidence 3) [57CF9B74] (AR v2)
Copy OK

Track 15

Filename G:\Bill Nelson - The Practice Of Everyday Life. Celebrating 40 Years Of Recordings (2011) [8CD BoxSet] {Esoteric}\CD4\15 - Illusions Of You.wav

Pre-gap length 0:00:02.14

Peak level 63.9 %
Extraction speed 2.6 X
Track quality 99.9 %
Test CRC D680C28B
Copy CRC D680C28B
Accurately ripped (confidence 3) [BA65D0D9] (AR v2)
Copy OK

Track 16

Filename G:\Bill Nelson - The Practice Of Everyday Life. Celebrating 40 Years Of Recordings (2011) [8CD BoxSet] {Esoteric}\CD4\16 - Search And Listen.wav

Pre-gap length 0:00:01.71

Peak level 79.6 %
Extraction speed 3.4 X
Track quality 100.0 %
Test CRC 5F6FFDC6
Copy CRC 5F6FFDC6
Accurately ripped (confidence 3) [1844E2AA] (AR v2)
Copy OK

Track 17

Filename G:\Bill Nelson - The Practice Of Everyday Life. Celebrating 40 Years Of Recordings (2011) [8CD BoxSet] {Esoteric}\CD4\17 - Right Then Left.wav

Pre-gap length 0:00:01.63

Peak level 80.2 %
Extraction speed 3.8 X
Track quality 100.0 %
Test CRC 3B078160
Copy CRC 3B078160
Accurately ripped (confidence 3) [8630DE1E] (AR v2)
Copy OK

Track 18

Filename G:\Bill Nelson - The Practice Of Everyday Life. Celebrating 40 Years Of Recordings (2011) [8CD BoxSet] {Esoteric}\CD4\18 - Iconography.wav

Pre-gap length 0:00:01.48

Peak level 88.3 %
Extraction speed 3.6 X
Track quality 100.0 %
Test CRC 2777DC9F
Copy CRC 2777DC9F
Accurately ripped (confidence 3) [CE74C299] (AR v2)
Copy OK

Track 19

Filename G:\Bill Nelson - The Practice Of Everyday Life. Celebrating 40 Years Of Recordings (2011) [8CD BoxSet] {Esoteric}\CD4\19 - Clock Conscious.wav

Pre-gap length 0:00:02.00

Peak level 79.8 %
Extraction speed 4.1 X
Track quality 100.0 %
Test CRC 92AEDC9A
Copy CRC 92AEDC9A
Accurately ripped (confidence 3) [89714D80] (AR v2)
Copy OK

Track 20

Filename G:\Bill Nelson - The Practice Of Everyday Life. Celebrating 40 Years Of Recordings (2011) [8CD BoxSet] {Esoteric}\CD4\20 - At The Gates Of The Singing Garden.wav

Pre-gap length 0:00:01.61

Peak level 87.4 %
Extraction speed 3.3 X
Track quality 100.0 %
Test CRC 5E28CAFB
Copy CRC 5E28CAFB
Accurately ripped (confidence 3) [65218F7B] (AR v2)
Copy OK

Track 21

Filename G:\Bill Nelson - The Practice Of Everyday Life. Celebrating 40 Years Of Recordings (2011) [8CD BoxSet] {Esoteric}\CD4\21 - Water Of Life (Transfiguration).wav

Pre-gap length 0:00:01.60

Peak level 85.7 %
Extraction speed 4.3 X
Track quality 100.0 %
Test CRC 1C1DF363
Copy CRC 1C1DF363
Accurately ripped (confidence 3) [98FE67D0] (AR v2)
Copy OK

Track 22

Filename G:\Bill Nelson - The Practice Of Everyday Life. Celebrating 40 Years Of Recordings (2011) [8CD BoxSet] {Esoteric}\CD4\22 - Spinning Creatures.wav

Pre-gap length 0:00:01.63

Peak level 93.1 %
Extraction speed 3.4 X
Track quality 100.0 %
Test CRC 38F710D0
Copy CRC 38F710D0
Accurately ripped (confidence 3) [879EFB79] (AR v2)
Copy OK

Track 23

Filename G:\Bill Nelson - The Practice Of Everyday Life. Celebrating 40 Years Of Recordings (2011) [8CD BoxSet] {Esoteric}\CD4\23 - The Angel At The Western Window.wav

Pre-gap length 0:00:00.21

Peak level 47.7 %
Extraction speed 2.8 X
Track quality 99.9 %
Test CRC C9D46481
Copy CRC C9D46481
Accurately ripped (confidence 3) [A74D8A6E] (AR v2)
Copy OK

Track 24

Filename G:\Bill Nelson - The Practice Of Everyday Life. Celebrating 40 Years Of Recordings (2011) [8CD BoxSet] {Esoteric}\CD4\24 - Day Of Eternity.wav

Pre-gap length 0:00:01.33

Peak level 79.5 %
Extraction speed 3.3 X
Track quality 100.0 %
Test CRC 90DDF83B
Copy CRC 90DDF83B
Accurately ripped (confidence 3) [5547CDE8] (AR v2)
Copy OK

Track 25

Filename G:\Bill Nelson - The Practice Of Everyday Life. Celebrating 40 Years Of Recordings (2011) [8CD BoxSet] {Esoteric}\CD4\25 - Night Tides.wav

Pre-gap length 0:00:01.63

Peak level 68.8 %
Extraction speed 3.8 X
Track quality 100.0 %
Test CRC 9E9B25BF
Copy CRC 9E9B25BF
Accurately ripped (confidence 3) [7A2AF6DC] (AR v2)
Copy OK

Track 26

Filename G:\Bill Nelson - The Practice Of Everyday Life. Celebrating 40 Years Of Recordings (2011) [8CD BoxSet] {Esoteric}\CD4\26 - Finis Gloria Mundi.wav

Pre-gap length 0:00:01.64

Peak level 93.6 %
Extraction speed 4.2 X
Track quality 100.0 %
Test CRC A6614F4B
Copy CRC A6614F4B
Accurately ripped (confidence 3) [F5F23AB9] (AR v2)
Copy OK


All tracks accurately ripped

No errors occurred

End of status report

==== Log checksum B34EA6C5F51A3CAC5D22779DFD7E8DFFF8A287F61A340B5F3BDF5D08AD698F7A ====

Exact Audio Copy V1.0 beta 3 from 29. August 2011

EAC extraction logfile from 29. July 2013, 0:55

Bill Nelson / The Practice Of Everyday Life. Celebrating 40 Years Of Recordings (CD5)

Used drive : ATAPI iHAS124 B Adapter: 4 ID: 0

Read mode : Secure
Utilize accurate stream : Yes
Defeat audio cache : Yes
Make use of C2 pointers : No

Read offset correction : 6
Overread into Lead-In and Lead-Out : No
Fill up missing offset samples with silence : Yes
Delete leading and trailing silent blocks : No
Null samples used in CRC calculations : Yes
Used interface : Native Win32 interface for Win NT & 2000
Gap handling : Appended to previous track

Used output format : User Defined Encoder
Selected bitrate : 1024 kBit/s
Quality : High
Add ID3 tag : No
Command line compressor : C:\Program Files (x86)\FLAC\flac.exe
Additional command line options : -8 -V -T "ARTIST=%artist%" -T "TITLE=%title%" -T "ALBUM=%albumtitle%" -T "DATE=%year%" -T "TRACKNUMBER=%tracknr%" -T "TOTALTRACKS=%numtracks%" -T "GENRE=%genre%" -T "ALBUMARTIST=%albumartist%" -T "ALBUM ARTIST=%albumartist%" -T "COMMENT=EAC Secure Mode, Test & Copy, AccurateRip, FLAC -8" %source%


TOC of the extracted CD

Track | Start | Length | Start sector | End sector
––––––––––––––––––––––––––––-
1 | 0:00.00 | 3:46.51 | 0 | 17000
2 | 3:46.51 | 1:36.58 | 17001 | 24258
3 | 5:23.34 | 2:56.26 | 24259 | 37484
4 | 8:19.60 | 3:28.46 | 37485 | 53130
5 | 11:48.31 | 1:53.30 | 53131 | 61635
6 | 13:41.61 | 5:53.45 | 61636 | 88155
7 | 19:35.31 | 2:37.48 | 88156 | 99978
8 | 22:13.04 | 3:46.54 | 99979 | 116982
9 | 25:59.58 | 2:34.58 | 116983 | 128590
10 | 28:34.41 | 2:34.14 | 128591 | 140154
11 | 31:08.55 | 1:27.01 | 140155 | 146680
12 | 32:35.56 | 3:48.01 | 146681 | 163781
13 | 36:23.57 | 1:56.29 | 163782 | 172510
14 | 38:20.11 | 2:48.69 | 172511 | 185179
15 | 41:09.05 | 3:49.52 | 185180 | 202406
16 | 44:58.57 | 2:17.71 | 202407 | 212752
17 | 47:16.53 | 3:28.27 | 212753 | 228379
18 | 50:45.05 | 2:45.35 | 228380 | 240789
19 | 53:30.40 | 2:16.19 | 240790 | 251008
20 | 55:46.59 | 2:36.72 | 251009 | 262780
21 | 58:23.56 | 1:47.34 | 262781 | 270839
22 | 60:11.15 | 4:09.66 | 270840 | 289580
23 | 64:21.06 | 3:31.50 | 289581 | 305455
24 | 67:52.56 | 3:47.02 | 305456 | 322482
25 | 71:39.58 | 3:47.00 | 322483 | 339507
26 | 75:26.58 | 3:07.70 | 339508 | 353602


Track 1

Filename G:\Bill Nelson - The Practice Of Everyday Life. Celebrating 40 Years Of Recordings (2011) [8CD BoxSet] {Esoteric}\CD5\01 - Calling Heaven, Calling Heaven.wav

Pre-gap length 0:00:02.00

Peak level 99.4 %
Extraction speed 3.7 X
Track quality 100.0 %
Test CRC E3E75499
Copy CRC E3E75499
Accurately ripped (confidence 3) [4FB44742] (AR v2)
Copy OK

Track 2

Filename G:\Bill Nelson - The Practice Of Everyday Life. Celebrating 40 Years Of Recordings (2011) [8CD BoxSet] {Esoteric}\CD5\02 - Deva Dance.wav

Pre-gap length 0:00:01.61

Peak level 99.4 %
Extraction speed 3.4 X
Track quality 100.0 %
Test CRC 1655509D
Copy CRC 1655509D
Accurately ripped (confidence 3) [E4C41FA4] (AR v2)
Copy OK

Track 3

Filename G:\Bill Nelson - The Practice Of Everyday Life. Celebrating 40 Years Of Recordings (2011) [8CD BoxSet] {Esoteric}\CD5\03 - Um, Ah Good Evening.wav

Pre-gap length 0:00:01.72

Peak level 99.4 %
Extraction speed 4.1 X
Track quality 100.0 %
Test CRC 909B2222
Copy CRC 909B2222
Accurately ripped (confidence 3) [FF348754] (AR v2)
Copy OK

Track 4

Filename G:\Bill Nelson - The Practice Of Everyday Life. Celebrating 40 Years Of Recordings (2011) [8CD BoxSet] {Esoteric}\CD5\04 - Short Wave.wav

Pre-gap length 0:00:02.12

Peak level 77.1 %
Extraction speed 4.5 X
Track quality 100.0 %
Test CRC 67AF048C
Copy CRC 67AF048C
Accurately ripped (confidence 3) [325908F0] (AR v2)
Copy OK

Track 5

Filename G:\Bill Nelson - The Practice Of Everyday Life. Celebrating 40 Years Of Recordings (2011) [8CD BoxSet] {Esoteric}\CD5\05 - Aqua Magica.wav

Pre-gap length 0:00:01.72

Peak level 86.7 %
Extraction speed 4.1 X
Track quality 100.0 %
Test CRC 17FB7ED6
Copy CRC 17FB7ED6
Accurately ripped (confidence 3) [D79725C8] (AR v2)
Copy OK

Track 6

Filename G:\Bill Nelson - The Practice Of Everyday Life. Celebrating 40 Years Of Recordings (2011) [8CD BoxSet] {Esoteric}\CD5\06 - Heros De Lumiere.wav

Pre-gap length 0:00:02.26

Peak level 94.6 %
Extraction speed 5.2 X
Track quality 100.0 %
Test CRC 4AC3692B
Copy CRC 4AC3692B
Accurately ripped (confidence 3) [16F50F84] (AR v2)
Copy OK

Track 7

Filename G:\Bill Nelson - The Practice Of Everyday Life. Celebrating 40 Years Of Recordings (2011) [8CD BoxSet] {Esoteric}\CD5\07 - Kiss Goodbye.wav

Pre-gap length 0:00:01.73

Peak level 99.4 %
Extraction speed 4.9 X
Track quality 100.0 %
Test CRC 2FB53400
Copy CRC 2FB53400
Accurately ripped (confidence 3) [7AA20E1F] (AR v2)
Copy OK

Track 8

Filename G:\Bill Nelson - The Practice Of Everyday Life. Celebrating 40 Years Of Recordings (2011) [8CD BoxSet] {Esoteric}\CD5\08 - Dreams Of Yesterday.wav

Pre-gap length 0:00:01.74

Peak level 99.4 %
Extraction speed 4.2 X
Track quality 99.9 %
Test CRC 3F63C52E
Copy CRC 3F63C52E
Accurately ripped (confidence 3) [AE31D8DE] (AR v2)
Copy OK

Track 9

Filename G:\Bill Nelson - The Practice Of Everyday Life. Celebrating 40 Years Of Recordings (2011) [8CD BoxSet] {Esoteric}\CD5\09 - Playing Jesus To Her Judas.wav

Pre-gap length 0:00:02.02

Peak level 95.8 %
Extraction speed 5.3 X
Track quality 100.0 %
Test CRC 11EEFDF2
Copy CRC 11EEFDF2
Accurately ripped (confidence 3) [1C4F82E8] (AR v2)
Copy OK

Track 10

Filename G:\Bill Nelson - The Practice Of Everyday Life. Celebrating 40 Years Of Recordings (2011) [8CD BoxSet] {Esoteric}\CD5\10 - Still Waiting.wav

Pre-gap length 0:00:01.64

Peak level 99.4 %
Extraction speed 5.4 X
Track quality 100.0 %
Test CRC 0BE35F24
Copy CRC 0BE35F24
Accurately ripped (confidence 3) [2BFF032D] (AR v2)
Copy OK

Track 11

Filename G:\Bill Nelson - The Practice Of Everyday Life. Celebrating 40 Years Of Recordings (2011) [8CD BoxSet] {Esoteric}\CD5\11 - Feels Like Up To Me.wav

Pre-gap length 0:00:02.19

Peak level 99.4 %
Extraction speed 4.7 X
Track quality 100.0 %
Test CRC C1D9D480
Copy CRC C1D9D480
Accurately ripped (confidence 3) [284A6A43] (AR v2)
Copy OK

Track 12

Filename G:\Bill Nelson - The Practice Of Everyday Life. Celebrating 40 Years Of Recordings (2011) [8CD BoxSet] {Esoteric}\CD5\12 - Only Love Can Tell.wav

Pre-gap length 0:00:01.67

Peak level 99.4 %
Extraction speed 6.0 X
Track quality 100.0 %
Test CRC 590F3CD4
Copy CRC 590F3CD4
Accurately ripped (confidence 3) [0C6E673D] (AR v2)
Copy OK

Track 13

Filename G:\Bill Nelson - The Practice Of Everyday Life. Celebrating 40 Years Of Recordings (2011) [8CD BoxSet] {Esoteric}\CD5\13 - Broken.wav

Pre-gap length 0:00:02.16

Peak level 95.9 %
Extraction speed 5.5 X
Track quality 100.0 %
Test CRC 1C122DE8
Copy CRC 1C122DE8
Accurately ripped (confidence 3) [5906AEB5] (AR v2)
Copy OK

Track 14

Filename G:\Bill Nelson - The Practice Of Everyday Life. Celebrating 40 Years Of Recordings (2011) [8CD BoxSet] {Esoteric}\CD5\14 - Heartbreak Thru The Telephone.wav

Pre-gap length 0:00:01.37

Peak level 97.7 %
Extraction speed 6.0 X
Track quality 100.0 %
Test CRC 47646D47
Copy CRC 47646D47
Accurately ripped (confidence 3) [2E824851] (AR v2)
Copy OK

Track 15

Filename G:\Bill Nelson - The Practice Of Everyday Life. Celebrating 40 Years Of Recordings (2011) [8CD BoxSet] {Esoteric}\CD5\15 - Love's Immortal Shining Angel.wav

Pre-gap length 0:00:02.05

Peak level 99.4 %
Extraction speed 6.5 X
Track quality 100.0 %
Test CRC 2A7D8A71
Copy CRC 2A7D8A71
Accurately ripped (confidence 3) [D4BC4CB5] (AR v2)
Copy OK

Track 16

Filename G:\Bill Nelson - The Practice Of Everyday Life. Celebrating 40 Years Of Recordings (2011) [8CD BoxSet] {Esoteric}\CD5\16 - Man On Fire.wav

Pre-gap length 0:00:02.18

Peak level 99.4 %
Extraction speed 6.0 X
Track quality 100.0 %
Test CRC 7C70DD35
Copy CRC 7C70DD35
Accurately ripped (confidence 3) [AB889E9C] (AR v2)
Copy OK

Track 17

Filename G:\Bill Nelson - The Practice Of Everyday Life. Celebrating 40 Years Of Recordings (2011) [8CD BoxSet] {Esoteric}\CD5\17 - Aeroplane Wings.wav

Pre-gap length 0:00:02.07

Peak level 95.8 %
Extraction speed 6.7 X
Track quality 100.0 %
Test CRC 8CF2C5BC
Copy CRC 8CF2C5BC
Accurately ripped (confidence 3) [18704957] (AR v2)
Copy OK

Track 18

Filename G:\Bill Nelson - The Practice Of Everyday Life. Celebrating 40 Years Of Recordings (2011) [8CD BoxSet] {Esoteric}\CD5\18 - Stay With Me.wav

Pre-gap length 0:00:01.70

Peak level 95.8 %
Extraction speed 6.5 X
Track quality 100.0 %
Test CRC 109BD2A7
Copy CRC 109BD2A7
Accurately ripped (confidence 3) [310B5DF1] (AR v2)
Copy OK

Track 19

Filename G:\Bill Nelson - The Practice Of Everyday Life. Celebrating 40 Years Of Recordings (2011) [8CD BoxSet] {Esoteric}\CD5\19 - A Luminous Kind Of Guy.wav

Pre-gap length 0:00:01.72

Peak level 95.8 %
Extraction speed 6.2 X
Track quality 100.0 %
Test CRC B998D1F7
Copy CRC B998D1F7
Accurately ripped (confidence 3) [F9480786] (AR v2)
Copy OK

Track 20

Filename G:\Bill Nelson - The Practice Of Everyday Life. Celebrating 40 Years Of Recordings (2011) [8CD BoxSet] {Esoteric}\CD5\20 - Is This Alchemy.wav

Pre-gap length 0:00:02.18

Peak level 95.8 %
Extraction speed 6.5 X
Track quality 100.0 %
Test CRC 57768F01
Copy CRC 57768F01
Accurately ripped (confidence 3) [878D3829] (AR v2)
Copy OK

Track 21

Filename G:\Bill Nelson - The Practice Of Everyday Life. Celebrating 40 Years Of Recordings (2011) [8CD BoxSet] {Esoteric}\CD5\21 - Wait For Tomorrow.wav

Pre-gap length 0:00:02.04

Peak level 95.8 %
Extraction speed 6.1 X
Track quality 100.0 %
Test CRC 78D16621
Copy CRC 78D16621
Accurately ripped (confidence 3) [06FD1054] (AR v2)
Copy OK

Track 22

Filename G:\Bill Nelson - The Practice Of Everyday Life. Celebrating 40 Years Of Recordings (2011) [8CD BoxSet] {Esoteric}\CD5\22 - God Man Slain.wav

Pre-gap length 0:00:01.43

Peak level 99.4 %
Extraction speed 7.5 X
Track quality 100.0 %
Test CRC B2B4B552
Copy CRC B2B4B552
Accurately ripped (confidence 3) [74F1A463] (AR v2)
Copy OK

Track 23

Filename G:\Bill Nelson - The Practice Of Everyday Life. Celebrating 40 Years Of Recordings (2011) [8CD BoxSet] {Esoteric}\CD5\23 - Boat To Forever.wav

Pre-gap length 0:00:01.59

Peak level 99.4 %
Extraction speed 7.5 X
Track quality 100.0 %
Test CRC 8A0BC8DB
Copy CRC 8A0BC8DB
Accurately ripped (confidence 3) [723E60CA] (AR v2)
Copy OK

Track 24

Filename G:\Bill Nelson - The Practice Of Everyday Life. Celebrating 40 Years Of Recordings (2011) [8CD BoxSet] {Esoteric}\CD5\24 - The Invisible Man And The Unforgettable Girl.wav

Pre-gap length 0:00:02.09

Peak level 93.4 %
Extraction speed 7.5 X
Track quality 100.0 %
Test CRC 96D25EF1
Copy CRC 96D25EF1
Accurately ripped (confidence 3) [18A5C3DC] (AR v2)
Copy OK

Track 25

Filename G:\Bill Nelson - The Practice Of Everyday Life. Celebrating 40 Years Of Recordings (2011) [8CD BoxSet] {Esoteric}\CD5\25 - Dream Ships Set Sail.wav

Pre-gap length 0:00:01.49

Peak level 99.4 %
Extraction speed 7.6 X
Track quality 100.0 %
Test CRC B71E2C1E
Copy CRC B71E2C1E
Accurately ripped (confidence 3) [14F7DECF] (AR v2)
Copy OK

Track 26

Filename G:\Bill Nelson - The Practice Of Everyday Life. Celebrating 40 Years Of Recordings (2011) [8CD BoxSet] {Esoteric}\CD5\26 - Crimsworth Part One (excerpt).wav

Pre-gap length 0:00:01.31

Peak level 81.5 %
Extraction speed 5.9 X
Track quality 99.9 %
Test CRC E2CA6341
Copy CRC E2CA6341
Accurately ripped (confidence 3) [AD90A874] (AR v2)
Copy OK


All tracks accurately ripped

No errors occurred

End of status report

==== Log checksum C7D152F9A4E192E8789D5193DB38F4F1EC197987146B2EB3C967D04AD746D24D ====

Exact Audio Copy V1.0 beta 3 from 29. August 2011

EAC extraction logfile from 29. July 2013, 2:07

Bill Nelson / The Practice Of Everyday Life. Celebrating 40 Years Of Recordings (CD6)

Used drive : ATAPI iHAS124 B Adapter: 4 ID: 0

Read mode : Secure
Utilize accurate stream : Yes
Defeat audio cache : Yes
Make use of C2 pointers : No

Read offset correction : 6
Overread into Lead-In and Lead-Out : No
Fill up missing offset samples with silence : Yes
Delete leading and trailing silent blocks : No
Null samples used in CRC calculations : Yes
Used interface : Native Win32 interface for Win NT & 2000
Gap handling : Appended to previous track

Used output format : User Defined Encoder
Selected bitrate : 1024 kBit/s
Quality : High
Add ID3 tag : No
Command line compressor : C:\Program Files (x86)\FLAC\flac.exe
Additional command line options : -8 -V -T "ARTIST=%artist%" -T "TITLE=%title%" -T "ALBUM=%albumtitle%" -T "DATE=%year%" -T "TRACKNUMBER=%tracknr%" -T "TOTALTRACKS=%numtracks%" -T "GENRE=%genre%" -T "ALBUMARTIST=%albumartist%" -T "ALBUM ARTIST=%albumartist%" -T "COMMENT=EAC Secure Mode, Test & Copy, AccurateRip, FLAC -8" %source%


TOC of the extracted CD

Track | Start | Length | Start sector | End sector
––––––––––––––––––––––––––––-
1 | 0:00.00 | 2:23.53 | 0 | 10777
2 | 2:23.53 | 4:07.22 | 10778 | 29324
3 | 6:31.00 | 4:10.54 | 29325 | 48128
4 | 10:41.54 | 4:10.18 | 48129 | 66896
5 | 14:51.72 | 4:00.34 | 66897 | 84930
6 | 18:52.31 | 3:23.72 | 84931 | 100227
7 | 22:16.28 | 3:33.68 | 100228 | 116270
8 | 25:50.21 | 3:51.57 | 116271 | 133652
9 | 29:42.03 | 2:17.72 | 133653 | 143999
10 | 32:00.00 | 3:36.25 | 144000 | 160224
11 | 35:36.25 | 2:56.45 | 160225 | 173469
12 | 38:32.70 | 3:43.44 | 173470 | 190238
13 | 42:16.39 | 2:58.43 | 190239 | 203631
14 | 45:15.07 | 2:16.50 | 203632 | 213881
15 | 47:31.57 | 5:51.51 | 213882 | 240257
16 | 53:23.33 | 3:51.31 | 240258 | 257613
17 | 57:14.64 | 4:05.10 | 257614 | 275998
18 | 61:19.74 | 3:41.46 | 275999 | 292619
19 | 65:01.45 | 3:56.47 | 292620 | 310366
20 | 68:58.17 | 2:12.56 | 310367 | 320322
21 | 71:10.73 | 5:06.11 | 320323 | 343283
22 | 76:17.09 | 1:53.08 | 343284 | 351766


Track 1

Filename G:\Bill Nelson - The Practice Of Everyday Life. Celebrating 40 Years Of Recordings (2011) [8CD BoxSet] {Esoteric}\CD6\01 - Big Noise In Twang Town.wav

Pre-gap length 0:00:02.00

Peak level 67.3 %
Extraction speed 3.4 X
Track quality 100.0 %
Test CRC 356EFFFE
Copy CRC 356EFFFE
Accurately ripped (confidence 3) [302DA0C6] (AR v2)
Copy OK

Track 2

Filename G:\Bill Nelson - The Practice Of Everyday Life. Celebrating 40 Years Of Recordings (2011) [8CD BoxSet] {Esoteric}\CD6\02 - Pink Buddha Blues.wav

Pre-gap length 0:00:01.73

Peak level 74.8 %
Extraction speed 3.3 X
Track quality 99.9 %
Test CRC 11AFB8F9
Copy CRC 11AFB8F9
Accurately ripped (confidence 3) [2AEDD718] (AR v2)
Copy OK

Track 3

Filename G:\Bill Nelson - The Practice Of Everyday Life. Celebrating 40 Years Of Recordings (2011) [8CD BoxSet] {Esoteric}\CD6\03 - Her Presence In Flowers.wav

Pre-gap length 0:00:02.00

Peak level 40.1 %
Extraction speed 4.5 X
Track quality 100.0 %
Test CRC C2A65605
Copy CRC C2A65605
Accurately ripped (confidence 3) [0F199AE1] (AR v2)
Copy OK

Track 4

Filename G:\Bill Nelson - The Practice Of Everyday Life. Celebrating 40 Years Of Recordings (2011) [8CD BoxSet] {Esoteric}\CD6\04 - Big River.wav

Pre-gap length 0:00:01.70

Peak level 98.6 %
Extraction speed 4.8 X
Track quality 100.0 %
Test CRC A4B7DAA8
Copy CRC A4B7DAA8
Accurately ripped (confidence 3) [7B8ECB64] (AR v2)
Copy OK

Track 5

Filename G:\Bill Nelson - The Practice Of Everyday Life. Celebrating 40 Years Of Recordings (2011) [8CD BoxSet] {Esoteric}\CD6\05 - The Big Illumination.wav

Pre-gap length 0:00:01.59

Peak level 99.4 %
Extraction speed 5.0 X
Track quality 100.0 %
Test CRC 858AAA1F
Copy CRC 858AAA1F
Accurately ripped (confidence 3) [158E0A65] (AR v2)
Copy OK

Track 6

Filename G:\Bill Nelson - The Practice Of Everyday Life. Celebrating 40 Years Of Recordings (2011) [8CD BoxSet] {Esoteric}\CD6\06 - Buddha Head.wav

Pre-gap length 0:00:02.07

Peak level 92.8 %
Extraction speed 5.1 X
Track quality 100.0 %
Test CRC FB32AE08
Copy CRC FB32AE08
Accurately ripped (confidence 3) [BC252F5D] (AR v2)
Copy OK

Track 7

Filename G:\Bill Nelson - The Practice Of Everyday Life. Celebrating 40 Years Of Recordings (2011) [8CD BoxSet] {Esoteric}\CD6\07 - Begin To Burn.wav

Pre-gap length 0:00:01.70

Peak level 97.5 %
Extraction speed 5.4 X
Track quality 100.0 %
Test CRC E1C25026
Copy CRC E1C25026
Accurately ripped (confidence 3) [900C267F] (AR v2)
Copy OK

Track 8

Filename G:\Bill Nelson - The Practice Of Everyday Life. Celebrating 40 Years Of Recordings (2011) [8CD BoxSet] {Esoteric}\CD6\08 - Heaven's Happy Hemisphere.wav

Pre-gap length 0:00:02.08

Peak level 87.5 %
Extraction speed 4.5 X
Track quality 99.9 %
Test CRC BA8528B2
Copy CRC BA8528B2
Accurately ripped (confidence 3) [7183F791] (AR v2)
Copy OK

Track 9

Filename G:\Bill Nelson - The Practice Of Everyday Life. Celebrating 40 Years Of Recordings (2011) [8CD BoxSet] {Esoteric}\CD6\09 - It's All True.wav

Pre-gap length 0:00:02.10

Peak level 99.4 %
Extraction speed 5.3 X
Track quality 100.0 %
Test CRC FA56583C
Copy CRC FA56583C
Accurately ripped (confidence 3) [BE795CBB] (AR v2)
Copy OK

Track 10

Filename G:\Bill Nelson - The Practice Of Everyday Life. Celebrating 40 Years Of Recordings (2011) [8CD BoxSet] {Esoteric}\CD6\10 - Year 44 (The Birthday Song).wav

Pre-gap length 0:00:01.72

Peak level 90.3 %
Extraction speed 5.9 X
Track quality 100.0 %
Test CRC C72F78DC
Copy CRC C72F78DC
Accurately ripped (confidence 3) [5D05EAE3] (AR v2)
Copy OK

Track 11

Filename G:\Bill Nelson - The Practice Of Everyday Life. Celebrating 40 Years Of Recordings (2011) [8CD BoxSet] {Esoteric}\CD6\11 - Dreamnoise And Angel.wav

Pre-gap length 0:00:02.09

Peak level 92.2 %
Extraction speed 4.4 X
Track quality 99.9 %
Test CRC A7DF230D
Copy CRC A7DF230D
Accurately ripped (confidence 3) [139347AF] (AR v2)
Copy OK

Track 12

Filename G:\Bill Nelson - The Practice Of Everyday Life. Celebrating 40 Years Of Recordings (2011) [8CD BoxSet] {Esoteric}\CD6\12 - No Fool For You.wav

Pre-gap length 0:00:02.09

Peak level 95.3 %
Extraction speed 6.3 X
Track quality 100.0 %
Test CRC 8D512494
Copy CRC 8D512494
Accurately ripped (confidence 3) [52EE3A37] (AR v2)
Copy OK

Track 13

Filename G:\Bill Nelson - The Practice Of Everyday Life. Celebrating 40 Years Of Recordings (2011) [8CD BoxSet] {Esoteric}\CD6\13 - On A Train I Never Boarded.wav

Pre-gap length 0:00:02.01

Peak level 99.4 %
Extraction speed 6.3 X
Track quality 100.0 %
Test CRC 75140AD5
Copy CRC 75140AD5
Accurately ripped (confidence 3) [1BA1C507] (AR v2)
Copy OK

Track 14

Filename G:\Bill Nelson - The Practice Of Everyday Life. Celebrating 40 Years Of Recordings (2011) [8CD BoxSet] {Esoteric}\CD6\14 - Hold On To Your Heart.wav

Pre-gap length 0:00:02.01

Peak level 99.4 %
Extraction speed 6.0 X
Track quality 100.0 %
Test CRC 215A176F
Copy CRC 215A176F
Accurately ripped (confidence 3) [29BEB8A8] (AR v2)
Copy OK

Track 15

Filename G:\Bill Nelson - The Practice Of Everyday Life. Celebrating 40 Years Of Recordings (2011) [8CD BoxSet] {Esoteric}\CD6\15 - Deeply Dazzled.wav

Pre-gap length 0:00:02.13

Peak level 79.9 %
Extraction speed 7.3 X
Track quality 100.0 %
Test CRC 940E96E3
Copy CRC 940E96E3
Accurately ripped (confidence 3) [1E45BE42] (AR v2)
Copy OK

Track 16

Filename G:\Bill Nelson - The Practice Of Everyday Life. Celebrating 40 Years Of Recordings (2011) [8CD BoxSet] {Esoteric}\CD6\16 - Memory Babe.wav

Pre-gap length 0:00:02.09

Peak level 95.0 %
Extraction speed 5.6 X
Track quality 99.9 %
Test CRC 835E297A
Copy CRC 835E297A
Accurately ripped (confidence 3) [92A849DD] (AR v2)
Copy OK

Track 17

Filename G:\Bill Nelson - The Practice Of Everyday Life. Celebrating 40 Years Of Recordings (2011) [8CD BoxSet] {Esoteric}\CD6\17 - Zoom Sequence.wav

Pre-gap length 0:00:01.58

Peak level 83.0 %
Extraction speed 7.4 X
Track quality 100.0 %
Test CRC 94F168EB
Copy CRC 94F168EB
Accurately ripped (confidence 3) [144FB39A] (AR v2)
Copy OK

Track 18

Filename G:\Bill Nelson - The Practice Of Everyday Life. Celebrating 40 Years Of Recordings (2011) [8CD BoxSet] {Esoteric}\CD6\18 - Quarter Moons And Stars.wav

Pre-gap length 0:00:02.12

Peak level 88.1 %
Extraction speed 7.4 X
Track quality 100.0 %
Test CRC 7B60E1B4
Copy CRC 7B60E1B4
Accurately ripped (confidence 3) [D7B070AC] (AR v2)
Copy OK

Track 19

Filename G:\Bill Nelson - The Practice Of Everyday Life. Celebrating 40 Years Of Recordings (2011) [8CD BoxSet] {Esoteric}\CD6\19 - Candyland.wav

Pre-gap length 0:00:02.02

Peak level 93.0 %
Extraction speed 7.6 X
Track quality 100.0 %
Test CRC A952DC0C
Copy CRC A952DC0C
Accurately ripped (confidence 3) [42B4CF4A] (AR v2)
Copy OK

Track 20

Filename G:\Bill Nelson - The Practice Of Everyday Life. Celebrating 40 Years Of Recordings (2011) [8CD BoxSet] {Esoteric}\CD6\20 - Sun At Six Windows.wav

Pre-gap length 0:00:02.10

Peak level 64.7 %
Extraction speed 7.0 X
Track quality 100.0 %
Test CRC 7C396095
Copy CRC 7C396095
Accurately ripped (confidence 3) [1961FC7C] (AR v2)
Copy OK

Track 21

Filename G:\Bill Nelson - The Practice Of Everyday Life. Celebrating 40 Years Of Recordings (2011) [8CD BoxSet] {Esoteric}\CD6\21 - Queer Weather.wav

Pre-gap length 0:00:02.07

Peak level 81.8 %
Extraction speed 8.1 X
Track quality 100.0 %
Test CRC C2555F02
Copy CRC C2555F02
Accurately ripped (confidence 3) [FB57880B] (AR v2)
Copy OK

Track 22

Filename G:\Bill Nelson - The Practice Of Everyday Life. Celebrating 40 Years Of Recordings (2011) [8CD BoxSet] {Esoteric}\CD6\22 - The Girl I Never Forgot.wav

Pre-gap length 0:00:01.67

Peak level 74.1 %
Extraction speed 7.0 X
Track quality 100.0 %
Test CRC 8600A8DF
Copy CRC 8600A8DF
Accurately ripped (confidence 3) [0623658D] (AR v2)
Copy OK


All tracks accurately ripped

No errors occurred

End of status report

==== Log checksum 05A6F7A28981C627279ED493390D9A773E17A81FC4C41C0BCE842F7D87887B79 ====

Exact Audio Copy V1.0 beta 3 from 29. August 2011

EAC extraction logfile from 29. July 2013, 2:50

Bill Nelson / The Practice Of Everyday Life. Celebrating 40 Years Of Recordings (CD7)

Used drive : ATAPI iHAS124 B Adapter: 4 ID: 0

Read mode : Secure
Utilize accurate stream : Yes
Defeat audio cache : Yes
Make use of C2 pointers : No

Read offset correction : 6
Overread into Lead-In and Lead-Out : No
Fill up missing offset samples with silence : Yes
Delete leading and trailing silent blocks : No
Null samples used in CRC calculations : Yes
Used interface : Native Win32 interface for Win NT & 2000
Gap handling : Appended to previous track

Used output format : User Defined Encoder
Selected bitrate : 1024 kBit/s
Quality : High
Add ID3 tag : No
Command line compressor : C:\Program Files (x86)\FLAC\flac.exe
Additional command line options : -8 -V -T "ARTIST=%artist%" -T "TITLE=%title%" -T "ALBUM=%albumtitle%" -T "DATE=%year%" -T "TRACKNUMBER=%tracknr%" -T "TOTALTRACKS=%numtracks%" -T "GENRE=%genre%" -T "ALBUMARTIST=%albumartist%" -T "ALBUM ARTIST=%albumartist%" -T "COMMENT=EAC Secure Mode, Test & Copy, AccurateRip, FLAC -8" %source%


TOC of the extracted CD

Track | Start | Length | Start sector | End sector
––––––––––––––––––––––––––––-
1 | 0:00.00 | 4:24.21 | 0 | 19820
2 | 4:24.21 | 4:22.74 | 19821 | 39544
3 | 8:47.20 | 5:23.37 | 39545 | 63806
4 | 14:10.57 | 4:09.59 | 63807 | 82540
5 | 18:20.41 | 3:32.70 | 82541 | 98510
6 | 21:53.36 | 3:20.07 | 98511 | 113517
7 | 25:13.43 | 8:12.50 | 113518 | 150467
8 | 33:26.18 | 6:14.67 | 150468 | 178584
9 | 39:41.10 | 2:47.71 | 178585 | 191180
10 | 42:29.06 | 4:29.68 | 191181 | 211423
11 | 46:58.74 | 4:33.64 | 211424 | 231962
12 | 51:32.63 | 4:09.51 | 231963 | 250688
13 | 55:42.39 | 3:47.02 | 250689 | 267715
14 | 59:29.41 | 7:43.35 | 267716 | 302475
15 | 67:13.01 | 5:03.56 | 302476 | 325256
16 | 72:16.57 | 2:51.68 | 325257 | 338149
17 | 75:08.50 | 4:48.28 | 338150 | 359777


Track 1

Filename G:\Bill Nelson - The Practice Of Everyday Life. Celebrating 40 Years Of Recordings (2011) [8CD BoxSet] {Esoteric}\CD7\01 - Pointing At The Moon.wav

Pre-gap length 0:00:02.00

Peak level 71.6 %
Extraction speed 3.3 X
Track quality 99.9 %
Test CRC D7575E1C
Copy CRC D7575E1C
Accurately ripped (confidence 3) [727BFF7C] (AR v2)
Copy OK

Track 2

Filename G:\Bill Nelson - The Practice Of Everyday Life. Celebrating 40 Years Of Recordings (2011) [8CD BoxSet] {Esoteric}\CD7\02 - Dreamland Avenue.wav

Pre-gap length 0:00:02.09

Peak level 82.0 %
Extraction speed 4.4 X
Track quality 100.0 %
Test CRC 851C2AF8
Copy CRC 851C2AF8
Accurately ripped (confidence 3) [431E1CFA] (AR v2)
Copy OK

Track 3

Filename G:\Bill Nelson - The Practice Of Everyday Life. Celebrating 40 Years Of Recordings (2011) [8CD BoxSet] {Esoteric}\CD7\03 - Humming In The Void , Girl With The Thousand Watt Smile.wav

Pre-gap length 0:00:01.67

Peak level 95.3 %
Extraction speed 4.9 X
Track quality 100.0 %
Test CRC AFC44719
Copy CRC AFC44719
Accurately ripped (confidence 3) [4D1D00D8] (AR v2)
Copy OK

Track 4

Filename G:\Bill Nelson - The Practice Of Everyday Life. Celebrating 40 Years Of Recordings (2011) [8CD BoxSet] {Esoteric}\CD7\04 - Big Yellow Moon.wav

Pre-gap length 0:00:02.04

Peak level 93.1 %
Extraction speed 5.1 X
Track quality 100.0 %
Test CRC 017E4978
Copy CRC 017E4978
Accurately ripped (confidence 3) [65ADBDF6] (AR v2)
Copy OK

Track 5

Filename G:\Bill Nelson - The Practice Of Everyday Life. Celebrating 40 Years Of Recordings (2011) [8CD BoxSet] {Esoteric}\CD7\05 - Planet Of Guitars.wav

Pre-gap length 0:00:01.52

Peak level 92.7 %
Extraction speed 5.2 X
Track quality 100.0 %
Test CRC 75CAD655
Copy CRC 75CAD655
Accurately ripped (confidence 3) [020D7E5E] (AR v2)
Copy OK

Track 6

Filename G:\Bill Nelson - The Practice Of Everyday Life. Celebrating 40 Years Of Recordings (2011) [8CD BoxSet] {Esoteric}\CD7\06 - Wonderful Weather In Woodgates Lane.wav

Pre-gap length 0:00:01.70

Peak level 83.8 %
Extraction speed 5.3 X
Track quality 100.0 %
Test CRC 8DB7184D
Copy CRC 8DB7184D
Accurately ripped (confidence 3) [55AAAD23] (AR v2)
Copy OK

Track 7

Filename G:\Bill Nelson - The Practice Of Everyday Life. Celebrating 40 Years Of Recordings (2011) [8CD BoxSet] {Esoteric}\CD7\07 - The Ceremonial Arrival Of The Great Golden Cloud.wav

Pre-gap length 0:00:01.57

Peak level 55.4 %
Extraction speed 5.6 X
Track quality 99.9 %
Test CRC F63FAC23
Copy CRC F63FAC23
Accurately ripped (confidence 3) [EFEB1149] (AR v2)
Copy OK

Track 8

Filename G:\Bill Nelson - The Practice Of Everyday Life. Celebrating 40 Years Of Recordings (2011) [8CD BoxSet] {Esoteric}\CD7\08 - Moments Catch Fire On The Crests Of Waves.wav

Pre-gap length 0:00:01.70

Peak level 63.9 %
Extraction speed 6.6 X
Track quality 100.0 %
Test CRC C1149A7E
Copy CRC C1149A7E
Accurately ripped (confidence 3) [D1094C6A] (AR v2)
Copy OK

Track 9

Filename G:\Bill Nelson - The Practice Of Everyday Life. Celebrating 40 Years Of Recordings (2011) [8CD BoxSet] {Esoteric}\CD7\09 - Cascade (Improvisation For Three Harp Guitars).wav

Pre-gap length 0:00:02.06

Peak level 69.4 %
Extraction speed 4.4 X
Track quality 99.9 %
Test CRC 3A3C3231
Copy CRC 3A3C3231
Accurately ripped (confidence 3) [14DC1462] (AR v2)
Copy OK

Track 10

Filename G:\Bill Nelson - The Practice Of Everyday Life. Celebrating 40 Years Of Recordings (2011) [8CD BoxSet] {Esoteric}\CD7\10 - Superserene.wav

Pre-gap length 0:00:01.63

Peak level 52.1 %
Extraction speed 5.4 X
Track quality 99.9 %
Test CRC E23641F6
Copy CRC E23641F6
Accurately ripped (confidence 3) [520DA00E] (AR v2)
Copy OK

Track 11

Filename G:\Bill Nelson - The Practice Of Everyday Life. Celebrating 40 Years Of Recordings (2011) [8CD BoxSet] {Esoteric}\CD7\11 - Young Dreams Whirled Away.wav

Pre-gap length 0:00:01.45

Peak level 56.1 %
Extraction speed 5.3 X
Track quality 99.9 %
Test CRC BDBE62AD
Copy CRC BDBE62AD
Accurately ripped (confidence 3) [B239E046] (AR v2)
Copy OK

Track 12

Filename G:\Bill Nelson - The Practice Of Everyday Life. Celebrating 40 Years Of Recordings (2011) [8CD BoxSet] {Esoteric}\CD7\12 - Fearless Beauty (Kisses And Cream).wav

Pre-gap length 0:00:01.31

Peak level 55.7 %
Extraction speed 5.7 X
Track quality 99.9 %
Test CRC 63B50BF8
Copy CRC 63B50BF8
Accurately ripped (confidence 3) [AE62ACBC] (AR v2)
Copy OK

Track 13

Filename G:\Bill Nelson - The Practice Of Everyday Life. Celebrating 40 Years Of Recordings (2011) [8CD BoxSet] {Esoteric}\CD7\13 - The Golden Days Of Radio (Compact Mix).wav

Pre-gap length 0:00:01.40

Peak level 50.2 %
Extraction speed 7.2 X
Track quality 100.0 %
Test CRC AEA4307C
Copy CRC AEA4307C
Accurately ripped (confidence 3) [5F745C35] (AR v2)
Copy OK

Track 14

Filename G:\Bill Nelson - The Practice Of Everyday Life. Celebrating 40 Years Of Recordings (2011) [8CD BoxSet] {Esoteric}\CD7\14 - The Trace We Left When All Was Gone.wav

Pre-gap length 0:00:01.20

Peak level 52.0 %
Extraction speed 7.1 X
Track quality 99.9 %
Test CRC 0A4D9BB7
Copy CRC 0A4D9BB7
Accurately ripped (confidence 3) [D9188FE9] (AR v2)
Copy OK

Track 15

Filename G:\Bill Nelson - The Practice Of Everyday Life. Celebrating 40 Years Of Recordings (2011) [8CD BoxSet] {Esoteric}\CD7\15 - Once I Had A Time Machine.wav

Pre-gap length 0:00:01.30

Peak level 55.7 %
Extraction speed 7.1 X
Track quality 99.9 %
Test CRC 6F3824B1
Copy CRC 6F3824B1
Accurately ripped (confidence 3) [8777E482] (AR v2)
Copy OK

Track 16

Filename G:\Bill Nelson - The Practice Of Everyday Life. Celebrating 40 Years Of Recordings (2011) [8CD BoxSet] {Esoteric}\CD7\16 - Music Spins My Globe.wav

Pre-gap length 0:00:01.30

Peak level 53.0 %
Extraction speed 7.4 X
Track quality 100.0 %
Test CRC F7ACDE5F
Copy CRC F7ACDE5F
Accurately ripped (confidence 3) [BD9F15F4] (AR v2)
Copy OK

Track 17

Filename G:\Bill Nelson - The Practice Of Everyday Life. Celebrating 40 Years Of Recordings (2011) [8CD BoxSet] {Esoteric}\CD7\17 - Moon Gold Palladium.wav

Pre-gap length 0:00:01.35

Peak level 52.1 %
Extraction speed 8.3 X
Track quality 100.0 %
Test CRC F29DA0AE
Copy CRC F29DA0AE
Accurately ripped (confidence 3) [F050AFE4] (AR v2)
Copy OK


All tracks accurately ripped

No errors occurred

End of status report

==== Log checksum 24A648D209998D1769161D2C27B859DFC0083C6838BAD1BDC6F8E9539E92BD1E ====

Exact Audio Copy V1.0 beta 3 from 29. August 2011

EAC extraction logfile from 29. July 2013, 3:15

Bill Nelson / The Practice Of Everyday Life. Celebrating 40 Years Of Recordings (CD8)

Used drive : ATAPI iHAS124 B Adapter: 4 ID: 0

Read mode : Secure
Utilize accurate stream : Yes
Defeat audio cache : Yes
Make use of C2 pointers : No

Read offset correction : 6
Overread into Lead-In and Lead-Out : No
Fill up missing offset samples with silence : Yes
Delete leading and trailing silent blocks : No
Null samples used in CRC calculations : Yes
Used interface : Native Win32 interface for Win NT & 2000
Gap handling : Appended to previous track

Used output format : User Defined Encoder
Selected bitrate : 1024 kBit/s
Quality : High
Add ID3 tag : No
Command line compressor : C:\Program Files (x86)\FLAC\flac.exe
Additional command line options : -8 -V -T "ARTIST=%artist%" -T "TITLE=%title%" -T "ALBUM=%albumtitle%" -T "DATE=%year%" -T "TRACKNUMBER=%tracknr%" -T "TOTALTRACKS=%numtracks%" -T "GENRE=%genre%" -T "ALBUMARTIST=%albumartist%" -T "ALBUM ARTIST=%albumartist%" -T "COMMENT=EAC Secure Mode, Test & Copy, AccurateRip, FLAC -8" %source%


TOC of the extracted CD

Track | Start | Length | Start sector | End sector
––––––––––––––––––––––––––––-
1 | 0:00.00 | 3:30.07 | 0 | 15756
2 | 3:30.07 | 3:02.47 | 15757 | 29453
3 | 6:32.54 | 4:05.57 | 29454 | 47885
4 | 10:38.36 | 5:35.64 | 47886 | 73074
5 | 16:14.25 | 3:21.38 | 73075 | 88187
6 | 19:35.63 | 3:31.25 | 88188 | 104037
7 | 23:07.13 | 6:50.48 | 104038 | 134835
8 | 29:57.61 | 4:34.49 | 134836 | 155434


Track 1

Filename G:\Bill Nelson - The Practice Of Everyday Life. Celebrating 40 Years Of Recordings (2011) [8CD BoxSet] {Esoteric}\CD8\01 - Rooms With Brittle Views.wav

Pre-gap length 0:00:02.00

Peak level 93.4 %
Extraction speed 3.3 X
Track quality 100.0 %
Test CRC A57DA02A
Copy CRC A57DA02A
Accurately ripped (confidence 3) [DD717488] (AR v2)
Copy OK

Track 2

Filename G:\Bill Nelson - The Practice Of Everyday Life. Celebrating 40 Years Of Recordings (2011) [8CD BoxSet] {Esoteric}\CD8\02 - Stay Young.wav

Pre-gap length 0:00:01.53

Peak level 93.7 %
Extraction speed 3.5 X
Track quality 100.0 %
Test CRC AF010019
Copy CRC AF010019
Accurately ripped (confidence 3) [BD8EF1BF] (AR v2)
Copy OK

Track 3

Filename G:\Bill Nelson - The Practice Of Everyday Life. Celebrating 40 Years Of Recordings (2011) [8CD BoxSet] {Esoteric}\CD8\03 - Sleep Cycle.wav

Pre-gap length 0:00:01.59

Peak level 85.0 %
Extraction speed 4.1 X
Track quality 100.0 %
Test CRC C054DC5F
Copy CRC C054DC5F
Accurately ripped (confidence 3) [867619AA] (AR v2)
Copy OK

Track 4

Filename G:\Bill Nelson - The Practice Of Everyday Life. Celebrating 40 Years Of Recordings (2011) [8CD BoxSet] {Esoteric}\CD8\04 - Jazz.wav

Pre-gap length 0:00:01.60

Peak level 97.1 %
Extraction speed 4.6 X
Track quality 100.0 %
Test CRC 9AA9478F
Copy CRC 9AA9478F
Accurately ripped (confidence 3) [8C056224] (AR v2)
Copy OK

Track 5

Filename G:\Bill Nelson - The Practice Of Everyday Life. Celebrating 40 Years Of Recordings (2011) [8CD BoxSet] {Esoteric}\CD8\05 - Dancing On A Knife's Edge.wav

Pre-gap length 0:00:01.41

Peak level 80.6 %
Extraction speed 3.6 X
Track quality 99.9 %
Test CRC 24FB3CF2
Copy CRC 24FB3CF2
Accurately ripped (confidence 3) [1AF03EFA] (AR v2)
Copy OK

Track 6

Filename G:\Bill Nelson - The Practice Of Everyday Life. Celebrating 40 Years Of Recordings (2011) [8CD BoxSet] {Esoteric}\CD8\06 - Time Tracking.wav

Pre-gap length 0:00:01.48

Peak level 84.5 %
Extraction speed 4.9 X
Track quality 100.0 %
Test CRC A071CDFA
Copy CRC A071CDFA
Accurately ripped (confidence 3) [CA4BC3DC] (AR v2)
Copy OK

Track 7

Filename G:\Bill Nelson - The Practice Of Everyday Life. Celebrating 40 Years Of Recordings (2011) [8CD BoxSet] {Esoteric}\CD8\07 - Contemplation.wav

Pre-gap length 0:00:01.59

Peak level 76.6 %
Extraction speed 5.7 X
Track quality 100.0 %
Test CRC 58ECB80D
Copy CRC 58ECB80D
Accurately ripped (confidence 3) [B0583600] (AR v2)
Copy OK

Track 8

Filename G:\Bill Nelson - The Practice Of Everyday Life. Celebrating 40 Years Of Recordings (2011) [8CD BoxSet] {Esoteric}\CD8\08 - Indiscretion.wav

Pre-gap length 0:00:01.30

Peak level 77.9 %
Extraction speed 5.8 X
Track quality 100.0 %
Test CRC 28E23ABC
Copy CRC 28E23ABC
Accurately ripped (confidence 3) [C22A2BDF] (AR v2)
Copy OK


All tracks accurately ripped

No errors occurred

End of status report

==== Log checksum EE51136F4CD1A95BFC4C7CA2647B22E2D67C43C9EE65665BB568FA918DE02865 ====


Bill Nelson - The Practice Of Everyday Life: Celebrating 40 Years Of Recordings (2011) {8CD BoxSet Esoteric COCDBOX 1002}

Bill Nelson - The Practice Of Everyday Life: Celebrating 40 Years Of Recordings (2011) {8CD BoxSet Esoteric COCDBOX 1002}

Bill Nelson - The Practice Of Everyday Life: Celebrating 40 Years Of Recordings (2011) {8CD BoxSet Esoteric COCDBOX 1002}


see more Bill Nelson…


===