Subcategories

Curiosity Killed The Cat - Misfits: The Mercury Years 1986-1990 (2018)

Posted By: delpotro
Curiosity Killed The Cat - Misfits: The Mercury Years 1986-1990 (2018)

Curiosity Killed The Cat - Misfits: The Mercury Years 1986-1990 (2018)
EAC Rip | FLAC (tracks+log+.cue) - 2 Gb | MP3 CBR 320 kbps - 690 Mb | Scans - 34 Mb | 05:01:20
Sophisti-pop | Label: Caroline Records

Misfits: The Mercury Years 1986-1990 is a new four-CD box set featuring eighties British pop band Curiosity Killed The Cat. Two and a half years in the making, this set has been compiled by SDE Editor Paul Sinclair and has been put together with the cooperation of the band. Curiosity Killed The Cat were fronted by the charismatic Ben Volpeliere-Pierrot and they enjoyed a number one album and a string of hits in the late 1980s, including Down To Earth, Ordinary Day, Name and Number and Misfit. The promo video for the latter was memorably filmed by – and co-starred – Andy Warhol, who took a shine to the band and invited them over to New York in 1986.

This new box set is a comprehensive exploration of the band’s classic era with Mercury Records and includes newly expanded versions of both 1987’s Keep Your Distance and Getahead (from 1989), with two further CDs of rare/unreleased remixes along with unheard songs and demos.

In total, 20 tracks are issued on CD for the very first time and amongst the 12 previously unheard demos are five songs never officially released. To top things off, this set includes two unheard mixes of the band’s biggest hit Down To Earth that were discovered in the archive while putting this set together!

The Mercury Years features newly mastered audio. All the demos were from the original quarter inch tapes, and the audio from the rest of this box set comes from various sources, including more quarter-inch reels, half-inch tapes, Umatics and similar. Most of the tapes were baked and transferred at Abbey Road Studios.
Tracklist:
Disc 1 (01:16:28)
1. Misfit (04:03)
2. Down To Earth (04:19)
3. Free (04:01)
4. Know What You Know (03:50)
5. Curiosity Killed The Cat (03:20)
6. Ordinary Day (03:51)
7. Mile High (04:04)
8. Red Lights (05:33)
9. Shallow Memory (04:25)
10. Misfit (Extended Mix) (06:53)
11. Man (03:55)
12. Corruption (Dub) (05:28)
13. Down To Earth (Extended Mix) (05:58)
14. Ordinary Day (Extraordinary Mix) (05:22)
15. Bullet (03:40)
16. Free (Dub Master) (07:46)

Disc 2 (01:16:36)
1. Name And Number (04:02)
2. Do Your Believin' (04:15)
3. Cascade (03:57)
4. First Place (04:32)
5. We Just Gotta Do It (For Us) (04:15)
6. Go Go Ahead (02:26)
7. Trees Don't Grow On Money (04:08)
8. Treat You So Well (04:15)
9. Who Are You (03:51)
10. Security Lady (04:10)
11. Something New, Something Blue (03:57)
12. Keep On Trying (04:58)
13. Name And Number (Extended Mix) (05:32)
14. Ball And Chain (04:38)
15. Name And Number (Club Sandwich Mix) (04:21)
16. Misfit (Jazzy Dub Remix '89) (04:43)
17. Name And Number (A Schizo Version) (04:26)
18. Name And Number (Jazzy Dub Version) (04:10)

Disc 3 (01:14:55)
1. Down To Earth (7" Version) (03:48)
2. Ordinary Day (Ordinary Version) (03:55)
3. Misfit (Extended Mix) (06:44)
4. Ordinary Day (Extended Version) (04:48)
5. Mile High (Mile Long Mix) (08:10)
6. Name And Number (Version) (03:49)
7. Ordinary Day (Version) (03:32)
8. Misfit (Dub) (08:56)
9. Down To Earth (Instrumental) (03:48)
10. Ordinary Day (Dub Mix) (03:38)
11. Misfit (Morales Extended Mix) (08:44)
12. Free (Instrumental) (04:59)
13. Misfit (Dub Mix) (04:04)
14. Cascade (Dub Mix) (06:00)

Disc 4 (01:15:36)
1. Free (Free Style) (05:46)
2. Name And Number (Hanging On Person To Person) (04:35)
3. Free (Free Form) (03:59)
4. Misfit (Club Mix) (05:23)
5. Free (Solo Style) (04:46)
6. Misfit (Demo) (03:10)
7. Wag (Know What You Know) (Demo) (04:09)
8. Curiosity Killed The Cat (Demo) (03:23)
9. Ordinary Day (Demo)(Early Version) (02:57)
10. Mile High (Demo) (03:22)
11. Red Lights (Demo) (05:27)
12. Shallow Memory (Demo) (02:57)
13. Easy (Demo)(Outtake) (03:38)
14. Now That You've Gone (Demo) (03:13)
15. Why (Demo) (03:29)
16. Out Of Curiosity (Demo) (04:02)
17. Hidden Informer (Demo) (03:26)
18. Down To Earth (Remix) (03:57)
19. Down To Earth (Instrumental Remix) (03:57)

Exact Audio Copy V1.3 from 2. September 2016

EAC extraction logfile from 22. June 2019, 18:07

Curiosity Killed The Cat / Keep Your Distance

Used drive : PLEXTOR PX-891SAF Adapter: 1 ID: 0

Read mode : Secure
Utilize accurate stream : Yes
Defeat audio cache : Yes
Make use of C2 pointers : No

Read offset correction : 6
Overread into Lead-In and Lead-Out : No
Fill up missing offset samples with silence : Yes
Delete leading and trailing silent blocks : No
Null samples used in CRC calculations : Yes
Used interface : Native Win32 interface for Win NT & 2000
Gap handling : Appended to previous track

Used output format : User Defined Encoder
Selected bitrate : 1024 kBit/s
Quality : High
Add ID3 tag : No
Command line compressor : C:\Program Files (x86)\Exact Audio Copy\Flac\flac.exe
Additional command line options : -8 -V -T "ARTIST=%artist%" -T "TITLE=%title%" -T "ALBUM=%albumtitle%" -T "DATE=%year%" -T "TRACKNUMBER=%tracknr%" -T "GENRE=%genre%" -T "PERFORMER=%albuminterpret%" -T "COMPOSER=%composer%" %haslyrics%–tag-from-file=LYRICS="%lyricsfile%"%haslyrics% -T "ALBUMARTIST=%albumartist%" -T "DISCNUMBER=%cdnumber%" -T "TOTALDISCS=%totalcds%" -T "TOTALTRACKS=%numtracks%" -T "COMMENT=%comment%" %source% -o %dest%


TOC of the extracted CD

Track | Start | Length | Start sector | End sector
––––––––––––––––––––––––––––-
1 | 0:00.00 | 4:04.17 | 0 | 18316
2 | 4:04.17 | 4:20.14 | 18317 | 37830
3 | 8:24.31 | 4:00.45 | 37831 | 55875
4 | 12:25.01 | 3:52.65 | 55876 | 73340
5 | 16:17.66 | 3:11.70 | 73341 | 87735
6 | 19:29.61 | 3:53.07 | 87736 | 105217
7 | 23:22.68 | 4:07.45 | 105218 | 123787
8 | 27:30.38 | 5:32.30 | 123788 | 148717
9 | 33:02.68 | 4:33.17 | 148718 | 169209
10 | 37:36.10 | 7:06.19 | 169210 | 201178
11 | 44:42.29 | 3:51.29 | 201179 | 218532
12 | 48:33.58 | 5:29.27 | 218533 | 243234
13 | 54:03.10 | 6:02.01 | 243235 | 270385
14 | 60:05.11 | 5:23.72 | 270386 | 294682
15 | 65:29.08 | 3:38.30 | 294683 | 311062
16 | 69:07.38 | 7:50.43 | 311063 | 346355


Track 1

Filename D:\#New wav + flac\Curiosity Killed The Cat - Misfits The Mercury Years 1986-1990\cd 1 Curiosity Killed The Cat - Keep Your Distance\01. Curiosity Killed the Cat - Misfit.wav

Pre-gap length 0:00:02.00

Peak level 94.5 %
Extraction speed 5.7 X
Track quality 100.0 %
Test CRC 658A28AF
Copy CRC 658A28AF
Accurately ripped (confidence 6) [73002A1B] (AR v2)
Copy OK

Track 2

Filename D:\#New wav + flac\Curiosity Killed The Cat - Misfits The Mercury Years 1986-1990\cd 1 Curiosity Killed The Cat - Keep Your Distance\02. Curiosity Killed the Cat - Down To Earth.wav

Peak level 94.5 %
Extraction speed 6.4 X
Track quality 100.0 %
Test CRC E337C3A0
Copy CRC E337C3A0
Accurately ripped (confidence 6) [81938A32] (AR v2)
Copy OK

Track 3

Filename D:\#New wav + flac\Curiosity Killed The Cat - Misfits The Mercury Years 1986-1990\cd 1 Curiosity Killed The Cat - Keep Your Distance\03. Curiosity Killed the Cat - Free.wav

Peak level 94.5 %
Extraction speed 6.7 X
Track quality 100.0 %
Test CRC E34B2A6D
Copy CRC E34B2A6D
Accurately ripped (confidence 6) [4876591A] (AR v2)
Copy OK

Track 4

Filename D:\#New wav + flac\Curiosity Killed The Cat - Misfits The Mercury Years 1986-1990\cd 1 Curiosity Killed The Cat - Keep Your Distance\04. Curiosity Killed the Cat - Know What You Know.wav

Peak level 94.5 %
Extraction speed 7.1 X
Track quality 100.0 %
Test CRC 0267CC86
Copy CRC 0267CC86
Accurately ripped (confidence 6) [883EE6A1] (AR v2)
Copy OK

Track 5

Filename D:\#New wav + flac\Curiosity Killed The Cat - Misfits The Mercury Years 1986-1990\cd 1 Curiosity Killed The Cat - Keep Your Distance\05. Curiosity Killed the Cat - Curiosity Killed The Cat.wav

Peak level 94.5 %
Extraction speed 7.3 X
Track quality 100.0 %
Test CRC F02982F4
Copy CRC F02982F4
Accurately ripped (confidence 6) [D091871E] (AR v2)
Copy OK

Track 6

Filename D:\#New wav + flac\Curiosity Killed The Cat - Misfits The Mercury Years 1986-1990\cd 1 Curiosity Killed The Cat - Keep Your Distance\06. Curiosity Killed the Cat - Ordinary Day.wav

Peak level 94.5 %
Extraction speed 7.8 X
Track quality 100.0 %
Test CRC ABF03C3E
Copy CRC ABF03C3E
Accurately ripped (confidence 6) [4AC5E0D5] (AR v2)
Copy OK

Track 7

Filename D:\#New wav + flac\Curiosity Killed The Cat - Misfits The Mercury Years 1986-1990\cd 1 Curiosity Killed The Cat - Keep Your Distance\07. Curiosity Killed the Cat - Mile High.wav

Peak level 94.5 %
Extraction speed 8.2 X
Track quality 100.0 %
Test CRC C6F26C11
Copy CRC C6F26C11
Accurately ripped (confidence 6) [67E7431B] (AR v2)
Copy OK

Track 8

Filename D:\#New wav + flac\Curiosity Killed The Cat - Misfits The Mercury Years 1986-1990\cd 1 Curiosity Killed The Cat - Keep Your Distance\08. Curiosity Killed the Cat - Red Lights.wav

Peak level 94.5 %
Extraction speed 8.9 X
Track quality 100.0 %
Test CRC 3F64D60B
Copy CRC 3F64D60B
Accurately ripped (confidence 6) [BE8248CC] (AR v2)
Copy OK

Track 9

Filename D:\#New wav + flac\Curiosity Killed The Cat - Misfits The Mercury Years 1986-1990\cd 1 Curiosity Killed The Cat - Keep Your Distance\09. Curiosity Killed the Cat - Shallow Memory.wav

Peak level 94.5 %
Extraction speed 7.6 X
Track quality 99.9 %
Test CRC B406C9AD
Copy CRC B406C9AD
Accurately ripped (confidence 6) [7EA3A514] (AR v2)
Copy OK

Track 10

Filename D:\#New wav + flac\Curiosity Killed The Cat - Misfits The Mercury Years 1986-1990\cd 1 Curiosity Killed The Cat - Keep Your Distance\10. Curiosity Killed the Cat - Misfit (Extended Mix).wav

Pre-gap length 0:00:03.30

Peak level 94.5 %
Extraction speed 8.8 X
Track quality 99.9 %
Test CRC 8D1F6DF3
Copy CRC 8D1F6DF3
Accurately ripped (confidence 6) [AE14B87B] (AR v2)
Copy OK

Track 11

Filename D:\#New wav + flac\Curiosity Killed The Cat - Misfits The Mercury Years 1986-1990\cd 1 Curiosity Killed The Cat - Keep Your Distance\11. Curiosity Killed the Cat - Man.wav

Peak level 94.5 %
Extraction speed 8.1 X
Track quality 99.9 %
Test CRC 252B6E27
Copy CRC 252B6E27
Accurately ripped (confidence 6) [7B926D59] (AR v2)
Copy OK

Track 12

Filename D:\#New wav + flac\Curiosity Killed The Cat - Misfits The Mercury Years 1986-1990\cd 1 Curiosity Killed The Cat - Keep Your Distance\12. Curiosity Killed the Cat - Corruption (Dub).wav

Pre-gap length 0:00:00.08

Peak level 94.5 %
Extraction speed 9.0 X
Track quality 99.9 %
Test CRC FF99208B
Copy CRC FF99208B
Accurately ripped (confidence 6) [2A747258] (AR v2)
Copy OK

Track 13

Filename D:\#New wav + flac\Curiosity Killed The Cat - Misfits The Mercury Years 1986-1990\cd 1 Curiosity Killed The Cat - Keep Your Distance\13. Curiosity Killed the Cat - Down To Earth (Extended Mix).wav

Pre-gap length 0:00:00.08

Peak level 94.5 %
Extraction speed 11.1 X
Track quality 100.0 %
Test CRC 1879A6EA
Copy CRC 1879A6EA
Accurately ripped (confidence 6) [29C98082] (AR v2)
Copy OK

Track 14

Filename D:\#New wav + flac\Curiosity Killed The Cat - Misfits The Mercury Years 1986-1990\cd 1 Curiosity Killed The Cat - Keep Your Distance\14. Curiosity Killed the Cat - Ordinary Day (Extraordinary Mix).wav

Pre-gap length 0:00:00.08

Peak level 94.5 %
Extraction speed 11.2 X
Track quality 100.0 %
Test CRC B628C89D
Copy CRC B628C89D
Accurately ripped (confidence 6) [6313F8EB] (AR v2)
Copy OK

Track 15

Filename D:\#New wav + flac\Curiosity Killed The Cat - Misfits The Mercury Years 1986-1990\cd 1 Curiosity Killed The Cat - Keep Your Distance\15. Curiosity Killed the Cat - Bullet.wav

Pre-gap length 0:00:00.09

Peak level 94.5 %
Extraction speed 10.9 X
Track quality 100.0 %
Test CRC F021563C
Copy CRC F021563C
Accurately ripped (confidence 6) [F9B23E1F] (AR v2)
Copy OK

Track 16

Filename D:\#New wav + flac\Curiosity Killed The Cat - Misfits The Mercury Years 1986-1990\cd 1 Curiosity Killed The Cat - Keep Your Distance\16. Curiosity Killed the Cat - Free (Dub Master).wav

Pre-gap length 0:00:00.09

Peak level 94.5 %
Extraction speed 12.1 X
Track quality 100.0 %
Test CRC A69650CF
Copy CRC A69650CF
Accurately ripped (confidence 5) [449486CE] (AR v2)
Copy OK


All tracks accurately ripped

No errors occurred

End of status report

–– CUETools DB Plugin V2.1.6

[CTDB TOCID: c9E07lXDR_2IvtVx3gHqdKUhZDU-] found
Submit result: c9E07lXDR_2IvtVx3gHqdKUhZDU- has been confirmed
Track | CTDB Status
1 | (13/13) Accurately ripped
2 | (13/13) Accurately ripped
3 | (13/13) Accurately ripped
4 | (13/13) Accurately ripped
5 | (13/13) Accurately ripped
6 | (13/13) Accurately ripped
7 | (13/13) Accurately ripped
8 | (13/13) Accurately ripped
9 | (13/13) Accurately ripped
10 | (13/13) Accurately ripped
11 | (13/13) Accurately ripped
12 | (13/13) Accurately ripped
13 | (13/13) Accurately ripped
14 | (13/13) Accurately ripped
15 | (13/13) Accurately ripped
16 | (12/13) Accurately ripped


==== Log checksum A9BAC4BAEC967067221E982FB72C8DEE6776A2612C7A9F1A5623EB16E09A5E1D ====

––––––––––––––––––––––––––––––

Exact Audio Copy V1.3 from 2. September 2016

EAC extraction logfile from 22. June 2019, 18:07

Curiosity Killed The Cat / Keep Your Distance

Used drive : PLEXTOR PX-891SAF Adapter: 1 ID: 0

Read mode : Secure
Utilize accurate stream : Yes
Defeat audio cache : Yes
Make use of C2 pointers : No

Read offset correction : 6
Overread into Lead-In and Lead-Out : No
Fill up missing offset samples with silence : Yes
Delete leading and trailing silent blocks : No
Null samples used in CRC calculations : Yes
Used interface : Native Win32 interface for Win NT & 2000
Gap handling : Appended to previous track

Used output format : User Defined Encoder
Selected bitrate : 1024 kBit/s
Quality : High
Add ID3 tag : No
Command line compressor : C:\Program Files (x86)\Exact Audio Copy\Flac\flac.exe
Additional command line options : -8 -V -T "ARTIST=%artist%" -T "TITLE=%title%" -T "ALBUM=%albumtitle%" -T "DATE=%year%" -T "TRACKNUMBER=%tracknr%" -T "GENRE=%genre%" -T "PERFORMER=%albuminterpret%" -T "COMPOSER=%composer%" %haslyrics%–tag-from-file=LYRICS="%lyricsfile%"%haslyrics% -T "ALBUMARTIST=%albumartist%" -T "DISCNUMBER=%cdnumber%" -T "TOTALDISCS=%totalcds%" -T "TOTALTRACKS=%numtracks%" -T "COMMENT=%comment%" %source% -o %dest%


TOC of the extracted CD

Track | Start | Length | Start sector | End sector
––––––––––––––––––––––––––––-
1 | 0:00.00 | 4:04.17 | 0 | 18316
2 | 4:04.17 | 4:20.14 | 18317 | 37830
3 | 8:24.31 | 4:00.45 | 37831 | 55875
4 | 12:25.01 | 3:52.65 | 55876 | 73340
5 | 16:17.66 | 3:11.70 | 73341 | 87735
6 | 19:29.61 | 3:53.07 | 87736 | 105217
7 | 23:22.68 | 4:07.45 | 105218 | 123787
8 | 27:30.38 | 5:32.30 | 123788 | 148717
9 | 33:02.68 | 4:33.17 | 148718 | 169209
10 | 37:36.10 | 7:06.19 | 169210 | 201178
11 | 44:42.29 | 3:51.29 | 201179 | 218532
12 | 48:33.58 | 5:29.27 | 218533 | 243234
13 | 54:03.10 | 6:02.01 | 243235 | 270385
14 | 60:05.11 | 5:23.72 | 270386 | 294682
15 | 65:29.08 | 3:38.30 | 294683 | 311062
16 | 69:07.38 | 7:50.43 | 311063 | 346355


Track 1

Filename D:\#New wav + flac\Curiosity Killed The Cat - Misfits The Mercury Years 1986-1990\cd 1 Curiosity Killed The Cat - Keep Your Distance\01. Curiosity Killed the Cat - Misfit.wav

Pre-gap length 0:00:02.00

Peak level 94.5 %
Extraction speed 5.7 X
Track quality 100.0 %
Test CRC 658A28AF
Copy CRC 658A28AF
Accurately ripped (confidence 6) [73002A1B] (AR v2)
Copy OK

Track 2

Filename D:\#New wav + flac\Curiosity Killed The Cat - Misfits The Mercury Years 1986-1990\cd 1 Curiosity Killed The Cat - Keep Your Distance\02. Curiosity Killed the Cat - Down To Earth.wav

Peak level 94.5 %
Extraction speed 6.4 X
Track quality 100.0 %
Test CRC E337C3A0
Copy CRC E337C3A0
Accurately ripped (confidence 6) [81938A32] (AR v2)
Copy OK

Track 3

Filename D:\#New wav + flac\Curiosity Killed The Cat - Misfits The Mercury Years 1986-1990\cd 1 Curiosity Killed The Cat - Keep Your Distance\03. Curiosity Killed the Cat - Free.wav

Peak level 94.5 %
Extraction speed 6.7 X
Track quality 100.0 %
Test CRC E34B2A6D
Copy CRC E34B2A6D
Accurately ripped (confidence 6) [4876591A] (AR v2)
Copy OK

Track 4

Filename D:\#New wav + flac\Curiosity Killed The Cat - Misfits The Mercury Years 1986-1990\cd 1 Curiosity Killed The Cat - Keep Your Distance\04. Curiosity Killed the Cat - Know What You Know.wav

Peak level 94.5 %
Extraction speed 7.1 X
Track quality 100.0 %
Test CRC 0267CC86
Copy CRC 0267CC86
Accurately ripped (confidence 6) [883EE6A1] (AR v2)
Copy OK

Track 5

Filename D:\#New wav + flac\Curiosity Killed The Cat - Misfits The Mercury Years 1986-1990\cd 1 Curiosity Killed The Cat - Keep Your Distance\05. Curiosity Killed the Cat - Curiosity Killed The Cat.wav

Peak level 94.5 %
Extraction speed 7.3 X
Track quality 100.0 %
Test CRC F02982F4
Copy CRC F02982F4
Accurately ripped (confidence 6) [D091871E] (AR v2)
Copy OK

Track 6

Filename D:\#New wav + flac\Curiosity Killed The Cat - Misfits The Mercury Years 1986-1990\cd 1 Curiosity Killed The Cat - Keep Your Distance\06. Curiosity Killed the Cat - Ordinary Day.wav

Peak level 94.5 %
Extraction speed 7.8 X
Track quality 100.0 %
Test CRC ABF03C3E
Copy CRC ABF03C3E
Accurately ripped (confidence 6) [4AC5E0D5] (AR v2)
Copy OK

Track 7

Filename D:\#New wav + flac\Curiosity Killed The Cat - Misfits The Mercury Years 1986-1990\cd 1 Curiosity Killed The Cat - Keep Your Distance\07. Curiosity Killed the Cat - Mile High.wav

Peak level 94.5 %
Extraction speed 8.2 X
Track quality 100.0 %
Test CRC C6F26C11
Copy CRC C6F26C11
Accurately ripped (confidence 6) [67E7431B] (AR v2)
Copy OK

Track 8

Filename D:\#New wav + flac\Curiosity Killed The Cat - Misfits The Mercury Years 1986-1990\cd 1 Curiosity Killed The Cat - Keep Your Distance\08. Curiosity Killed the Cat - Red Lights.wav

Peak level 94.5 %
Extraction speed 8.9 X
Track quality 100.0 %
Test CRC 3F64D60B
Copy CRC 3F64D60B
Accurately ripped (confidence 6) [BE8248CC] (AR v2)
Copy OK

Track 9

Filename D:\#New wav + flac\Curiosity Killed The Cat - Misfits The Mercury Years 1986-1990\cd 1 Curiosity Killed The Cat - Keep Your Distance\09. Curiosity Killed the Cat - Shallow Memory.wav

Peak level 94.5 %
Extraction speed 7.6 X
Track quality 99.9 %
Test CRC B406C9AD
Copy CRC B406C9AD
Accurately ripped (confidence 6) [7EA3A514] (AR v2)
Copy OK

Track 10

Filename D:\#New wav + flac\Curiosity Killed The Cat - Misfits The Mercury Years 1986-1990\cd 1 Curiosity Killed The Cat - Keep Your Distance\10. Curiosity Killed the Cat - Misfit (Extended Mix).wav

Pre-gap length 0:00:03.30

Peak level 94.5 %
Extraction speed 8.8 X
Track quality 99.9 %
Test CRC 8D1F6DF3
Copy CRC 8D1F6DF3
Accurately ripped (confidence 6) [AE14B87B] (AR v2)
Copy OK

Track 11

Filename D:\#New wav + flac\Curiosity Killed The Cat - Misfits The Mercury Years 1986-1990\cd 1 Curiosity Killed The Cat - Keep Your Distance\11. Curiosity Killed the Cat - Man.wav

Peak level 94.5 %
Extraction speed 8.1 X
Track quality 99.9 %
Test CRC 252B6E27
Copy CRC 252B6E27
Accurately ripped (confidence 6) [7B926D59] (AR v2)
Copy OK

Track 12

Filename D:\#New wav + flac\Curiosity Killed The Cat - Misfits The Mercury Years 1986-1990\cd 1 Curiosity Killed The Cat - Keep Your Distance\12. Curiosity Killed the Cat - Corruption (Dub).wav

Pre-gap length 0:00:00.08

Peak level 94.5 %
Extraction speed 9.0 X
Track quality 99.9 %
Test CRC FF99208B
Copy CRC FF99208B
Accurately ripped (confidence 6) [2A747258] (AR v2)
Copy OK

Track 13

Filename D:\#New wav + flac\Curiosity Killed The Cat - Misfits The Mercury Years 1986-1990\cd 1 Curiosity Killed The Cat - Keep Your Distance\13. Curiosity Killed the Cat - Down To Earth (Extended Mix).wav

Pre-gap length 0:00:00.08

Peak level 94.5 %
Extraction speed 11.1 X
Track quality 100.0 %
Test CRC 1879A6EA
Copy CRC 1879A6EA
Accurately ripped (confidence 6) [29C98082] (AR v2)
Copy OK

Track 14

Filename D:\#New wav + flac\Curiosity Killed The Cat - Misfits The Mercury Years 1986-1990\cd 1 Curiosity Killed The Cat - Keep Your Distance\14. Curiosity Killed the Cat - Ordinary Day (Extraordinary Mix).wav

Pre-gap length 0:00:00.08

Peak level 94.5 %
Extraction speed 11.2 X
Track quality 100.0 %
Test CRC B628C89D
Copy CRC B628C89D
Accurately ripped (confidence 6) [6313F8EB] (AR v2)
Copy OK

Track 15

Filename D:\#New wav + flac\Curiosity Killed The Cat - Misfits The Mercury Years 1986-1990\cd 1 Curiosity Killed The Cat - Keep Your Distance\15. Curiosity Killed the Cat - Bullet.wav

Pre-gap length 0:00:00.09

Peak level 94.5 %
Extraction speed 10.9 X
Track quality 100.0 %
Test CRC F021563C
Copy CRC F021563C
Accurately ripped (confidence 6) [F9B23E1F] (AR v2)
Copy OK

Track 16

Filename D:\#New wav + flac\Curiosity Killed The Cat - Misfits The Mercury Years 1986-1990\cd 1 Curiosity Killed The Cat - Keep Your Distance\16. Curiosity Killed the Cat - Free (Dub Master).wav

Pre-gap length 0:00:00.09

Peak level 94.5 %
Extraction speed 12.1 X
Track quality 100.0 %
Test CRC A69650CF
Copy CRC A69650CF
Accurately ripped (confidence 5) [449486CE] (AR v2)
Copy OK


All tracks accurately ripped

No errors occurred

End of status report

–– CUETools DB Plugin V2.1.6

[CTDB TOCID: c9E07lXDR_2IvtVx3gHqdKUhZDU-] found
Submit result: c9E07lXDR_2IvtVx3gHqdKUhZDU- has been confirmed
Track | CTDB Status
1 | (13/13) Accurately ripped
2 | (13/13) Accurately ripped
3 | (13/13) Accurately ripped
4 | (13/13) Accurately ripped
5 | (13/13) Accurately ripped
6 | (13/13) Accurately ripped
7 | (13/13) Accurately ripped
8 | (13/13) Accurately ripped
9 | (13/13) Accurately ripped
10 | (13/13) Accurately ripped
11 | (13/13) Accurately ripped
12 | (13/13) Accurately ripped
13 | (13/13) Accurately ripped
14 | (13/13) Accurately ripped
15 | (13/13) Accurately ripped
16 | (12/13) Accurately ripped


==== Log checksum A9BAC4BAEC967067221E982FB72C8DEE6776A2612C7A9F1A5623EB16E09A5E1D ====
Exact Audio Copy V1.3 from 2. September 2016

EAC extraction logfile from 22. June 2019, 18:28

Curiosity Killed The Cat / Getahead

Used drive : PLEXTOR PX-891SAF Adapter: 1 ID: 0

Read mode : Secure
Utilize accurate stream : Yes
Defeat audio cache : Yes
Make use of C2 pointers : No

Read offset correction : 6
Overread into Lead-In and Lead-Out : No
Fill up missing offset samples with silence : Yes
Delete leading and trailing silent blocks : No
Null samples used in CRC calculations : Yes
Used interface : Native Win32 interface for Win NT & 2000
Gap handling : Appended to previous track

Used output format : User Defined Encoder
Selected bitrate : 1024 kBit/s
Quality : High
Add ID3 tag : No
Command line compressor : C:\Program Files (x86)\Exact Audio Copy\Flac\flac.exe
Additional command line options : -8 -V -T "ARTIST=%artist%" -T "TITLE=%title%" -T "ALBUM=%albumtitle%" -T "DATE=%year%" -T "TRACKNUMBER=%tracknr%" -T "GENRE=%genre%" -T "PERFORMER=%albuminterpret%" -T "COMPOSER=%composer%" %haslyrics%–tag-from-file=LYRICS="%lyricsfile%"%haslyrics% -T "ALBUMARTIST=%albumartist%" -T "DISCNUMBER=%cdnumber%" -T "TOTALDISCS=%totalcds%" -T "TOTALTRACKS=%numtracks%" -T "COMMENT=%comment%" %source% -o %dest%


TOC of the extracted CD

Track | Start | Length | Start sector | End sector
––––––––––––––––––––––––––––-
1 | 0:00.00 | 4:04.29 | 0 | 18328
2 | 4:04.29 | 4:18.44 | 18329 | 37722
3 | 8:22.73 | 3:55.57 | 37723 | 55404
4 | 12:18.55 | 4:37.06 | 55405 | 76185
5 | 16:55.61 | 4:18.06 | 76186 | 95541
6 | 21:13.67 | 2:29.12 | 95542 | 106728
7 | 23:43.04 | 4:10.25 | 106729 | 125503
8 | 27:53.29 | 4:18.42 | 125504 | 144895
9 | 32:11.71 | 3:51.40 | 144896 | 162260
10 | 36:03.36 | 4:13.65 | 162261 | 181300
11 | 40:17.26 | 3:56.68 | 181301 | 199068
12 | 44:14.19 | 5:01.17 | 199069 | 221660
13 | 49:15.36 | 5:35.31 | 221661 | 246816
14 | 54:50.67 | 4:30.74 | 246817 | 267140
15 | 59:21.66 | 4:24.19 | 267141 | 286959
16 | 63:46.10 | 4:44.34 | 286960 | 308293
17 | 68:30.44 | 4:28.74 | 308294 | 328467
18 | 72:59.43 | 4:14.44 | 328468 | 347561


Track 1

Filename D:\#New wav + flac\Curiosity Killed The Cat - Misfits The Mercury Years 1986-1990\cd 2 Curiosity Killed The Cat - Getahead\01. Curiosity Killed the Cat - Name And Number.wav

Pre-gap length 0:00:02.00

Peak level 94.5 %
Extraction speed 5.7 X
Track quality 100.0 %
Test CRC 0FECA8A2
Copy CRC 0FECA8A2
Accurately ripped (confidence 6) [4FF3A194] (AR v2)
Copy OK

Track 2

Filename D:\#New wav + flac\Curiosity Killed The Cat - Misfits The Mercury Years 1986-1990\cd 2 Curiosity Killed The Cat - Getahead\02. Curiosity Killed the Cat - Do Your Believin'.wav

Peak level 94.5 %
Extraction speed 6.3 X
Track quality 100.0 %
Test CRC 718D0A04
Copy CRC 718D0A04
Accurately ripped (confidence 6) [F87728E8] (AR v2)
Copy OK

Track 3

Filename D:\#New wav + flac\Curiosity Killed The Cat - Misfits The Mercury Years 1986-1990\cd 2 Curiosity Killed The Cat - Getahead\03. Curiosity Killed the Cat - Cascade.wav

Peak level 94.5 %
Extraction speed 6.7 X
Track quality 100.0 %
Test CRC 559EC329
Copy CRC 559EC329
Accurately ripped (confidence 6) [71BC8308] (AR v2)
Copy OK

Track 4

Filename D:\#New wav + flac\Curiosity Killed The Cat - Misfits The Mercury Years 1986-1990\cd 2 Curiosity Killed The Cat - Getahead\04. Curiosity Killed the Cat - First Place.wav

Peak level 94.5 %
Extraction speed 7.3 X
Track quality 100.0 %
Test CRC 1FAFF7F6
Copy CRC 1FAFF7F6
Accurately ripped (confidence 6) [AED13CDD] (AR v2)
Copy OK

Track 5

Filename D:\#New wav + flac\Curiosity Killed The Cat - Misfits The Mercury Years 1986-1990\cd 2 Curiosity Killed The Cat - Getahead\05. Curiosity Killed the Cat - We Just Gotta Do It (For Us).wav

Peak level 94.5 %
Extraction speed 7.7 X
Track quality 100.0 %
Test CRC A3A3CA6E
Copy CRC A3A3CA6E
Accurately ripped (confidence 6) [08F479B7] (AR v2)
Copy OK

Track 6

Filename D:\#New wav + flac\Curiosity Killed The Cat - Misfits The Mercury Years 1986-1990\cd 2 Curiosity Killed The Cat - Getahead\06. Curiosity Killed the Cat - Go Go Ahead.wav

Peak level 94.5 %
Extraction speed 7.2 X
Track quality 100.0 %
Test CRC 8A337E0D
Copy CRC 8A337E0D
Accurately ripped (confidence 6) [8BAC8AEC] (AR v2)
Copy OK

Track 7

Filename D:\#New wav + flac\Curiosity Killed The Cat - Misfits The Mercury Years 1986-1990\cd 2 Curiosity Killed The Cat - Getahead\07. Curiosity Killed the Cat - Trees Don't Grow On Money.wav

Peak level 94.5 %
Extraction speed 6.9 X
Track quality 99.9 %
Test CRC 4A0EC8FE
Copy CRC 4A0EC8FE
Accurately ripped (confidence 6) [FA0AC66A] (AR v2)
Copy OK

Track 8

Filename D:\#New wav + flac\Curiosity Killed The Cat - Misfits The Mercury Years 1986-1990\cd 2 Curiosity Killed The Cat - Getahead\08. Curiosity Killed the Cat - Treat You So Well.wav

Peak level 94.5 %
Extraction speed 8.6 X
Track quality 100.0 %
Test CRC E8805AD3
Copy CRC E8805AD3
Accurately ripped (confidence 6) [5EB89946] (AR v2)
Copy OK

Track 9

Filename D:\#New wav + flac\Curiosity Killed The Cat - Misfits The Mercury Years 1986-1990\cd 2 Curiosity Killed The Cat - Getahead\09. Curiosity Killed the Cat - Who Are You.wav

Peak level 94.5 %
Extraction speed 8.8 X
Track quality 100.0 %
Test CRC D67DDEBA
Copy CRC D67DDEBA
Accurately ripped (confidence 6) [BC03571B] (AR v2)
Copy OK

Track 10

Filename D:\#New wav + flac\Curiosity Killed The Cat - Misfits The Mercury Years 1986-1990\cd 2 Curiosity Killed The Cat - Getahead\10. Curiosity Killed the Cat - Security Lady.wav

Peak level 94.5 %
Extraction speed 9.2 X
Track quality 100.0 %
Test CRC 91A09C2F
Copy CRC 91A09C2F
Accurately ripped (confidence 6) [B50E8B11] (AR v2)
Copy OK

Track 11

Filename D:\#New wav + flac\Curiosity Killed The Cat - Misfits The Mercury Years 1986-1990\cd 2 Curiosity Killed The Cat - Getahead\11. Curiosity Killed the Cat - Something New, Something Blue.wav

Peak level 94.5 %
Extraction speed 9.4 X
Track quality 100.0 %
Test CRC 4E6E3798
Copy CRC 4E6E3798
Accurately ripped (confidence 6) [FFCEA1E5] (AR v2)
Copy OK

Track 12

Filename D:\#New wav + flac\Curiosity Killed The Cat - Misfits The Mercury Years 1986-1990\cd 2 Curiosity Killed The Cat - Getahead\12. Curiosity Killed the Cat - Keep On Trying.wav

Peak level 94.5 %
Extraction speed 10.0 X
Track quality 100.0 %
Test CRC E863AFB9
Copy CRC E863AFB9
Accurately ripped (confidence 6) [4EA85891] (AR v2)
Copy OK

Track 13

Filename D:\#New wav + flac\Curiosity Killed The Cat - Misfits The Mercury Years 1986-1990\cd 2 Curiosity Killed The Cat - Getahead\13. Curiosity Killed the Cat - Name And Number (Extended Mix).wav

Pre-gap length 0:00:00.20

Peak level 94.5 %
Extraction speed 10.7 X
Track quality 100.0 %
Test CRC 70367EE1
Copy CRC 70367EE1
Accurately ripped (confidence 6) [61643561] (AR v2)
Copy OK

Track 14

Filename D:\#New wav + flac\Curiosity Killed The Cat - Misfits The Mercury Years 1986-1990\cd 2 Curiosity Killed The Cat - Getahead\14. Curiosity Killed the Cat - Ball And Chain (''First Place'' B-Side).wav

Peak level 94.5 %
Extraction speed 10.5 X
Track quality 100.0 %
Test CRC 0E6E8B1F
Copy CRC 0E6E8B1F
Accurately ripped (confidence 6) [20717622] (AR v2)
Copy OK

Track 15

Filename D:\#New wav + flac\Curiosity Killed The Cat - Misfits The Mercury Years 1986-1990\cd 2 Curiosity Killed The Cat - Getahead\15. Curiosity Killed the Cat - Name And Number (Club Sandwich Mix).wav

Pre-gap length 0:00:00.42

Peak level 94.5 %
Extraction speed 8.9 X
Track quality 99.9 %
Test CRC DD4C64A7
Copy CRC DD4C64A7
Accurately ripped (confidence 6) [494A7887] (AR v2)
Copy OK

Track 16

Filename D:\#New wav + flac\Curiosity Killed The Cat - Misfits The Mercury Years 1986-1990\cd 2 Curiosity Killed The Cat - Getahead\16. Curiosity Killed the Cat - Misfit (Jazzy Dub Remix '89) (''First Place'' B-Side).wav

Pre-gap length 0:00:02.12

Peak level 94.5 %
Extraction speed 11.2 X
Track quality 100.0 %
Test CRC 8E404693
Copy CRC 8E404693
Accurately ripped (confidence 6) [60385C57] (AR v2)
Copy OK

Track 17

Filename D:\#New wav + flac\Curiosity Killed The Cat - Misfits The Mercury Years 1986-1990\cd 2 Curiosity Killed The Cat - Getahead\17. Curiosity Killed the Cat - Name And Number (A Schizo Version).wav

Pre-gap length 0:00:02.10

Peak level 94.5 %
Extraction speed 11.4 X
Track quality 100.0 %
Test CRC BE0594D4
Copy CRC BE0594D4
Accurately ripped (confidence 6) [63A42F73] (AR v2)
Copy OK

Track 18

Filename D:\#New wav + flac\Curiosity Killed The Cat - Misfits The Mercury Years 1986-1990\cd 2 Curiosity Killed The Cat - Getahead\18. Curiosity Killed the Cat - Name And Number (Jazzy Dub Version).wav

Pre-gap length 0:00:02.12

Peak level 94.5 %
Extraction speed 11.5 X
Track quality 100.0 %
Test CRC 6F08BA50
Copy CRC 6F08BA50
Accurately ripped (confidence 5) [079FC921] (AR v2)
Copy OK


All tracks accurately ripped

No errors occurred

End of status report

–– CUETools DB Plugin V2.1.6

[CTDB TOCID: hrD4oqG9xrxjuDZaaHQp3RdJ5OY-] found
Submit result: hrD4oqG9xrxjuDZaaHQp3RdJ5OY- has been confirmed
Track | CTDB Status
1 | (13/13) Accurately ripped
2 | (13/13) Accurately ripped
3 | (13/13) Accurately ripped
4 | (13/13) Accurately ripped
5 | (13/13) Accurately ripped
6 | (13/13) Accurately ripped
7 | (13/13) Accurately ripped
8 | (13/13) Accurately ripped
9 | (13/13) Accurately ripped
10 | (13/13) Accurately ripped
11 | (13/13) Accurately ripped
12 | (13/13) Accurately ripped
13 | (13/13) Accurately ripped
14 | (13/13) Accurately ripped
15 | (13/13) Accurately ripped
16 | (13/13) Accurately ripped
17 | (13/13) Accurately ripped
18 | (13/13) Accurately ripped


==== Log checksum 27A517EE41243A1B8AFC56E04AC88CE53B4495C7D29ABE8B62C1BB11D7D8B590 ====

––––––––––––––––––––––––––––––

Exact Audio Copy V1.3 from 2. September 2016

EAC extraction logfile from 22. June 2019, 18:28

Curiosity Killed The Cat / Getahead

Used drive : PLEXTOR PX-891SAF Adapter: 1 ID: 0

Read mode : Secure
Utilize accurate stream : Yes
Defeat audio cache : Yes
Make use of C2 pointers : No

Read offset correction : 6
Overread into Lead-In and Lead-Out : No
Fill up missing offset samples with silence : Yes
Delete leading and trailing silent blocks : No
Null samples used in CRC calculations : Yes
Used interface : Native Win32 interface for Win NT & 2000
Gap handling : Appended to previous track

Used output format : User Defined Encoder
Selected bitrate : 1024 kBit/s
Quality : High
Add ID3 tag : No
Command line compressor : C:\Program Files (x86)\Exact Audio Copy\Flac\flac.exe
Additional command line options : -8 -V -T "ARTIST=%artist%" -T "TITLE=%title%" -T "ALBUM=%albumtitle%" -T "DATE=%year%" -T "TRACKNUMBER=%tracknr%" -T "GENRE=%genre%" -T "PERFORMER=%albuminterpret%" -T "COMPOSER=%composer%" %haslyrics%–tag-from-file=LYRICS="%lyricsfile%"%haslyrics% -T "ALBUMARTIST=%albumartist%" -T "DISCNUMBER=%cdnumber%" -T "TOTALDISCS=%totalcds%" -T "TOTALTRACKS=%numtracks%" -T "COMMENT=%comment%" %source% -o %dest%


TOC of the extracted CD

Track | Start | Length | Start sector | End sector
––––––––––––––––––––––––––––-
1 | 0:00.00 | 4:04.29 | 0 | 18328
2 | 4:04.29 | 4:18.44 | 18329 | 37722
3 | 8:22.73 | 3:55.57 | 37723 | 55404
4 | 12:18.55 | 4:37.06 | 55405 | 76185
5 | 16:55.61 | 4:18.06 | 76186 | 95541
6 | 21:13.67 | 2:29.12 | 95542 | 106728
7 | 23:43.04 | 4:10.25 | 106729 | 125503
8 | 27:53.29 | 4:18.42 | 125504 | 144895
9 | 32:11.71 | 3:51.40 | 144896 | 162260
10 | 36:03.36 | 4:13.65 | 162261 | 181300
11 | 40:17.26 | 3:56.68 | 181301 | 199068
12 | 44:14.19 | 5:01.17 | 199069 | 221660
13 | 49:15.36 | 5:35.31 | 221661 | 246816
14 | 54:50.67 | 4:30.74 | 246817 | 267140
15 | 59:21.66 | 4:24.19 | 267141 | 286959
16 | 63:46.10 | 4:44.34 | 286960 | 308293
17 | 68:30.44 | 4:28.74 | 308294 | 328467
18 | 72:59.43 | 4:14.44 | 328468 | 347561


Track 1

Filename D:\#New wav + flac\Curiosity Killed The Cat - Misfits The Mercury Years 1986-1990\cd 2 Curiosity Killed The Cat - Getahead\01. Curiosity Killed the Cat - Name And Number.wav

Pre-gap length 0:00:02.00

Peak level 94.5 %
Extraction speed 5.7 X
Track quality 100.0 %
Test CRC 0FECA8A2
Copy CRC 0FECA8A2
Accurately ripped (confidence 6) [4FF3A194] (AR v2)
Copy OK

Track 2

Filename D:\#New wav + flac\Curiosity Killed The Cat - Misfits The Mercury Years 1986-1990\cd 2 Curiosity Killed The Cat - Getahead\02. Curiosity Killed the Cat - Do Your Believin'.wav

Peak level 94.5 %
Extraction speed 6.3 X
Track quality 100.0 %
Test CRC 718D0A04
Copy CRC 718D0A04
Accurately ripped (confidence 6) [F87728E8] (AR v2)
Copy OK

Track 3

Filename D:\#New wav + flac\Curiosity Killed The Cat - Misfits The Mercury Years 1986-1990\cd 2 Curiosity Killed The Cat - Getahead\03. Curiosity Killed the Cat - Cascade.wav

Peak level 94.5 %
Extraction speed 6.7 X
Track quality 100.0 %
Test CRC 559EC329
Copy CRC 559EC329
Accurately ripped (confidence 6) [71BC8308] (AR v2)
Copy OK

Track 4

Filename D:\#New wav + flac\Curiosity Killed The Cat - Misfits The Mercury Years 1986-1990\cd 2 Curiosity Killed The Cat - Getahead\04. Curiosity Killed the Cat - First Place.wav

Peak level 94.5 %
Extraction speed 7.3 X
Track quality 100.0 %
Test CRC 1FAFF7F6
Copy CRC 1FAFF7F6
Accurately ripped (confidence 6) [AED13CDD] (AR v2)
Copy OK

Track 5

Filename D:\#New wav + flac\Curiosity Killed The Cat - Misfits The Mercury Years 1986-1990\cd 2 Curiosity Killed The Cat - Getahead\05. Curiosity Killed the Cat - We Just Gotta Do It (For Us).wav

Peak level 94.5 %
Extraction speed 7.7 X
Track quality 100.0 %
Test CRC A3A3CA6E
Copy CRC A3A3CA6E
Accurately ripped (confidence 6) [08F479B7] (AR v2)
Copy OK

Track 6

Filename D:\#New wav + flac\Curiosity Killed The Cat - Misfits The Mercury Years 1986-1990\cd 2 Curiosity Killed The Cat - Getahead\06. Curiosity Killed the Cat - Go Go Ahead.wav

Peak level 94.5 %
Extraction speed 7.2 X
Track quality 100.0 %
Test CRC 8A337E0D
Copy CRC 8A337E0D
Accurately ripped (confidence 6) [8BAC8AEC] (AR v2)
Copy OK

Track 7

Filename D:\#New wav + flac\Curiosity Killed The Cat - Misfits The Mercury Years 1986-1990\cd 2 Curiosity Killed The Cat - Getahead\07. Curiosity Killed the Cat - Trees Don't Grow On Money.wav

Peak level 94.5 %
Extraction speed 6.9 X
Track quality 99.9 %
Test CRC 4A0EC8FE
Copy CRC 4A0EC8FE
Accurately ripped (confidence 6) [FA0AC66A] (AR v2)
Copy OK

Track 8

Filename D:\#New wav + flac\Curiosity Killed The Cat - Misfits The Mercury Years 1986-1990\cd 2 Curiosity Killed The Cat - Getahead\08. Curiosity Killed the Cat - Treat You So Well.wav

Peak level 94.5 %
Extraction speed 8.6 X
Track quality 100.0 %
Test CRC E8805AD3
Copy CRC E8805AD3
Accurately ripped (confidence 6) [5EB89946] (AR v2)
Copy OK

Track 9

Filename D:\#New wav + flac\Curiosity Killed The Cat - Misfits The Mercury Years 1986-1990\cd 2 Curiosity Killed The Cat - Getahead\09. Curiosity Killed the Cat - Who Are You.wav

Peak level 94.5 %
Extraction speed 8.8 X
Track quality 100.0 %
Test CRC D67DDEBA
Copy CRC D67DDEBA
Accurately ripped (confidence 6) [BC03571B] (AR v2)
Copy OK

Track 10

Filename D:\#New wav + flac\Curiosity Killed The Cat - Misfits The Mercury Years 1986-1990\cd 2 Curiosity Killed The Cat - Getahead\10. Curiosity Killed the Cat - Security Lady.wav

Peak level 94.5 %
Extraction speed 9.2 X
Track quality 100.0 %
Test CRC 91A09C2F
Copy CRC 91A09C2F
Accurately ripped (confidence 6) [B50E8B11] (AR v2)
Copy OK

Track 11

Filename D:\#New wav + flac\Curiosity Killed The Cat - Misfits The Mercury Years 1986-1990\cd 2 Curiosity Killed The Cat - Getahead\11. Curiosity Killed the Cat - Something New, Something Blue.wav

Peak level 94.5 %
Extraction speed 9.4 X
Track quality 100.0 %
Test CRC 4E6E3798
Copy CRC 4E6E3798
Accurately ripped (confidence 6) [FFCEA1E5] (AR v2)
Copy OK

Track 12

Filename D:\#New wav + flac\Curiosity Killed The Cat - Misfits The Mercury Years 1986-1990\cd 2 Curiosity Killed The Cat - Getahead\12. Curiosity Killed the Cat - Keep On Trying.wav

Peak level 94.5 %
Extraction speed 10.0 X
Track quality 100.0 %
Test CRC E863AFB9
Copy CRC E863AFB9
Accurately ripped (confidence 6) [4EA85891] (AR v2)
Copy OK

Track 13

Filename D:\#New wav + flac\Curiosity Killed The Cat - Misfits The Mercury Years 1986-1990\cd 2 Curiosity Killed The Cat - Getahead\13. Curiosity Killed the Cat - Name And Number (Extended Mix).wav

Pre-gap length 0:00:00.20

Peak level 94.5 %
Extraction speed 10.7 X
Track quality 100.0 %
Test CRC 70367EE1
Copy CRC 70367EE1
Accurately ripped (confidence 6) [61643561] (AR v2)
Copy OK

Track 14

Filename D:\#New wav + flac\Curiosity Killed The Cat - Misfits The Mercury Years 1986-1990\cd 2 Curiosity Killed The Cat - Getahead\14. Curiosity Killed the Cat - Ball And Chain (''First Place'' B-Side).wav

Peak level 94.5 %
Extraction speed 10.5 X
Track quality 100.0 %
Test CRC 0E6E8B1F
Copy CRC 0E6E8B1F
Accurately ripped (confidence 6) [20717622] (AR v2)
Copy OK

Track 15

Filename D:\#New wav + flac\Curiosity Killed The Cat - Misfits The Mercury Years 1986-1990\cd 2 Curiosity Killed The Cat - Getahead\15. Curiosity Killed the Cat - Name And Number (Club Sandwich Mix).wav

Pre-gap length 0:00:00.42

Peak level 94.5 %
Extraction speed 8.9 X
Track quality 99.9 %
Test CRC DD4C64A7
Copy CRC DD4C64A7
Accurately ripped (confidence 6) [494A7887] (AR v2)
Copy OK

Track 16

Filename D:\#New wav + flac\Curiosity Killed The Cat - Misfits The Mercury Years 1986-1990\cd 2 Curiosity Killed The Cat - Getahead\16. Curiosity Killed the Cat - Misfit (Jazzy Dub Remix '89) (''First Place'' B-Side).wav

Pre-gap length 0:00:02.12

Peak level 94.5 %
Extraction speed 11.2 X
Track quality 100.0 %
Test CRC 8E404693
Copy CRC 8E404693
Accurately ripped (confidence 6) [60385C57] (AR v2)
Copy OK

Track 17

Filename D:\#New wav + flac\Curiosity Killed The Cat - Misfits The Mercury Years 1986-1990\cd 2 Curiosity Killed The Cat - Getahead\17. Curiosity Killed the Cat - Name And Number (A Schizo Version).wav

Pre-gap length 0:00:02.10

Peak level 94.5 %
Extraction speed 11.4 X
Track quality 100.0 %
Test CRC BE0594D4
Copy CRC BE0594D4
Accurately ripped (confidence 6) [63A42F73] (AR v2)
Copy OK

Track 18

Filename D:\#New wav + flac\Curiosity Killed The Cat - Misfits The Mercury Years 1986-1990\cd 2 Curiosity Killed The Cat - Getahead\18. Curiosity Killed the Cat - Name And Number (Jazzy Dub Version).wav

Pre-gap length 0:00:02.12

Peak level 94.5 %
Extraction speed 11.5 X
Track quality 100.0 %
Test CRC 6F08BA50
Copy CRC 6F08BA50
Accurately ripped (confidence 5) [079FC921] (AR v2)
Copy OK


All tracks accurately ripped

No errors occurred

End of status report

–– CUETools DB Plugin V2.1.6

[CTDB TOCID: hrD4oqG9xrxjuDZaaHQp3RdJ5OY-] found
Submit result: hrD4oqG9xrxjuDZaaHQp3RdJ5OY- has been confirmed
Track | CTDB Status
1 | (13/13) Accurately ripped
2 | (13/13) Accurately ripped
3 | (13/13) Accurately ripped
4 | (13/13) Accurately ripped
5 | (13/13) Accurately ripped
6 | (13/13) Accurately ripped
7 | (13/13) Accurately ripped
8 | (13/13) Accurately ripped
9 | (13/13) Accurately ripped
10 | (13/13) Accurately ripped
11 | (13/13) Accurately ripped
12 | (13/13) Accurately ripped
13 | (13/13) Accurately ripped
14 | (13/13) Accurately ripped
15 | (13/13) Accurately ripped
16 | (13/13) Accurately ripped
17 | (13/13) Accurately ripped
18 | (13/13) Accurately ripped


==== Log checksum 27A517EE41243A1B8AFC56E04AC88CE53B4495C7D29ABE8B62C1BB11D7D8B590 ====
Exact Audio Copy V1.3 from 2. September 2016

EAC extraction logfile from 22. June 2019, 18:53

Curiosity Killed The Cat / CD 3: Remixes, Edits & Dubs [The Mercury Years 86-90]

Used drive : PLEXTOR PX-891SAF Adapter: 1 ID: 0

Read mode : Secure
Utilize accurate stream : Yes
Defeat audio cache : Yes
Make use of C2 pointers : No

Read offset correction : 6
Overread into Lead-In and Lead-Out : No
Fill up missing offset samples with silence : Yes
Delete leading and trailing silent blocks : No
Null samples used in CRC calculations : Yes
Used interface : Native Win32 interface for Win NT & 2000
Gap handling : Appended to previous track

Used output format : User Defined Encoder
Selected bitrate : 1024 kBit/s
Quality : High
Add ID3 tag : No
Command line compressor : C:\Program Files (x86)\Exact Audio Copy\Flac\flac.exe
Additional command line options : -8 -V -T "ARTIST=%artist%" -T "TITLE=%title%" -T "ALBUM=%albumtitle%" -T "DATE=%year%" -T "TRACKNUMBER=%tracknr%" -T "GENRE=%genre%" -T "PERFORMER=%albuminterpret%" -T "COMPOSER=%composer%" %haslyrics%–tag-from-file=LYRICS="%lyricsfile%"%haslyrics% -T "ALBUMARTIST=%albumartist%" -T "DISCNUMBER=%cdnumber%" -T "TOTALDISCS=%totalcds%" -T "TOTALTRACKS=%numtracks%" -T "COMMENT=%comment%" %source% -o %dest%


TOC of the extracted CD

Track | Start | Length | Start sector | End sector
––––––––––––––––––––––––––––-
1 | 0:00.00 | 3:53.68 | 0 | 17542
2 | 3:53.68 | 3:55.17 | 17543 | 35184
3 | 7:49.10 | 6:48.58 | 35185 | 65842
4 | 14:37.68 | 4:51.21 | 65843 | 87688
5 | 19:29.14 | 8:09.19 | 87689 | 124382
6 | 27:38.33 | 3:48.64 | 124383 | 141546
7 | 31:27.22 | 3:31.74 | 141547 | 157445
8 | 34:59.21 | 5:59.61 | 157446 | 184431
9 | 40:59.07 | 3:52.63 | 184432 | 201894
10 | 44:51.70 | 3:40.15 | 201895 | 218409
11 | 48:32.10 | 8:55.18 | 218410 | 258552
12 | 57:27.28 | 4:04.00 | 258553 | 276852
13 | 61:31.28 | 4:02.71 | 276853 | 295073
14 | 65:34.24 | 6:02.67 | 295074 | 322290


Track 1

Filename D:\#New wav + flac\Curiosity Killed The Cat - Misfits The Mercury Years 1986-1990\cd 3 Curiosity Killed The Cat - Remixes, Edits & Dubs\01. Curiosity Killed The Cat - Down To Earth (7” Version).wav

Pre-gap length 0:00:02.00

Peak level 94.5 %
Extraction speed 5.7 X
Track quality 100.0 %
Test CRC AF25C38F
Copy CRC AF25C38F
Accurately ripped (confidence 6) [17DF11D3] (AR v2)
Copy OK

Track 2

Filename D:\#New wav + flac\Curiosity Killed The Cat - Misfits The Mercury Years 1986-1990\cd 3 Curiosity Killed The Cat - Remixes, Edits & Dubs\02. Curiosity Killed The Cat - Ordinary Day (Ordinary Version).wav

Pre-gap length 0:00:00.48

Peak level 94.5 %
Extraction speed 6.2 X
Track quality 100.0 %
Test CRC ACE1DC1F
Copy CRC ACE1DC1F
Accurately ripped (confidence 6) [87757C86] (AR v2)
Copy OK

Track 3

Filename D:\#New wav + flac\Curiosity Killed The Cat - Misfits The Mercury Years 1986-1990\cd 3 Curiosity Killed The Cat - Remixes, Edits & Dubs\03. Curiosity Killed The Cat - Misfit (Extended Mix).wav

Peak level 94.5 %
Extraction speed 7.2 X
Track quality 100.0 %
Test CRC AA53D318
Copy CRC AA53D318
Accurately ripped (confidence 6) [CBB96A47] (AR v2)
Copy OK

Track 4

Filename D:\#New wav + flac\Curiosity Killed The Cat - Misfits The Mercury Years 1986-1990\cd 3 Curiosity Killed The Cat - Remixes, Edits & Dubs\04. Curiosity Killed The Cat - Ordinary Day (Extended Version).wav

Pre-gap length 0:00:01.70

Peak level 94.5 %
Extraction speed 7.7 X
Track quality 100.0 %
Test CRC 91E3C784
Copy CRC 91E3C784
Accurately ripped (confidence 6) [A65671B2] (AR v2)
Copy OK

Track 5

Filename D:\#New wav + flac\Curiosity Killed The Cat - Misfits The Mercury Years 1986-1990\cd 3 Curiosity Killed The Cat - Remixes, Edits & Dubs\05. Curiosity Killed The Cat - Mile High (Mile Long Mix).wav

Pre-gap length 0:00:01.38

Peak level 94.5 %
Extraction speed 8.7 X
Track quality 100.0 %
Test CRC 5C63DE90
Copy CRC 5C63DE90
Accurately ripped (confidence 6) [97D0FB86] (AR v2)
Copy OK

Track 6

Filename D:\#New wav + flac\Curiosity Killed The Cat - Misfits The Mercury Years 1986-1990\cd 3 Curiosity Killed The Cat - Remixes, Edits & Dubs\06. Curiosity Killed The Cat - Name And Number (Version).wav

Pre-gap length 0:00:01.36

Peak level 94.5 %
Extraction speed 8.6 X
Track quality 100.0 %
Test CRC C27A2605
Copy CRC C27A2605
Accurately ripped (confidence 6) [C8448DDD] (AR v2)
Copy OK

Track 7

Filename D:\#New wav + flac\Curiosity Killed The Cat - Misfits The Mercury Years 1986-1990\cd 3 Curiosity Killed The Cat - Remixes, Edits & Dubs\07. Curiosity Killed The Cat - Ordinary Day (Version).wav

Pre-gap length 0:00:01.29

Peak level 94.5 %
Extraction speed 8.8 X
Track quality 100.0 %
Test CRC AC5F3199
Copy CRC AC5F3199
Accurately ripped (confidence 6) [58140255] (AR v2)
Copy OK

Track 8

Filename D:\#New wav + flac\Curiosity Killed The Cat - Misfits The Mercury Years 1986-1990\cd 3 Curiosity Killed The Cat - Remixes, Edits & Dubs\08. Curiosity Killed The Cat - Misfit (Dub).wav

Pre-gap length 0:00:02.36

Peak level 94.5 %
Extraction speed 9.7 X
Track quality 100.0 %
Test CRC 504B2F8D
Copy CRC 504B2F8D
Accurately ripped (confidence 6) [A527FEE3] (AR v2)
Copy OK

Track 9

Filename D:\#New wav + flac\Curiosity Killed The Cat - Misfits The Mercury Years 1986-1990\cd 3 Curiosity Killed The Cat - Remixes, Edits & Dubs\09. Curiosity Killed The Cat - Down To Earth (Instrumental).wav

Peak level 94.5 %
Extraction speed 9.6 X
Track quality 100.0 %
Test CRC 87326215
Copy CRC 87326215
Accurately ripped (confidence 6) [9DA55F10] (AR v2)
Copy OK

Track 10

Filename D:\#New wav + flac\Curiosity Killed The Cat - Misfits The Mercury Years 1986-1990\cd 3 Curiosity Killed The Cat - Remixes, Edits & Dubs\10. Curiosity Killed The Cat - Ordinary Day (Dub Mix).wav

Pre-gap length 0:00:01.05

Peak level 94.5 %
Extraction speed 9.7 X
Track quality 100.0 %
Test CRC A090EEA2
Copy CRC A090EEA2
Accurately ripped (confidence 6) [C77D90FE] (AR v2)
Copy OK

Track 11

Filename D:\#New wav + flac\Curiosity Killed The Cat - Misfits The Mercury Years 1986-1990\cd 3 Curiosity Killed The Cat - Remixes, Edits & Dubs\11. Curiosity Killed The Cat - Misfit (Morales Extended Mix).wav

Pre-gap length 0:00:01.28

Peak level 94.5 %
Extraction speed 11.1 X
Track quality 100.0 %
Test CRC E71AA230
Copy CRC E71AA230
Accurately ripped (confidence 6) [2CED8F47] (AR v2)
Copy OK

Track 12

Filename D:\#New wav + flac\Curiosity Killed The Cat - Misfits The Mercury Years 1986-1990\cd 3 Curiosity Killed The Cat - Remixes, Edits & Dubs\12. Curiosity Killed The Cat - Free (Instrumental).wav

Peak level 94.2 %
Extraction speed 8.7 X
Track quality 99.9 %
Test CRC 1A1C8AB3
Copy CRC 1A1C8AB3
Accurately ripped (confidence 6) [6FDD3CBE] (AR v2)
Copy OK

Track 13

Filename D:\#New wav + flac\Curiosity Killed The Cat - Misfits The Mercury Years 1986-1990\cd 3 Curiosity Killed The Cat - Remixes, Edits & Dubs\13. Curiosity Killed The Cat - Misfit (Dub Mix).wav

Pre-gap length 0:00:01.77

Peak level 94.2 %
Extraction speed 11.0 X
Track quality 100.0 %
Test CRC 3F91E541
Copy CRC 3F91E541
Accurately ripped (confidence 6) [2092E66A] (AR v2)
Copy OK

Track 14

Filename D:\#New wav + flac\Curiosity Killed The Cat - Misfits The Mercury Years 1986-1990\cd 3 Curiosity Killed The Cat - Remixes, Edits & Dubs\14. Curiosity Killed The Cat - Cascade (Dub Mix).wav

Peak level 94.2 %
Extraction speed 10.2 X
Track quality 99.9 %
Test CRC 6DD6A58B
Copy CRC 6DD6A58B
Accurately ripped (confidence 5) [EC3D42DA] (AR v2)
Copy OK


All tracks accurately ripped

No errors occurred

End of status report

–– CUETools DB Plugin V2.1.6

[CTDB TOCID: imDvjtwZVthR5dYnozN1IF.mPME-] found
Submit result: imDvjtwZVthR5dYnozN1IF.mPME- has been confirmed
Track | CTDB Status
1 | (12/12) Accurately ripped
2 | (12/12) Accurately ripped
3 | (12/12) Accurately ripped
4 | (12/12) Accurately ripped
5 | (12/12) Accurately ripped
6 | (12/12) Accurately ripped
7 | (12/12) Accurately ripped
8 | (12/12) Accurately ripped
9 | (12/12) Accurately ripped
10 | (12/12) Accurately ripped
11 | (12/12) Accurately ripped
12 | (12/12) Accurately ripped
13 | (12/12) Accurately ripped
14 | (12/12) Accurately ripped


==== Log checksum 90E097B1B5C4944577FFEDB8DAABD680627B5A334DB28FCB18C363DB091926CE ====

––––––––––––––––––––––––––––––

Exact Audio Copy V1.3 from 2. September 2016

EAC extraction logfile from 22. June 2019, 18:53

Curiosity Killed The Cat / CD 3: Remixes, Edits & Dubs [The Mercury Years 86-90]

Used drive : PLEXTOR PX-891SAF Adapter: 1 ID: 0

Read mode : Secure
Utilize accurate stream : Yes
Defeat audio cache : Yes
Make use of C2 pointers : No

Read offset correction : 6
Overread into Lead-In and Lead-Out : No
Fill up missing offset samples with silence : Yes
Delete leading and trailing silent blocks : No
Null samples used in CRC calculations : Yes
Used interface : Native Win32 interface for Win NT & 2000
Gap handling : Appended to previous track

Used output format : User Defined Encoder
Selected bitrate : 1024 kBit/s
Quality : High
Add ID3 tag : No
Command line compressor : C:\Program Files (x86)\Exact Audio Copy\Flac\flac.exe
Additional command line options : -8 -V -T "ARTIST=%artist%" -T "TITLE=%title%" -T "ALBUM=%albumtitle%" -T "DATE=%year%" -T "TRACKNUMBER=%tracknr%" -T "GENRE=%genre%" -T "PERFORMER=%albuminterpret%" -T "COMPOSER=%composer%" %haslyrics%–tag-from-file=LYRICS="%lyricsfile%"%haslyrics% -T "ALBUMARTIST=%albumartist%" -T "DISCNUMBER=%cdnumber%" -T "TOTALDISCS=%totalcds%" -T "TOTALTRACKS=%numtracks%" -T "COMMENT=%comment%" %source% -o %dest%


TOC of the extracted CD

Track | Start | Length | Start sector | End sector
––––––––––––––––––––––––––––-
1 | 0:00.00 | 3:53.68 | 0 | 17542
2 | 3:53.68 | 3:55.17 | 17543 | 35184
3 | 7:49.10 | 6:48.58 | 35185 | 65842
4 | 14:37.68 | 4:51.21 | 65843 | 87688
5 | 19:29.14 | 8:09.19 | 87689 | 124382
6 | 27:38.33 | 3:48.64 | 124383 | 141546
7 | 31:27.22 | 3:31.74 | 141547 | 157445
8 | 34:59.21 | 5:59.61 | 157446 | 184431
9 | 40:59.07 | 3:52.63 | 184432 | 201894
10 | 44:51.70 | 3:40.15 | 201895 | 218409
11 | 48:32.10 | 8:55.18 | 218410 | 258552
12 | 57:27.28 | 4:04.00 | 258553 | 276852
13 | 61:31.28 | 4:02.71 | 276853 | 295073
14 | 65:34.24 | 6:02.67 | 295074 | 322290


Track 1

Filename D:\#New wav + flac\Curiosity Killed The Cat - Misfits The Mercury Years 1986-1990\cd 3 Curiosity Killed The Cat - Remixes, Edits & Dubs\01. Curiosity Killed The Cat - Down To Earth (7” Version).wav

Pre-gap length 0:00:02.00

Peak level 94.5 %
Extraction speed 5.7 X
Track quality 100.0 %
Test CRC AF25C38F
Copy CRC AF25C38F
Accurately ripped (confidence 6) [17DF11D3] (AR v2)
Copy OK

Track 2

Filename D:\#New wav + flac\Curiosity Killed The Cat - Misfits The Mercury Years 1986-1990\cd 3 Curiosity Killed The Cat - Remixes, Edits & Dubs\02. Curiosity Killed The Cat - Ordinary Day (Ordinary Version).wav

Pre-gap length 0:00:00.48

Peak level 94.5 %
Extraction speed 6.2 X
Track quality 100.0 %
Test CRC ACE1DC1F
Copy CRC ACE1DC1F
Accurately ripped (confidence 6) [87757C86] (AR v2)
Copy OK

Track 3

Filename D:\#New wav + flac\Curiosity Killed The Cat - Misfits The Mercury Years 1986-1990\cd 3 Curiosity Killed The Cat - Remixes, Edits & Dubs\03. Curiosity Killed The Cat - Misfit (Extended Mix).wav

Peak level 94.5 %
Extraction speed 7.2 X
Track quality 100.0 %
Test CRC AA53D318
Copy CRC AA53D318
Accurately ripped (confidence 6) [CBB96A47] (AR v2)
Copy OK

Track 4

Filename D:\#New wav + flac\Curiosity Killed The Cat - Misfits The Mercury Years 1986-1990\cd 3 Curiosity Killed The Cat - Remixes, Edits & Dubs\04. Curiosity Killed The Cat - Ordinary Day (Extended Version).wav

Pre-gap length 0:00:01.70

Peak level 94.5 %
Extraction speed 7.7 X
Track quality 100.0 %
Test CRC 91E3C784
Copy CRC 91E3C784
Accurately ripped (confidence 6) [A65671B2] (AR v2)
Copy OK

Track 5

Filename D:\#New wav + flac\Curiosity Killed The Cat - Misfits The Mercury Years 1986-1990\cd 3 Curiosity Killed The Cat - Remixes, Edits & Dubs\05. Curiosity Killed The Cat - Mile High (Mile Long Mix).wav

Pre-gap length 0:00:01.38

Peak level 94.5 %
Extraction speed 8.7 X
Track quality 100.0 %
Test CRC 5C63DE90
Copy CRC 5C63DE90
Accurately ripped (confidence 6) [97D0FB86] (AR v2)
Copy OK

Track 6

Filename D:\#New wav + flac\Curiosity Killed The Cat - Misfits The Mercury Years 1986-1990\cd 3 Curiosity Killed The Cat - Remixes, Edits & Dubs\06. Curiosity Killed The Cat - Name And Number (Version).wav

Pre-gap length 0:00:01.36

Peak level 94.5 %
Extraction speed 8.6 X
Track quality 100.0 %
Test CRC C27A2605
Copy CRC C27A2605
Accurately ripped (confidence 6) [C8448DDD] (AR v2)
Copy OK

Track 7

Filename D:\#New wav + flac\Curiosity Killed The Cat - Misfits The Mercury Years 1986-1990\cd 3 Curiosity Killed The Cat - Remixes, Edits & Dubs\07. Curiosity Killed The Cat - Ordinary Day (Version).wav

Pre-gap length 0:00:01.29

Peak level 94.5 %
Extraction speed 8.8 X
Track quality 100.0 %
Test CRC AC5F3199
Copy CRC AC5F3199
Accurately ripped (confidence 6) [58140255] (AR v2)
Copy OK

Track 8

Filename D:\#New wav + flac\Curiosity Killed The Cat - Misfits The Mercury Years 1986-1990\cd 3 Curiosity Killed The Cat - Remixes, Edits & Dubs\08. Curiosity Killed The Cat - Misfit (Dub).wav

Pre-gap length 0:00:02.36

Peak level 94.5 %
Extraction speed 9.7 X
Track quality 100.0 %
Test CRC 504B2F8D
Copy CRC 504B2F8D
Accurately ripped (confidence 6) [A527FEE3] (AR v2)
Copy OK

Track 9

Filename D:\#New wav + flac\Curiosity Killed The Cat - Misfits The Mercury Years 1986-1990\cd 3 Curiosity Killed The Cat - Remixes, Edits & Dubs\09. Curiosity Killed The Cat - Down To Earth (Instrumental).wav

Peak level 94.5 %
Extraction speed 9.6 X
Track quality 100.0 %
Test CRC 87326215
Copy CRC 87326215
Accurately ripped (confidence 6) [9DA55F10] (AR v2)
Copy OK

Track 10

Filename D:\#New wav + flac\Curiosity Killed The Cat - Misfits The Mercury Years 1986-1990\cd 3 Curiosity Killed The Cat - Remixes, Edits & Dubs\10. Curiosity Killed The Cat - Ordinary Day (Dub Mix).wav

Pre-gap length 0:00:01.05

Peak level 94.5 %
Extraction speed 9.7 X
Track quality 100.0 %
Test CRC A090EEA2
Copy CRC A090EEA2
Accurately ripped (confidence 6) [C77D90FE] (AR v2)
Copy OK

Track 11

Filename D:\#New wav + flac\Curiosity Killed The Cat - Misfits The Mercury Years 1986-1990\cd 3 Curiosity Killed The Cat - Remixes, Edits & Dubs\11. Curiosity Killed The Cat - Misfit (Morales Extended Mix).wav

Pre-gap length 0:00:01.28

Peak level 94.5 %
Extraction speed 11.1 X
Track quality 100.0 %
Test CRC E71AA230
Copy CRC E71AA230
Accurately ripped (confidence 6) [2CED8F47] (AR v2)
Copy OK

Track 12

Filename D:\#New wav + flac\Curiosity Killed The Cat - Misfits The Mercury Years 1986-1990\cd 3 Curiosity Killed The Cat - Remixes, Edits & Dubs\12. Curiosity Killed The Cat - Free (Instrumental).wav

Peak level 94.2 %
Extraction speed 8.7 X
Track quality 99.9 %
Test CRC 1A1C8AB3
Copy CRC 1A1C8AB3
Accurately ripped (confidence 6) [6FDD3CBE] (AR v2)
Copy OK

Track 13

Filename D:\#New wav + flac\Curiosity Killed The Cat - Misfits The Mercury Years 1986-1990\cd 3 Curiosity Killed The Cat - Remixes, Edits & Dubs\13. Curiosity Killed The Cat - Misfit (Dub Mix).wav

Pre-gap length 0:00:01.77

Peak level 94.2 %
Extraction speed 11.0 X
Track quality 100.0 %
Test CRC 3F91E541
Copy CRC 3F91E541
Accurately ripped (confidence 6) [2092E66A] (AR v2)
Copy OK

Track 14

Filename D:\#New wav + flac\Curiosity Killed The Cat - Misfits The Mercury Years 1986-1990\cd 3 Curiosity Killed The Cat - Remixes, Edits & Dubs\14. Curiosity Killed The Cat - Cascade (Dub Mix).wav

Peak level 94.2 %
Extraction speed 10.2 X
Track quality 99.9 %
Test CRC 6DD6A58B
Copy CRC 6DD6A58B
Accurately ripped (confidence 5) [EC3D42DA] (AR v2)
Copy OK


All tracks accurately ripped

No errors occurred

End of status report

–– CUETools DB Plugin V2.1.6

[CTDB TOCID: imDvjtwZVthR5dYnozN1IF.mPME-] found
Submit result: imDvjtwZVthR5dYnozN1IF.mPME- has been confirmed
Track | CTDB Status
1 | (12/12) Accurately ripped
2 | (12/12) Accurately ripped
3 | (12/12) Accurately ripped
4 | (12/12) Accurately ripped
5 | (12/12) Accurately ripped
6 | (12/12) Accurately ripped
7 | (12/12) Accurately ripped
8 | (12/12) Accurately ripped
9 | (12/12) Accurately ripped
10 | (12/12) Accurately ripped
11 | (12/12) Accurately ripped
12 | (12/12) Accurately ripped
13 | (12/12) Accurately ripped
14 | (12/12) Accurately ripped


==== Log checksum 90E097B1B5C4944577FFEDB8DAABD680627B5A334DB28FCB18C363DB091926CE ====
Exact Audio Copy V1.3 from 2. September 2016

EAC extraction logfile from 22. June 2019, 19:15

Curiosity Killed The Cat / Remixes, Demos & Outtakes

Used drive : PLEXTOR PX-891SAF Adapter: 1 ID: 0

Read mode : Secure
Utilize accurate stream : Yes
Defeat audio cache : Yes
Make use of C2 pointers : No

Read offset correction : 6
Overread into Lead-In and Lead-Out : No
Fill up missing offset samples with silence : Yes
Delete leading and trailing silent blocks : No
Null samples used in CRC calculations : Yes
Used interface : Native Win32 interface for Win NT & 2000
Gap handling : Appended to previous track

Used output format : User Defined Encoder
Selected bitrate : 1024 kBit/s
Quality : High
Add ID3 tag : No
Command line compressor : C:\Program Files (x86)\Exact Audio Copy\Flac\flac.exe
Additional command line options : -8 -V -T "ARTIST=%artist%" -T "TITLE=%title%" -T "ALBUM=%albumtitle%" -T "DATE=%year%" -T "TRACKNUMBER=%tracknr%" -T "GENRE=%genre%" -T "PERFORMER=%albuminterpret%" -T "COMPOSER=%composer%" %haslyrics%–tag-from-file=LYRICS="%lyricsfile%"%haslyrics% -T "ALBUMARTIST=%albumartist%" -T "DISCNUMBER=%cdnumber%" -T "TOTALDISCS=%totalcds%" -T "TOTALTRACKS=%numtracks%" -T "COMMENT=%comment%" %source% -o %dest%


TOC of the extracted CD

Track | Start | Length | Start sector | End sector
––––––––––––––––––––––––––––-
1 | 0:00.00 | 5:47.17 | 0 | 26041
2 | 5:47.17 | 4:34.27 | 26042 | 46618
3 | 10:21.44 | 4:02.10 | 46619 | 64778
4 | 14:23.54 | 5:23.73 | 64779 | 89076
5 | 19:47.52 | 4:49.46 | 89077 | 110797
6 | 24:37.23 | 3:10.24 | 110798 | 125071
7 | 27:47.47 | 4:08.25 | 125072 | 143696
8 | 31:55.72 | 3:22.04 | 143697 | 158850
9 | 35:18.01 | 2:55.40 | 158851 | 172015
10 | 38:13.41 | 3:20.51 | 172016 | 187066
11 | 41:34.17 | 5:27.28 | 187067 | 211619
12 | 47:01.45 | 2:57.03 | 211620 | 224897
13 | 49:58.48 | 3:37.14 | 224898 | 241186
14 | 53:35.62 | 3:09.74 | 241187 | 255435
15 | 56:45.61 | 3:28.10 | 255436 | 271045
16 | 60:13.71 | 4:02.27 | 271046 | 289222
17 | 64:16.23 | 3:25.51 | 289223 | 304648
18 | 67:41.74 | 3:54.18 | 304649 | 322216
19 | 71:36.17 | 3:55.09 | 322217 | 339850


Track 1

Filename D:\#New wav + flac\Curiosity Killed The Cat - Misfits The Mercury Years 1986-1990\cd 4 Curiosity Killed The Cat - Remixes, Demos & Outtakes\01. Curiosity Killed the Cat - Free (Free Style).wav

Pre-gap length 0:00:02.00

Peak level 94.2 %
Extraction speed 5.3 X
Track quality 99.9 %
Test CRC 8A92BE73
Copy CRC 8A92BE73
Accurately ripped (confidence 6) [FC568B7A] (AR v2)
Copy OK

Track 2

Filename D:\#New wav + flac\Curiosity Killed The Cat - Misfits The Mercury Years 1986-1990\cd 4 Curiosity Killed The Cat - Remixes, Demos & Outtakes\02. Curiosity Killed the Cat - Name And Number (Hanging On Person To Person).wav

Pre-gap length 0:00:01.46

Peak level 94.2 %
Extraction speed 6.6 X
Track quality 100.0 %
Test CRC 158C9F21
Copy CRC 158C9F21
Accurately ripped (confidence 6) [866BB101] (AR v2)
Copy OK

Track 3

Filename D:\#New wav + flac\Curiosity Killed The Cat - Misfits The Mercury Years 1986-1990\cd 4 Curiosity Killed The Cat - Remixes, Demos & Outtakes\03. Curiosity Killed the Cat - Free (Free Form).wav

Pre-gap length 0:00:02.01

Peak level 94.2 %
Extraction speed 7.0 X
Track quality 100.0 %
Test CRC AB36CCB6
Copy CRC AB36CCB6
Accurately ripped (confidence 6) [CC4D53B4] (AR v2)
Copy OK

Track 4

Filename D:\#New wav + flac\Curiosity Killed The Cat - Misfits The Mercury Years 1986-1990\cd 4 Curiosity Killed The Cat - Remixes, Demos & Outtakes\04. Curiosity Killed the Cat - Misfit (Club Mix).wav

Pre-gap length 0:00:01.92

Peak level 94.2 %
Extraction speed 7.7 X
Track quality 100.0 %
Test CRC CA0668CD
Copy CRC CA0668CD
Accurately ripped (confidence 6) [51A8349D] (AR v2)
Copy OK

Track 5

Filename D:\#New wav + flac\Curiosity Killed The Cat - Misfits The Mercury Years 1986-1990\cd 4 Curiosity Killed The Cat - Remixes, Demos & Outtakes\05. Curiosity Killed the Cat - Free (Solo Style).wav

Pre-gap length 0:00:00.26

Peak level 94.2 %
Extraction speed 8.2 X
Track quality 100.0 %
Test CRC 5AE2CBD4
Copy CRC 5AE2CBD4
Accurately ripped (confidence 6) [33B83A6B] (AR v2)
Copy OK

Track 6

Filename D:\#New wav + flac\Curiosity Killed The Cat - Misfits The Mercury Years 1986-1990\cd 4 Curiosity Killed The Cat - Remixes, Demos & Outtakes\06. Curiosity Killed the Cat - Misfit (Demo).wav

Pre-gap length 0:00:04.25

Peak level 94.2 %
Extraction speed 8.1 X
Track quality 100.0 %
Test CRC EB1ED120
Copy CRC EB1ED120
Accurately ripped (confidence 6) [FE5C134E] (AR v2)
Copy OK

Track 7

Filename D:\#New wav + flac\Curiosity Killed The Cat - Misfits The Mercury Years 1986-1990\cd 4 Curiosity Killed The Cat - Remixes, Demos & Outtakes\07. Curiosity Killed the Cat - Wag (Know What You Know) (Demo).wav

Pre-gap length 0:00:01.32

Peak level 94.2 %
Extraction speed 7.1 X
Track quality 99.9 %
Test CRC 19E8C5B5
Copy CRC 19E8C5B5
Accurately ripped (confidence 6) [D18C6014] (AR v2)
Copy OK

Track 8

Filename D:\#New wav + flac\Curiosity Killed The Cat - Misfits The Mercury Years 1986-1990\cd 4 Curiosity Killed The Cat - Remixes, Demos & Outtakes\08. Curiosity Killed the Cat - Curiosity Killed The Cat (Demo).wav

Peak level 94.2 %
Extraction speed 8.8 X
Track quality 100.0 %
Test CRC 673E6D6B
Copy CRC 673E6D6B
Accurately ripped (confidence 6) [92621590] (AR v2)
Copy OK

Track 9

Filename D:\#New wav + flac\Curiosity Killed The Cat - Misfits The Mercury Years 1986-1990\cd 4 Curiosity Killed The Cat - Remixes, Demos & Outtakes\09. Curiosity Killed the Cat - Ordinary Day (Demo).wav

Pre-gap length 0:00:01.26

Peak level 94.2 %
Extraction speed 8.7 X
Track quality 100.0 %
Test CRC 0F494098
Copy CRC 0F494098
Accurately ripped (confidence 6) [30F0DBC3] (AR v2)
Copy OK

Track 10

Filename D:\#New wav + flac\Curiosity Killed The Cat - Misfits The Mercury Years 1986-1990\cd 4 Curiosity Killed The Cat - Remixes, Demos & Outtakes\10. Curiosity Killed the Cat - Mile High (Demo).wav

Pre-gap length 0:00:01.86

Peak level 94.2 %
Extraction speed 9.1 X
Track quality 100.0 %
Test CRC 99780288
Copy CRC 99780288
Accurately ripped (confidence 6) [89BD54FA] (AR v2)
Copy OK

Track 11

Filename D:\#New wav + flac\Curiosity Killed The Cat - Misfits The Mercury Years 1986-1990\cd 4 Curiosity Killed The Cat - Remixes, Demos & Outtakes\11. Curiosity Killed the Cat - Red Lights (Demo).wav

Pre-gap length 0:00:00.60

Peak level 94.2 %
Extraction speed 10.0 X
Track quality 100.0 %
Test CRC 7E7063DC
Copy CRC 7E7063DC
Accurately ripped (confidence 6) [1D478E70] (AR v2)
Copy OK

Track 12

Filename D:\#New wav + flac\Curiosity Killed The Cat - Misfits The Mercury Years 1986-1990\cd 4 Curiosity Killed The Cat - Remixes, Demos & Outtakes\12. Curiosity Killed the Cat - Shallow Memory (Demo).wav

Pre-gap length 0:00:01.25

Peak level 94.2 %
Extraction speed 9.5 X
Track quality 100.0 %
Test CRC BE5ACA3C
Copy CRC BE5ACA3C
Accurately ripped (confidence 6) [B23E5718] (AR v2)
Copy OK

Track 13

Filename D:\#New wav + flac\Curiosity Killed The Cat - Misfits The Mercury Years 1986-1990\cd 4 Curiosity Killed The Cat - Remixes, Demos & Outtakes\13. Curiosity Killed the Cat - Easy (Demo).wav

Pre-gap length 0:00:01.29

Peak level 94.2 %
Extraction speed 10.1 X
Track quality 100.0 %
Test CRC 4A62E24F
Copy CRC 4A62E24F
Accurately ripped (confidence 6) [3CDBFBFE] (AR v2)
Copy OK

Track 14

Filename D:\#New wav + flac\Curiosity Killed The Cat - Misfits The Mercury Years 1986-1990\cd 4 Curiosity Killed The Cat - Remixes, Demos & Outtakes\14. Curiosity Killed the Cat - Now That You've Gone (Demo).wav

Pre-gap length 0:00:01.88

Peak level 94.2 %
Extraction speed 10.3 X
Track quality 100.0 %
Test CRC 1B6AB4BF
Copy CRC 1B6AB4BF
Accurately ripped (confidence 6) [3A2AC3EF] (AR v2)
Copy OK

Track 15

Filename D:\#New wav + flac\Curiosity Killed The Cat - Misfits The Mercury Years 1986-1990\cd 4 Curiosity Killed The Cat - Remixes, Demos & Outtakes\15. Curiosity Killed the Cat - Why (Demo).wav

Pre-gap length 0:00:00.42

Peak level 94.2 %
Extraction speed 8.4 X
Track quality 99.9 %
Test CRC A00928A4
Copy CRC A00928A4
Accurately ripped (confidence 6) [B30CC2B9] (AR v2)
Copy OK

Track 16

Filename D:\#New wav + flac\Curiosity Killed The Cat - Misfits The Mercury Years 1986-1990\cd 4 Curiosity Killed The Cat - Remixes, Demos & Outtakes\16. Curiosity Killed the Cat - Out Of Curiosity (Demo).wav

Pre-gap length 0:00:01.42

Peak level 94.2 %
Extraction speed 9.0 X
Track quality 99.9 %
Test CRC 17BF0DA9
Copy CRC 17BF0DA9
Accurately ripped (confidence 6) [FC36A7D4] (AR v2)
Copy OK

Track 17

Filename D:\#New wav + flac\Curiosity Killed The Cat - Misfits The Mercury Years 1986-1990\cd 4 Curiosity Killed The Cat - Remixes, Demos & Outtakes\17. Curiosity Killed the Cat - Hidden Informer (Demo).wav

Pre-gap length 0:00:01.50

Peak level 94.2 %
Extraction speed 11.2 X
Track quality 100.0 %
Test CRC EF1796E7
Copy CRC EF1796E7
Accurately ripped (confidence 6) [5E756A87] (AR v2)
Copy OK

Track 18

Filename D:\#New wav + flac\Curiosity Killed The Cat - Misfits The Mercury Years 1986-1990\cd 4 Curiosity Killed The Cat - Remixes, Demos & Outtakes\18. Curiosity Killed the Cat - Down To Earth (Remix).wav

Pre-gap length 0:00:02.26

Peak level 94.2 %
Extraction speed 11.3 X
Track quality 100.0 %
Test CRC 01CF482D
Copy CRC 01CF482D
Accurately ripped (confidence 6) [13927DA2] (AR v2)
Copy OK

Track 19

Filename D:\#New wav + flac\Curiosity Killed The Cat - Misfits The Mercury Years 1986-1990\cd 4 Curiosity Killed The Cat - Remixes, Demos & Outtakes\19. Curiosity Killed the Cat - Down To Earth (Instrumental Remix).wav

Pre-gap length 0:00:01.20

Peak level 94.2 %
Extraction speed 11.3 X
Track quality 100.0 %
Test CRC 0D329C73
Copy CRC 0D329C73
Accurately ripped (confidence 6) [96047FFF] (AR v2)
Copy OK


All tracks accurately ripped

No errors occurred

End of status report

–– CUETools DB Plugin V2.1.6

[CTDB TOCID: ulqgE1V0aSUPcUXtyTisQhHoEqs-] found
Submit result: ulqgE1V0aSUPcUXtyTisQhHoEqs- has been confirmed
Track | CTDB Status
1 | (12/12) Accurately ripped
2 | (12/12) Accurately ripped
3 | (12/12) Accurately ripped
4 | (12/12) Accurately ripped
5 | (12/12) Accurately ripped
6 | (12/12) Accurately ripped
7 | (12/12) Accurately ripped
8 | (12/12) Accurately ripped
9 | (12/12) Accurately ripped
10 | (12/12) Accurately ripped
11 | (12/12) Accurately ripped
12 | (12/12) Accurately ripped
13 | (12/12) Accurately ripped
14 | (12/12) Accurately ripped
15 | (12/12) Accurately ripped
16 | (12/12) Accurately ripped
17 | (12/12) Accurately ripped
18 | (12/12) Accurately ripped
19 | (12/12) Accurately ripped


==== Log checksum 25CC185BF58DA0E3D61DF31A883A75D151FC8B4E7F381660BF88A07B397111DA ====

––––––––––––––––––––––––––––––

Exact Audio Copy V1.3 from 2. September 2016

EAC extraction logfile from 22. June 2019, 19:15

Curiosity Killed The Cat / Remixes, Demos & Outtakes

Used drive : PLEXTOR PX-891SAF Adapter: 1 ID: 0

Read mode : Secure
Utilize accurate stream : Yes
Defeat audio cache : Yes
Make use of C2 pointers : No

Read offset correction : 6
Overread into Lead-In and Lead-Out : No
Fill up missing offset samples with silence : Yes
Delete leading and trailing silent blocks : No
Null samples used in CRC calculations : Yes
Used interface : Native Win32 interface for Win NT & 2000
Gap handling : Appended to previous track

Used output format : User Defined Encoder
Selected bitrate : 1024 kBit/s
Quality : High
Add ID3 tag : No
Command line compressor : C:\Program Files (x86)\Exact Audio Copy\Flac\flac.exe
Additional command line options : -8 -V -T "ARTIST=%artist%" -T "TITLE=%title%" -T "ALBUM=%albumtitle%" -T "DATE=%year%" -T "TRACKNUMBER=%tracknr%" -T "GENRE=%genre%" -T "PERFORMER=%albuminterpret%" -T "COMPOSER=%composer%" %haslyrics%–tag-from-file=LYRICS="%lyricsfile%"%haslyrics% -T "ALBUMARTIST=%albumartist%" -T "DISCNUMBER=%cdnumber%" -T "TOTALDISCS=%totalcds%" -T "TOTALTRACKS=%numtracks%" -T "COMMENT=%comment%" %source% -o %dest%


TOC of the extracted CD

Track | Start | Length | Start sector | End sector
––––––––––––––––––––––––––––-
1 | 0:00.00 | 5:47.17 | 0 | 26041
2 | 5:47.17 | 4:34.27 | 26042 | 46618
3 | 10:21.44 | 4:02.10 | 46619 | 64778
4 | 14:23.54 | 5:23.73 | 64779 | 89076
5 | 19:47.52 | 4:49.46 | 89077 | 110797
6 | 24:37.23 | 3:10.24 | 110798 | 125071
7 | 27:47.47 | 4:08.25 | 125072 | 143696
8 | 31:55.72 | 3:22.04 | 143697 | 158850
9 | 35:18.01 | 2:55.40 | 158851 | 172015
10 | 38:13.41 | 3:20.51 | 172016 | 187066
11 | 41:34.17 | 5:27.28 | 187067 | 211619
12 | 47:01.45 | 2:57.03 | 211620 | 224897
13 | 49:58.48 | 3:37.14 | 224898 | 241186
14 | 53:35.62 | 3:09.74 | 241187 | 255435
15 | 56:45.61 | 3:28.10 | 255436 | 271045
16 | 60:13.71 | 4:02.27 | 271046 | 289222
17 | 64:16.23 | 3:25.51 | 289223 | 304648
18 | 67:41.74 | 3:54.18 | 304649 | 322216
19 | 71:36.17 | 3:55.09 | 322217 | 339850


Track 1

Filename D:\#New wav + flac\Curiosity Killed The Cat - Misfits The Mercury Years 1986-1990\cd 4 Curiosity Killed The Cat - Remixes, Demos & Outtakes\01. Curiosity Killed the Cat - Free (Free Style).wav

Pre-gap length 0:00:02.00

Peak level 94.2 %
Extraction speed 5.3 X
Track quality 99.9 %
Test CRC 8A92BE73
Copy CRC 8A92BE73
Accurately ripped (confidence 6) [FC568B7A] (AR v2)
Copy OK

Track 2

Filename D:\#New wav + flac\Curiosity Killed The Cat - Misfits The Mercury Years 1986-1990\cd 4 Curiosity Killed The Cat - Remixes, Demos & Outtakes\02. Curiosity Killed the Cat - Name And Number (Hanging On Person To Person).wav

Pre-gap length 0:00:01.46

Peak level 94.2 %
Extraction speed 6.6 X
Track quality 100.0 %
Test CRC 158C9F21
Copy CRC 158C9F21
Accurately ripped (confidence 6) [866BB101] (AR v2)
Copy OK

Track 3

Filename D:\#New wav + flac\Curiosity Killed The Cat - Misfits The Mercury Years 1986-1990\cd 4 Curiosity Killed The Cat - Remixes, Demos & Outtakes\03. Curiosity Killed the Cat - Free (Free Form).wav

Pre-gap length 0:00:02.01

Peak level 94.2 %
Extraction speed 7.0 X
Track quality 100.0 %
Test CRC AB36CCB6
Copy CRC AB36CCB6
Accurately ripped (confidence 6) [CC4D53B4] (AR v2)
Copy OK

Track 4

Filename D:\#New wav + flac\Curiosity Killed The Cat - Misfits The Mercury Years 1986-1990\cd 4 Curiosity Killed The Cat - Remixes, Demos & Outtakes\04. Curiosity Killed the Cat - Misfit (Club Mix).wav

Pre-gap length 0:00:01.92

Peak level 94.2 %
Extraction speed 7.7 X
Track quality 100.0 %
Test CRC CA0668CD
Copy CRC CA0668CD
Accurately ripped (confidence 6) [51A8349D] (AR v2)
Copy OK

Track 5

Filename D:\#New wav + flac\Curiosity Killed The Cat - Misfits The Mercury Years 1986-1990\cd 4 Curiosity Killed The Cat - Remixes, Demos & Outtakes\05. Curiosity Killed the Cat - Free (Solo Style).wav

Pre-gap length 0:00:00.26

Peak level 94.2 %
Extraction speed 8.2 X
Track quality 100.0 %
Test CRC 5AE2CBD4
Copy CRC 5AE2CBD4
Accurately ripped (confidence 6) [33B83A6B] (AR v2)
Copy OK

Track 6

Filename D:\#New wav + flac\Curiosity Killed The Cat - Misfits The Mercury Years 1986-1990\cd 4 Curiosity Killed The Cat - Remixes, Demos & Outtakes\06. Curiosity Killed the Cat - Misfit (Demo).wav

Pre-gap length 0:00:04.25

Peak level 94.2 %
Extraction speed 8.1 X
Track quality 100.0 %
Test CRC EB1ED120
Copy CRC EB1ED120
Accurately ripped (confidence 6) [FE5C134E] (AR v2)
Copy OK

Track 7

Filename D:\#New wav + flac\Curiosity Killed The Cat - Misfits The Mercury Years 1986-1990\cd 4 Curiosity Killed The Cat - Remixes, Demos & Outtakes\07. Curiosity Killed the Cat - Wag (Know What You Know) (Demo).wav

Pre-gap length 0:00:01.32

Peak level 94.2 %
Extraction speed 7.1 X
Track quality 99.9 %
Test CRC 19E8C5B5
Copy CRC 19E8C5B5
Accurately ripped (confidence 6) [D18C6014] (AR v2)
Copy OK

Track 8

Filename D:\#New wav + flac\Curiosity Killed The Cat - Misfits The Mercury Years 1986-1990\cd 4 Curiosity Killed The Cat - Remixes, Demos & Outtakes\08. Curiosity Killed the Cat - Curiosity Killed The Cat (Demo).wav

Peak level 94.2 %
Extraction speed 8.8 X
Track quality 100.0 %
Test CRC 673E6D6B
Copy CRC 673E6D6B
Accurately ripped (confidence 6) [92621590] (AR v2)
Copy OK

Track 9

Filename D:\#New wav + flac\Curiosity Killed The Cat - Misfits The Mercury Years 1986-1990\cd 4 Curiosity Killed The Cat - Remixes, Demos & Outtakes\09. Curiosity Killed the Cat - Ordinary Day (Demo).wav

Pre-gap length 0:00:01.26

Peak level 94.2 %
Extraction speed 8.7 X
Track quality 100.0 %
Test CRC 0F494098
Copy CRC 0F494098
Accurately ripped (confidence 6) [30F0DBC3] (AR v2)
Copy OK

Track 10

Filename D:\#New wav + flac\Curiosity Killed The Cat - Misfits The Mercury Years 1986-1990\cd 4 Curiosity Killed The Cat - Remixes, Demos & Outtakes\10. Curiosity Killed the Cat - Mile High (Demo).wav

Pre-gap length 0:00:01.86

Peak level 94.2 %
Extraction speed 9.1 X
Track quality 100.0 %
Test CRC 99780288
Copy CRC 99780288
Accurately ripped (confidence 6) [89BD54FA] (AR v2)
Copy OK

Track 11

Filename D:\#New wav + flac\Curiosity Killed The Cat - Misfits The Mercury Years 1986-1990\cd 4 Curiosity Killed The Cat - Remixes, Demos & Outtakes\11. Curiosity Killed the Cat - Red Lights (Demo).wav

Pre-gap length 0:00:00.60

Peak level 94.2 %
Extraction speed 10.0 X
Track quality 100.0 %
Test CRC 7E7063DC
Copy CRC 7E7063DC
Accurately ripped (confidence 6) [1D478E70] (AR v2)
Copy OK

Track 12

Filename D:\#New wav + flac\Curiosity Killed The Cat - Misfits The Mercury Years 1986-1990\cd 4 Curiosity Killed The Cat - Remixes, Demos & Outtakes\12. Curiosity Killed the Cat - Shallow Memory (Demo).wav

Pre-gap length 0:00:01.25

Peak level 94.2 %
Extraction speed 9.5 X
Track quality 100.0 %
Test CRC BE5ACA3C
Copy CRC BE5ACA3C
Accurately ripped (confidence 6) [B23E5718] (AR v2)
Copy OK

Track 13

Filename D:\#New wav + flac\Curiosity Killed The Cat - Misfits The Mercury Years 1986-1990\cd 4 Curiosity Killed The Cat - Remixes, Demos & Outtakes\13. Curiosity Killed the Cat - Easy (Demo).wav

Pre-gap length 0:00:01.29

Peak level 94.2 %
Extraction speed 10.1 X
Track quality 100.0 %
Test CRC 4A62E24F
Copy CRC 4A62E24F
Accurately ripped (confidence 6) [3CDBFBFE] (AR v2)
Copy OK

Track 14

Filename D:\#New wav + flac\Curiosity Killed The Cat - Misfits The Mercury Years 1986-1990\cd 4 Curiosity Killed The Cat - Remixes, Demos & Outtakes\14. Curiosity Killed the Cat - Now That You've Gone (Demo).wav

Pre-gap length 0:00:01.88

Peak level 94.2 %
Extraction speed 10.3 X
Track quality 100.0 %
Test CRC 1B6AB4BF
Copy CRC 1B6AB4BF
Accurately ripped (confidence 6) [3A2AC3EF] (AR v2)
Copy OK

Track 15

Filename D:\#New wav + flac\Curiosity Killed The Cat - Misfits The Mercury Years 1986-1990\cd 4 Curiosity Killed The Cat - Remixes, Demos & Outtakes\15. Curiosity Killed the Cat - Why (Demo).wav

Pre-gap length 0:00:00.42

Peak level 94.2 %
Extraction speed 8.4 X
Track quality 99.9 %
Test CRC A00928A4
Copy CRC A00928A4
Accurately ripped (confidence 6) [B30CC2B9] (AR v2)
Copy OK

Track 16

Filename D:\#New wav + flac\Curiosity Killed The Cat - Misfits The Mercury Years 1986-1990\cd 4 Curiosity Killed The Cat - Remixes, Demos & Outtakes\16. Curiosity Killed the Cat - Out Of Curiosity (Demo).wav

Pre-gap length 0:00:01.42

Peak level 94.2 %
Extraction speed 9.0 X
Track quality 99.9 %
Test CRC 17BF0DA9
Copy CRC 17BF0DA9
Accurately ripped (confidence 6) [FC36A7D4] (AR v2)
Copy OK

Track 17

Filename D:\#New wav + flac\Curiosity Killed The Cat - Misfits The Mercury Years 1986-1990\cd 4 Curiosity Killed The Cat - Remixes, Demos & Outtakes\17. Curiosity Killed the Cat - Hidden Informer (Demo).wav

Pre-gap length 0:00:01.50

Peak level 94.2 %
Extraction speed 11.2 X
Track quality 100.0 %
Test CRC EF1796E7
Copy CRC EF1796E7
Accurately ripped (confidence 6) [5E756A87] (AR v2)
Copy OK

Track 18

Filename D:\#New wav + flac\Curiosity Killed The Cat - Misfits The Mercury Years 1986-1990\cd 4 Curiosity Killed The Cat - Remixes, Demos & Outtakes\18. Curiosity Killed the Cat - Down To Earth (Remix).wav

Pre-gap length 0:00:02.26

Peak level 94.2 %
Extraction speed 11.3 X
Track quality 100.0 %
Test CRC 01CF482D
Copy CRC 01CF482D
Accurately ripped (confidence 6) [13927DA2] (AR v2)
Copy OK

Track 19

Filename D:\#New wav + flac\Curiosity Killed The Cat - Misfits The Mercury Years 1986-1990\cd 4 Curiosity Killed The Cat - Remixes, Demos & Outtakes\19. Curiosity Killed the Cat - Down To Earth (Instrumental Remix).wav

Pre-gap length 0:00:01.20

Peak level 94.2 %
Extraction speed 11.3 X
Track quality 100.0 %
Test CRC 0D329C73
Copy CRC 0D329C73
Accurately ripped (confidence 6) [96047FFF] (AR v2)
Copy OK


All tracks accurately ripped

No errors occurred

End of status report

–– CUETools DB Plugin V2.1.6

[CTDB TOCID: ulqgE1V0aSUPcUXtyTisQhHoEqs-] found
Submit result: ulqgE1V0aSUPcUXtyTisQhHoEqs- has been confirmed
Track | CTDB Status
1 | (12/12) Accurately ripped
2 | (12/12) Accurately ripped
3 | (12/12) Accurately ripped
4 | (12/12) Accurately ripped
5 | (12/12) Accurately ripped
6 | (12/12) Accurately ripped
7 | (12/12) Accurately ripped
8 | (12/12) Accurately ripped
9 | (12/12) Accurately ripped
10 | (12/12) Accurately ripped
11 | (12/12) Accurately ripped
12 | (12/12) Accurately ripped
13 | (12/12) Accurately ripped
14 | (12/12) Accurately ripped
15 | (12/12) Accurately ripped
16 | (12/12) Accurately ripped
17 | (12/12) Accurately ripped
18 | (12/12) Accurately ripped
19 | (12/12) Accurately ripped


==== Log checksum 25CC185BF58DA0E3D61DF31A883A75D151FC8B4E7F381660BF88A07B397111DA ====

Thanks to the Original ripper !