Tags
Language
Tags

Lori McKenna - The Balladeer (2020)

Posted By: delpotro
Lori McKenna - The Balladeer (2020)

Lori McKenna - The Balladeer (2020)
EAC Rip | FLAC (tracks+log+.cue) - 230 Mb | MP3 CBR 320 kbps - 91 Mb | 00:37:37
Alt. Country, Folk Rock, Americana, Female Vocal | Label: CN Records, Thirty Tigers

Home and the people who make it have captivated Lori McKenna for years. Over the last three decades, as she became a wife and mother of five, she has also emerged as one of the most respected, prolific singer-songwriters in popular music. Her 2016 release The Bird and the Rifle netted three Grammy nominations, along with Americana Music Association nods - all firsts for McKenna as an artist. Then, she made history: In 2016, she became the first woman ever to win the Country Music Association’s Song of the Year two years in a row thanks to co-writing Little Big Town’s Girl Crush and penning Tim McGraw’s no. 1 Humble and Kind solo. Both songs also clinched back-to-back Grammy wins for Best Country Song. In 2017, she became the Academy of Country Music’s first female Songwriter of the Year. The Tree [2018], her eleventh studio album, was nominated for the 2019 Americana Awards Album of the Year. 2020 brings a new record for McKenna, The Balladeer, produced by Dave Cobb.
Tracklist:
1. This Town is a Woman (feat. Karen Fairchild & Kimberly Schlapman) (03:18)
2. The Balladeer (03:51)
3. Marie (03:33)
4. The Dream (04:29)
5. Uphill (03:01)
6. Good Fight (03:18)
7. Stuck in High School (03:11)
8. When You're My Age (feat. Hillary Lindsey & Liz Rose) (05:11)
9. Two Birds (03:28)
10. Till You're Grown (04:13)

Exact Audio Copy V1.3 from 2. September 2016

EAC extraction logfile from 14. September 2020, 18:09

Lori McKenna / The Balladeer

Used drive : PLEXTOR PX-891SAF Adapter: 1 ID: 0

Read mode : Secure
Utilize accurate stream : Yes
Defeat audio cache : Yes
Make use of C2 pointers : No

Read offset correction : 6
Overread into Lead-In and Lead-Out : No
Fill up missing offset samples with silence : Yes
Delete leading and trailing silent blocks : No
Null samples used in CRC calculations : Yes
Used interface : Native Win32 interface for Win NT & 2000
Gap handling : Appended to previous track

Used output format : User Defined Encoder
Selected bitrate : 1024 kBit/s
Quality : High
Add ID3 tag : No
Command line compressor : C:\Program Files (x86)\Exact Audio Copy\Flac\flac.exe
Additional command line options : -8 -V -T "ARTIST=%artist%" -T "TITLE=%title%" -T "ALBUM=%albumtitle%" -T "DATE=%year%" -T "TRACKNUMBER=%tracknr%" -T "GENRE=%genre%" -T "PERFORMER=%albuminterpret%" -T "COMPOSER=%composer%" %haslyrics%–tag-from-file=LYRICS="%lyricsfile%"%haslyrics% -T "ALBUMARTIST=%albumartist%" -T "DISCNUMBER=%cdnumber%" -T "TOTALDISCS=%totalcds%" -T "TOTALTRACKS=%numtracks%" -T "COMMENT=%comment%" %source% -o %dest%


TOC of the extracted CD

Track | Start | Length | Start sector | End sector
––––––––––––––––––––––––––––-
1 | 0:00.00 | 3:18.08 | 0 | 14857
2 | 3:18.08 | 3:51.54 | 14858 | 32236
3 | 7:09.62 | 3:33.28 | 32237 | 48239
4 | 10:43.15 | 4:29.67 | 48240 | 68481
5 | 15:13.07 | 3:01.24 | 68482 | 82080
6 | 18:14.31 | 3:18.08 | 82081 | 96938
7 | 21:32.39 | 3:11.40 | 96939 | 111303
8 | 24:44.04 | 5:11.25 | 111304 | 134653
9 | 29:55.29 | 3:28.40 | 134654 | 150293
10 | 33:23.69 | 4:13.07 | 150294 | 169275


Track 1

Filename D:\#EAC new\#wav+flac\#add\Lori McKenna - The Balladeer\01. Lori McKenna Feat. Karen Fairchild & Kimberly Schlapman - This Town Is A Woman.wav

Pre-gap length 0:00:02.00

Peak level 99.2 %
Extraction speed 5.0 X
Track quality 100.0 %
Test CRC 245944D2
Copy CRC 245944D2
Accurately ripped (confidence 2) [D0D443D5] (AR v2)
Copy OK

Track 2

Filename D:\#EAC new\#wav+flac\#add\Lori McKenna - The Balladeer\02. Lori McKenna - The Balladeer.wav

Peak level 99.4 %
Extraction speed 4.6 X
Track quality 99.9 %
Test CRC C7F88A51
Copy CRC C7F88A51
Accurately ripped (confidence 2) [566F0696] (AR v2)
Copy OK

Track 3

Filename D:\#EAC new\#wav+flac\#add\Lori McKenna - The Balladeer\03. Lori McKenna - Marie.wav

Peak level 100.0 %
Extraction speed 6.0 X
Track quality 100.0 %
Test CRC 2048CB78
Copy CRC 2048CB78
Accurately ripped (confidence 2) [690AA176] (AR v2)
Copy OK

Track 4

Filename D:\#EAC new\#wav+flac\#add\Lori McKenna - The Balladeer\04. Lori McKenna - The Dream.wav

Peak level 100.0 %
Extraction speed 5.6 X
Track quality 99.9 %
Test CRC 8B0693F1
Copy CRC 8B0693F1
Accurately ripped (confidence 2) [B3D5853C] (AR v2)
Copy OK

Track 5

Filename D:\#EAC new\#wav+flac\#add\Lori McKenna - The Balladeer\05. Lori McKenna - Uphill.wav

Peak level 97.8 %
Extraction speed 6.6 X
Track quality 100.0 %
Test CRC A7806111
Copy CRC A7806111
Accurately ripped (confidence 2) [61BA6C6B] (AR v2)
Copy OK

Track 6

Filename D:\#EAC new\#wav+flac\#add\Lori McKenna - The Balladeer\06. Lori McKenna - Good Fight.wav

Peak level 100.0 %
Extraction speed 7.0 X
Track quality 100.0 %
Test CRC 452DB849
Copy CRC 452DB849
Accurately ripped (confidence 2) [84842F14] (AR v2)
Copy OK

Track 7

Filename D:\#EAC new\#wav+flac\#add\Lori McKenna - The Balladeer\07. Lori McKenna - Stuck In High School.wav

Peak level 100.0 %
Extraction speed 5.9 X
Track quality 99.9 %
Test CRC 7FB3B18E
Copy CRC 7FB3B18E
Accurately ripped (confidence 2) [A7BE3469] (AR v2)
Copy OK

Track 8

Filename D:\#EAC new\#wav+flac\#add\Lori McKenna - The Balladeer\08. Lori McKenna Feat. Hillary Lindsey & Liz Rose - When You're My Age.wav

Peak level 100.0 %
Extraction speed 8.2 X
Track quality 100.0 %
Test CRC 71EC3D0F
Copy CRC 71EC3D0F
Accurately ripped (confidence 2) [E103CA69] (AR v2)
Copy OK

Track 9

Filename D:\#EAC new\#wav+flac\#add\Lori McKenna - The Balladeer\09. Lori McKenna - Two Birds.wav

Peak level 100.0 %
Extraction speed 8.1 X
Track quality 100.0 %
Test CRC 3EB9C4A9
Copy CRC 3EB9C4A9
Accurately ripped (confidence 2) [3AFBCD17] (AR v2)
Copy OK

Track 10

Filename D:\#EAC new\#wav+flac\#add\Lori McKenna - The Balladeer\10. Lori McKenna - Till You're Grown.wav

Peak level 98.3 %
Extraction speed 8.6 X
Track quality 100.0 %
Test CRC C71032E9
Copy CRC C71032E9
Accurately ripped (confidence 2) [3F1E81E7] (AR v2)
Copy OK


All tracks accurately ripped

No errors occurred

End of status report

–– CUETools DB Plugin V2.1.6

[CTDB TOCID: a2bEBFF3WpmCPi138SJflg6KMX0-] found
Submit result: a2bEBFF3WpmCPi138SJflg6KMX0- has been confirmed
Track | CTDB Status
1 | (6/6) Accurately ripped
2 | (6/6) Accurately ripped
3 | (6/6) Accurately ripped
4 | (6/6) Accurately ripped
5 | (6/6) Accurately ripped
6 | (6/6) Accurately ripped
7 | (6/6) Accurately ripped
8 | (6/6) Accurately ripped
9 | (6/6) Accurately ripped
10 | (6/6) Accurately ripped


==== Log checksum 6D15A7D6A92464FE1B09949E113A255BF0D3A588B63DB3EDF14DB5DE9187888A ====

––––––––––––––––––––––––––––––

Exact Audio Copy V1.3 from 2. September 2016

EAC extraction logfile from 14. September 2020, 18:09

Lori McKenna / The Balladeer

Used drive : PLEXTOR PX-891SAF Adapter: 1 ID: 0

Read mode : Secure
Utilize accurate stream : Yes
Defeat audio cache : Yes
Make use of C2 pointers : No

Read offset correction : 6
Overread into Lead-In and Lead-Out : No
Fill up missing offset samples with silence : Yes
Delete leading and trailing silent blocks : No
Null samples used in CRC calculations : Yes
Used interface : Native Win32 interface for Win NT & 2000
Gap handling : Appended to previous track

Used output format : User Defined Encoder
Selected bitrate : 1024 kBit/s
Quality : High
Add ID3 tag : No
Command line compressor : C:\Program Files (x86)\Exact Audio Copy\Flac\flac.exe
Additional command line options : -8 -V -T "ARTIST=%artist%" -T "TITLE=%title%" -T "ALBUM=%albumtitle%" -T "DATE=%year%" -T "TRACKNUMBER=%tracknr%" -T "GENRE=%genre%" -T "PERFORMER=%albuminterpret%" -T "COMPOSER=%composer%" %haslyrics%–tag-from-file=LYRICS="%lyricsfile%"%haslyrics% -T "ALBUMARTIST=%albumartist%" -T "DISCNUMBER=%cdnumber%" -T "TOTALDISCS=%totalcds%" -T "TOTALTRACKS=%numtracks%" -T "COMMENT=%comment%" %source% -o %dest%


TOC of the extracted CD

Track | Start | Length | Start sector | End sector
––––––––––––––––––––––––––––-
1 | 0:00.00 | 3:18.08 | 0 | 14857
2 | 3:18.08 | 3:51.54 | 14858 | 32236
3 | 7:09.62 | 3:33.28 | 32237 | 48239
4 | 10:43.15 | 4:29.67 | 48240 | 68481
5 | 15:13.07 | 3:01.24 | 68482 | 82080
6 | 18:14.31 | 3:18.08 | 82081 | 96938
7 | 21:32.39 | 3:11.40 | 96939 | 111303
8 | 24:44.04 | 5:11.25 | 111304 | 134653
9 | 29:55.29 | 3:28.40 | 134654 | 150293
10 | 33:23.69 | 4:13.07 | 150294 | 169275


Track 1

Filename D:\#EAC new\#wav+flac\#add\Lori McKenna - The Balladeer\01. Lori McKenna Feat. Karen Fairchild & Kimberly Schlapman - This Town Is A Woman.wav

Pre-gap length 0:00:02.00

Peak level 99.2 %
Extraction speed 5.0 X
Track quality 100.0 %
Test CRC 245944D2
Copy CRC 245944D2
Accurately ripped (confidence 2) [D0D443D5] (AR v2)
Copy OK

Track 2

Filename D:\#EAC new\#wav+flac\#add\Lori McKenna - The Balladeer\02. Lori McKenna - The Balladeer.wav

Peak level 99.4 %
Extraction speed 4.6 X
Track quality 99.9 %
Test CRC C7F88A51
Copy CRC C7F88A51
Accurately ripped (confidence 2) [566F0696] (AR v2)
Copy OK

Track 3

Filename D:\#EAC new\#wav+flac\#add\Lori McKenna - The Balladeer\03. Lori McKenna - Marie.wav

Peak level 100.0 %
Extraction speed 6.0 X
Track quality 100.0 %
Test CRC 2048CB78
Copy CRC 2048CB78
Accurately ripped (confidence 2) [690AA176] (AR v2)
Copy OK

Track 4

Filename D:\#EAC new\#wav+flac\#add\Lori McKenna - The Balladeer\04. Lori McKenna - The Dream.wav

Peak level 100.0 %
Extraction speed 5.6 X
Track quality 99.9 %
Test CRC 8B0693F1
Copy CRC 8B0693F1
Accurately ripped (confidence 2) [B3D5853C] (AR v2)
Copy OK

Track 5

Filename D:\#EAC new\#wav+flac\#add\Lori McKenna - The Balladeer\05. Lori McKenna - Uphill.wav

Peak level 97.8 %
Extraction speed 6.6 X
Track quality 100.0 %
Test CRC A7806111
Copy CRC A7806111
Accurately ripped (confidence 2) [61BA6C6B] (AR v2)
Copy OK

Track 6

Filename D:\#EAC new\#wav+flac\#add\Lori McKenna - The Balladeer\06. Lori McKenna - Good Fight.wav

Peak level 100.0 %
Extraction speed 7.0 X
Track quality 100.0 %
Test CRC 452DB849
Copy CRC 452DB849
Accurately ripped (confidence 2) [84842F14] (AR v2)
Copy OK

Track 7

Filename D:\#EAC new\#wav+flac\#add\Lori McKenna - The Balladeer\07. Lori McKenna - Stuck In High School.wav

Peak level 100.0 %
Extraction speed 5.9 X
Track quality 99.9 %
Test CRC 7FB3B18E
Copy CRC 7FB3B18E
Accurately ripped (confidence 2) [A7BE3469] (AR v2)
Copy OK

Track 8

Filename D:\#EAC new\#wav+flac\#add\Lori McKenna - The Balladeer\08. Lori McKenna Feat. Hillary Lindsey & Liz Rose - When You're My Age.wav

Peak level 100.0 %
Extraction speed 8.2 X
Track quality 100.0 %
Test CRC 71EC3D0F
Copy CRC 71EC3D0F
Accurately ripped (confidence 2) [E103CA69] (AR v2)
Copy OK

Track 9

Filename D:\#EAC new\#wav+flac\#add\Lori McKenna - The Balladeer\09. Lori McKenna - Two Birds.wav

Peak level 100.0 %
Extraction speed 8.1 X
Track quality 100.0 %
Test CRC 3EB9C4A9
Copy CRC 3EB9C4A9
Accurately ripped (confidence 2) [3AFBCD17] (AR v2)
Copy OK

Track 10

Filename D:\#EAC new\#wav+flac\#add\Lori McKenna - The Balladeer\10. Lori McKenna - Till You're Grown.wav

Peak level 98.3 %
Extraction speed 8.6 X
Track quality 100.0 %
Test CRC C71032E9
Copy CRC C71032E9
Accurately ripped (confidence 2) [3F1E81E7] (AR v2)
Copy OK


All tracks accurately ripped

No errors occurred

End of status report

–– CUETools DB Plugin V2.1.6

[CTDB TOCID: a2bEBFF3WpmCPi138SJflg6KMX0-] found
Submit result: a2bEBFF3WpmCPi138SJflg6KMX0- has been confirmed
Track | CTDB Status
1 | (6/6) Accurately ripped
2 | (6/6) Accurately ripped
3 | (6/6) Accurately ripped
4 | (6/6) Accurately ripped
5 | (6/6) Accurately ripped
6 | (6/6) Accurately ripped
7 | (6/6) Accurately ripped
8 | (6/6) Accurately ripped
9 | (6/6) Accurately ripped
10 | (6/6) Accurately ripped


==== Log checksum 6D15A7D6A92464FE1B09949E113A255BF0D3A588B63DB3EDF14DB5DE9187888A ====

Thanks to the Original ripper !