Subcategories
Tags
Language
Tags

Nonlocal Forecast - Bubble Universe! (2019)

Posted By: delpotro
Nonlocal Forecast - Bubble Universe! (2019)

Nonlocal Forecast - Bubble Universe! (2019)
EAC Rip | FLAC (tracks+log+.cue) - 228 Mb | MP3 CBR 320 kbps - 95 Mb | Covers included | 00:39:09
Progressive Electronic, New Age | Label: Hausu Mountain

The music that Chicago-based producer/composer Angel Marcloid makes under the new moniker Nonlocal Forecast distills her experimentation in the prog, jazz fusion, and new age disciplines into pristine instrumental compositions teeming with intricate harmonic structures and complex webs of programmed percussion. Orbiting as another satellite around her genre-obliterating flagship projects like Fire-Toolz and MindSpring Memories, Nonlocal Forecast centers Marcloids practice on a palette of technical leads and atmospheric MIDI synth arrangements. For the projects debut album Bubble Universe!, Marcloid drew inspiration from her personal studies in quantum physics/mechanics and non-dual spirituality. These frameworks steer her toward a strain of micro/macrocosmic composition in which the granular unfurling of rhythms and melodic elements evoke the movement of celestial bodies as much as subatomic particles on the smallest scale.
Tracklist:
1. Celestial Nervous System (05:53)
2. Planck Lengths (04:05)
3. Cloud-Hidden (02:10)
4. The Direct Path (04:02)
5. Triangular Format (feat. Fire-Toolz) (02:50)
6. The Evolutionary Game (04:20)
7. Classical Information (02:19)
8. Foam, Vacuum, Om (04:59)
9. Conscious Agent Combos (04:30)
10. Wave Nature (04:02)

Exact Audio Copy V1.3 from 2. September 2016

EAC extraction logfile from 26. October 2019, 21:56

Nonlocal Forecast / Bubble Universe!

Used drive : ASUS DRW-24B1ST c Adapter: 1 ID: 0

Read mode : Secure
Utilize accurate stream : Yes
Defeat audio cache : Yes
Make use of C2 pointers : No

Read offset correction : 6
Overread into Lead-In and Lead-Out : No
Fill up missing offset samples with silence : Yes
Delete leading and trailing silent blocks : No
Null samples used in CRC calculations : Yes
Used interface : Native Win32 interface for Win NT & 2000
Gap handling : Appended to previous track

Used output format : User Defined Encoder
Selected bitrate : 1024 kBit/s
Quality : High
Add ID3 tag : No
Command line compressor : C:\Program Files (x86)\Exact Audio Copy\Flac\flac.exe
Additional command line options : -8 -V -T "ARTIST=%artist%" -T "TITLE=%title%" -T "ALBUM=%albumtitle%" -T "DATE=%year%" -T "TRACKNUMBER=%tracknr%" -T "GENRE=%genre%" -T "PERFORMER=%albuminterpret%" -T "COMPOSER=%composer%" %haslyrics%–tag-from-file=LYRICS="%lyricsfile%"%haslyrics% -T "ALBUMARTIST=%albumartist%" -T "DISCNUMBER=%cdnumber%" -T "TOTALDISCS=%totalcds%" -T "TOTALTRACKS=%numtracks%" -T "COMMENT=%comment%" %source% -o %dest%


TOC of the extracted CD

Track | Start | Length | Start sector | End sector
––––––––––––––––––––––––––––-
1 | 0:00.00 | 5:52.54 | 0 | 26453
2 | 5:52.54 | 4:05.05 | 26454 | 44833
3 | 9:57.59 | 2:09.43 | 44834 | 54551
4 | 12:07.27 | 4:01.57 | 54552 | 72683
5 | 16:09.09 | 2:49.73 | 72684 | 85431
6 | 18:59.07 | 4:20.24 | 85432 | 104955
7 | 23:19.31 | 2:18.73 | 104956 | 115378
8 | 25:38.29 | 4:59.14 | 115379 | 137817
9 | 30:37.43 | 4:29.60 | 137818 | 158052
10 | 35:07.28 | 4:01.51 | 158053 | 176178


Track 1

Filename C:\Users\aphoticstarfield\Desktop\Nonlocal Forecast - Bubble Universe! (2019) [CD] [FLAC]\01 - Celestial Nervous System.wav

Pre-gap length 0:00:02.00

Peak level 89.0 %
Extraction speed 6.1 X
Track quality 100.0 %
Test CRC A4ADCA93
Copy CRC A4ADCA93
Track not present in AccurateRip database
Copy OK

Track 2

Filename C:\Users\aphoticstarfield\Desktop\Nonlocal Forecast - Bubble Universe! (2019) [CD] [FLAC]\02 - Planck Lengths.wav

Peak level 89.0 %
Extraction speed 6.5 X
Track quality 100.0 %
Test CRC 71F85ABA
Copy CRC 71F85ABA
Track not present in AccurateRip database
Copy OK

Track 3

Filename C:\Users\aphoticstarfield\Desktop\Nonlocal Forecast - Bubble Universe! (2019) [CD] [FLAC]\03 - Cloud-Hidden.wav

Peak level 89.0 %
Extraction speed 6.1 X
Track quality 100.0 %
Test CRC 9A375EDC
Copy CRC 9A375EDC
Track not present in AccurateRip database
Copy OK

Track 4

Filename C:\Users\aphoticstarfield\Desktop\Nonlocal Forecast - Bubble Universe! (2019) [CD] [FLAC]\04 - The Direct Path.wav

Peak level 89.0 %
Extraction speed 7.2 X
Track quality 100.0 %
Test CRC 2C445EE4
Copy CRC 2C445EE4
Track not present in AccurateRip database
Copy OK

Track 5

Filename C:\Users\aphoticstarfield\Desktop\Nonlocal Forecast - Bubble Universe! (2019) [CD] [FLAC]\05 - Triangular Format.wav

Peak level 89.0 %
Extraction speed 5.4 X
Track quality 99.9 %
Test CRC 9A5BA398
Copy CRC 9A5BA398
Track not present in AccurateRip database
Copy OK

Track 6

Filename C:\Users\aphoticstarfield\Desktop\Nonlocal Forecast - Bubble Universe! (2019) [CD] [FLAC]\06 - The Evolutionary Game.wav

Peak level 89.0 %
Extraction speed 7.9 X
Track quality 100.0 %
Test CRC 9F4A15C3
Copy CRC 9F4A15C3
Track not present in AccurateRip database
Copy OK

Track 7

Filename C:\Users\aphoticstarfield\Desktop\Nonlocal Forecast - Bubble Universe! (2019) [CD] [FLAC]\07 - Classical Information.wav

Peak level 89.0 %
Extraction speed 7.4 X
Track quality 100.0 %
Test CRC 964A96A9
Copy CRC 964A96A9
Track not present in AccurateRip database
Copy OK

Track 8

Filename C:\Users\aphoticstarfield\Desktop\Nonlocal Forecast - Bubble Universe! (2019) [CD] [FLAC]\08 - Foam, Vacuum, Om.wav

Peak level 89.0 %
Extraction speed 8.7 X
Track quality 100.0 %
Test CRC C41EFFDB
Copy CRC C41EFFDB
Track not present in AccurateRip database
Copy OK

Track 9

Filename C:\Users\aphoticstarfield\Desktop\Nonlocal Forecast - Bubble Universe! (2019) [CD] [FLAC]\09 - Conscious Agent Combos.wav

Peak level 89.0 %
Extraction speed 9.0 X
Track quality 100.0 %
Test CRC 5D2C2573
Copy CRC 5D2C2573
Track not present in AccurateRip database
Copy OK

Track 10

Filename C:\Users\aphoticstarfield\Desktop\Nonlocal Forecast - Bubble Universe! (2019) [CD] [FLAC]\10 - Wave Nature.wav

Peak level 89.0 %
Extraction speed 7.4 X
Track quality 99.9 %
Test CRC E101A962
Copy CRC E101A962
Track not present in AccurateRip database
Copy OK


None of the tracks are present in the AccurateRip database

No errors occurred

End of status report

–– CUETools DB Plugin V2.1.6

[CTDB TOCID: fN0pdHHDCrmB35zxsmeXrYymr94-] found
Submit result: fN0pdHHDCrmB35zxsmeXrYymr94- has been confirmed
Track | CTDB Status
1 | (1/1) Accurately ripped
2 | (1/1) Accurately ripped
3 | (1/1) Accurately ripped
4 | (1/1) Accurately ripped
5 | (1/1) Accurately ripped
6 | (1/1) Accurately ripped
7 | (1/1) Accurately ripped
8 | (1/1) Accurately ripped
9 | (1/1) Accurately ripped
10 | (1/1) Accurately ripped


==== Log checksum 9FA18B7F2DF7BE7BFA5DD961C9201B2D45B6262B469AD48BFE9570757C611C12 ====

Thanks to the Original ripper !