Tags
Language
Tags

Shakespears Sister - Singles Party (1988-2019) (2019)

Posted By: delpotro
Shakespears Sister - Singles Party (1988-2019) (2019)

Shakespears Sister - Singles Party (1988-2019) (2019)
EAC Rip | FLAC (tracks+log+.cue) - 1,02 Gb | MP3 CBR 320 kbps - 340 Mb | 02:28:13
Electronic, Pop Rock, New Wave, Female Vocal | Label: London Music Stream

The duo have announced details of a compilation entitled Singles Party (1988 – 2019), which rounds up all their 45s together as well as featuring two new numbers ‘All The Queen’s Horses’ and ‘C U Next Tuesday’. A two-CD deluxe edition features an array of remixes, rarities and bonus tracks.

Originally forming in 1988 after Siobhan fled Bananarama, Shakespears Sister racked up a number of hits across the end of the eighties/ early nineties, including ‘You’re History’, the eight-weeks-at-number-one smash ‘Stay’ and accompanying album Hormonally Yours. However it all went a bit sour went Siobhan announced cheerio to Detroit at an awards ceremony over 25 years ago, which was news to Detroit at the time, leading to a somewhat undignified separation. Siobhan occasionally carried on with the name in later years, but both her and Detroit finally sat down with each other last year and decided to bury the hatchet and resume operations again.
Tracklist:
Disc 1 (01:09:17)
1. Break My Heart (Remastered) (03:32)
2. Heroine (Remastered) (03:48)
3. You're History (Remastered) (04:32)
4. Run Silent (Remastered) (03:45)
5. Dirty Mind (Remastered) (04:10)
6. Stay (Remastered) (03:50)
7. I Don't Care (Remastered) (04:27)
8. Goodbye Cruel World (Remastered) (04:05)
9. Hello (Turn Your Radio On) [Remastered] (04:22)
10. My 16th Apology (Remastered) (03:49)
11. I Can Drive (Remastered) (04:11)
12. Bitter Pill (Remastered) (03:38)
13. Pulsatron (Remastered) (03:16)
14. Bad Blood (Remastered) (04:19)
15. It's a Trip (Remastered) (03:44)
16. All the Queen's Horses (03:25)
17. C U Next Tuesday (02:37)
18. Stay (Acoustic Version) [Remastered] (03:47)

Disc 2 (01:18:35)
1. Cat Worship (02:19)
2. You're History (Catz 'n Dogz Remix) (07:22)
3. You Made Me Come to This (HMD Pulsatron Mix) (06:10)
4. Pretty Boy (Remastered) (03:41)
5. Mr Wrong (Remastered) (03:59)
6. Remember My Name (Remastered) (03:39)
7. Do I Scare You? (Remastered) (05:12)
8. Excuse Me John (Remastered) (04:44)
9. Singles Party (Remastered) (04:07)
10. Heroine (Heavenly Mix) [Remastered] (06:37)
11. Black Sky (The Black Dub) [Remastered] (07:13)
12. Break My Heart (Shep Pettibone Dub) [Remastered] (07:58)
13. Goodbye Cruel World (BTO Remix) [Remastered] (07:06)
14. You're History (Brothers In Rhythm Remix) [Remastered] (08:28)

Exact Audio Copy V1.1 from 23. June 2015

EAC extraction logfile from 26. July 2019, 21:10

Shakespears Sister / Singles Party (1988-2019) [Deluxe Edition]

Used drive : SlimtypeeBAU108 6 L Adapter: 1 ID: 0

Read mode : Secure
Utilize accurate stream : Yes
Defeat audio cache : Yes
Make use of C2 pointers : No

Read offset correction : 6
Overread into Lead-In and Lead-Out : No
Fill up missing offset samples with silence : Yes
Delete leading and trailing silent blocks : No
Null samples used in CRC calculations : Yes
Used interface : Native Win32 interface for Win NT & 2000
Gap handling : Appended to previous track

Used output format : User Defined Encoder
Selected bitrate : 1024 kBit/s
Quality : High
Add ID3 tag : No
Command line compressor : D:\Software\flac-1.2.1-win\bin\flac.exe
Additional command line options : -8 -V -T "ARTIST=%artist%" -T "TITLE=%title%" -T "ALBUM=%albumtitle%" -T "DATE=%year%" -T "TRACKNUMBER=%tracknr%" -T "GENRE=%genre%" -T "PERFORMER=%albuminterpret%" -T "COMPOSER=%composer%" %haslyrics%–tag-from-file=LYRICS="%lyricsfile%"%haslyrics% -T "ALBUMARTIST=%albumartist%" -T "DISCNUMBER=%cdnumber%" -T "TOTALDISCS=%totalcds%" -T "TOTALTRACKS=%numtracks%" -T "COMMENT=%comment%" %source% -o %dest%


TOC of the extracted CD

Track | Start | Length | Start sector | End sector
––––––––––––––––––––––––––––-
1 | 0:00.00 | 3:33.35 | 0 | 16009
2 | 3:33.35 | 3:48.71 | 16010 | 33180
3 | 7:22.31 | 4:32.59 | 33181 | 53639
4 | 11:55.15 | 3:45.34 | 53640 | 70548
5 | 15:40.49 | 4:10.16 | 70549 | 89314
6 | 19:50.65 | 3:50.27 | 89315 | 106591
7 | 23:41.17 | 4:27.05 | 106592 | 126621
8 | 28:08.22 | 4:05.60 | 126622 | 145056
9 | 32:14.07 | 4:22.40 | 145057 | 164746
10 | 36:36.47 | 3:49.55 | 164747 | 181976
11 | 40:26.27 | 4:11.08 | 181977 | 200809
12 | 44:37.35 | 3:38.03 | 200810 | 217162
13 | 48:15.38 | 3:16.13 | 217163 | 231875
14 | 51:31.51 | 4:19.05 | 231876 | 251305
15 | 55:50.56 | 3:44.38 | 251306 | 268143
16 | 59:35.19 | 3:25.30 | 268144 | 283548
17 | 63:00.49 | 2:39.46 | 283549 | 295519
18 | 65:40.20 | 3:48.66 | 295520 | 312685


Track 1

Filename E:\BGMusic\Shakespears Sister - Singles Party (1988- 2019)\CD1\01 - Break My Heart.wav

Pre-gap length 0:00:02.00

Peak level 96.6 %
Extraction speed 0.9 X
Track quality 99.9 %
Test CRC 7736650F
Copy CRC 7736650F
Track not present in AccurateRip database
Copy OK

Track 2

Filename E:\BGMusic\Shakespears Sister - Singles Party (1988- 2019)\CD1\02 - Heroine.wav

Peak level 96.6 %
Extraction speed 1.2 X
Track quality 100.0 %
Test CRC 94DB585B
Copy CRC 94DB585B
Track not present in AccurateRip database
Copy OK

Track 3

Filename E:\BGMusic\Shakespears Sister - Singles Party (1988- 2019)\CD1\03 - You're History.wav

Peak level 96.6 %
Extraction speed 1.3 X
Track quality 100.0 %
Test CRC D0961017
Copy CRC D0961017
Track not present in AccurateRip database
Copy OK

Track 4

Filename E:\BGMusic\Shakespears Sister - Singles Party (1988- 2019)\CD1\04 - Run Silent.wav

Peak level 96.6 %
Extraction speed 1.2 X
Track quality 99.9 %
Test CRC 67428DDE
Copy CRC 67428DDE
Track not present in AccurateRip database
Copy OK

Track 5

Filename E:\BGMusic\Shakespears Sister - Singles Party (1988- 2019)\CD1\05 - Dirty Mind.wav

Peak level 96.6 %
Extraction speed 1.5 X
Track quality 100.0 %
Test CRC DF03BC09
Copy CRC DF03BC09
Track not present in AccurateRip database
Copy OK

Track 6

Filename E:\BGMusic\Shakespears Sister - Singles Party (1988- 2019)\CD1\06 - Stay.wav

Peak level 96.6 %
Extraction speed 1.6 X
Track quality 100.0 %
Test CRC 62E437F7
Copy CRC 62E437F7
Track not present in AccurateRip database
Copy OK

Track 7

Filename E:\BGMusic\Shakespears Sister - Singles Party (1988- 2019)\CD1\07 - I Don't Care.wav

Peak level 96.6 %
Extraction speed 1.7 X
Track quality 100.0 %
Test CRC B2AA13EB
Copy CRC B2AA13EB
Track not present in AccurateRip database
Copy OK

Track 8

Filename E:\BGMusic\Shakespears Sister - Singles Party (1988- 2019)\CD1\08 - Goodbye Cruel World.wav

Peak level 96.6 %
Extraction speed 1.8 X
Track quality 100.0 %
Test CRC 51B1329B
Copy CRC 51B1329B
Track not present in AccurateRip database
Copy OK

Track 9

Filename E:\BGMusic\Shakespears Sister - Singles Party (1988- 2019)\CD1\09 - Hello (Turn Your Radio On).wav

Peak level 96.6 %
Extraction speed 1.8 X
Track quality 100.0 %
Test CRC 87353C02
Copy CRC 87353C02
Track not present in AccurateRip database
Copy OK

Track 10

Filename E:\BGMusic\Shakespears Sister - Singles Party (1988- 2019)\CD1\10 - My 16th Apology.wav

Peak level 96.6 %
Extraction speed 1.7 X
Track quality 99.9 %
Test CRC 6B36E9E9
Copy CRC 6B36E9E9
Track not present in AccurateRip database
Copy OK

Track 11

Filename E:\BGMusic\Shakespears Sister - Singles Party (1988- 2019)\CD1\11 - I Can Drive.wav

Peak level 96.6 %
Extraction speed 2.0 X
Track quality 100.0 %
Test CRC FF9D4487
Copy CRC FF9D4487
Track not present in AccurateRip database
Copy OK

Track 12

Filename E:\BGMusic\Shakespears Sister - Singles Party (1988- 2019)\CD1\12 - Bitter Pill.wav

Peak level 93.4 %
Extraction speed 2.0 X
Track quality 100.0 %
Test CRC 33777F9A
Copy CRC 33777F9A
Track not present in AccurateRip database
Copy OK

Track 13

Filename E:\BGMusic\Shakespears Sister - Singles Party (1988- 2019)\CD1\13 - Pulsatron.wav

Peak level 96.6 %
Extraction speed 1.8 X
Track quality 99.9 %
Test CRC 6D232AD8
Copy CRC 6D232AD8
Track not present in AccurateRip database
Copy OK

Track 14

Filename E:\BGMusic\Shakespears Sister - Singles Party (1988- 2019)\CD1\14 - Bad Blood.wav

Peak level 96.6 %
Extraction speed 2.2 X
Track quality 100.0 %
Test CRC C09EBBE0
Copy CRC C09EBBE0
Track not present in AccurateRip database
Copy OK

Track 15

Filename E:\BGMusic\Shakespears Sister - Singles Party (1988- 2019)\CD1\15 - It's a Trip.wav

Peak level 94.0 %
Extraction speed 2.2 X
Track quality 100.0 %
Test CRC 98B88D22
Copy CRC 98B88D22
Track not present in AccurateRip database
Copy OK

Track 16

Filename E:\BGMusic\Shakespears Sister - Singles Party (1988- 2019)\CD1\16 - All The Queen's Horses.wav

Peak level 96.6 %
Extraction speed 2.2 X
Track quality 100.0 %
Test CRC 2AA12435
Copy CRC 2AA12435
Track not present in AccurateRip database
Copy OK

Track 17

Filename E:\BGMusic\Shakespears Sister - Singles Party (1988- 2019)\CD1\17 - C U Next Tuesday.wav

Peak level 96.6 %
Extraction speed 2.2 X
Track quality 100.0 %
Test CRC EC3D9AB0
Copy CRC EC3D9AB0
Track not present in AccurateRip database
Copy OK

Track 18

Filename E:\BGMusic\Shakespears Sister - Singles Party (1988- 2019)\CD1\18 - Stay (Acoustic Version).wav

Peak level 86.6 %
Extraction speed 2.3 X
Track quality 100.0 %
Test CRC BEC4E726
Copy CRC BEC4E726
Track not present in AccurateRip database
Copy OK


None of the tracks are present in the AccurateRip database

No errors occurred

End of status report

–– CUETools DB Plugin V2.1.6

[CTDB TOCID: ixvSDBqVD9zMud1rf92yJsxWkUU-] found
Submit result: ixvSDBqVD9zMud1rf92yJsxWkUU- has been confirmed
Track | CTDB Status
1 | (7/7) Accurately ripped
2 | (7/7) Accurately ripped
3 | (7/7) Accurately ripped
4 | (7/7) Accurately ripped
5 | (7/7) Accurately ripped
6 | (7/7) Accurately ripped
7 | (7/7) Accurately ripped
8 | (7/7) Accurately ripped
9 | (7/7) Accurately ripped
10 | (7/7) Accurately ripped
11 | (7/7) Accurately ripped
12 | (7/7) Accurately ripped
13 | (7/7) Accurately ripped
14 | (7/7) Accurately ripped
15 | (7/7) Accurately ripped
16 | (7/7) Accurately ripped
17 | (7/7) Accurately ripped
18 | (7/7) Accurately ripped


==== Log checksum 790B05694611162587707A479123B6B06ACE805F6FE929CA6180D6F9BC85B1C4 ====
Exact Audio Copy V1.1 from 23. June 2015

EAC extraction logfile from 26. July 2019, 22:45

Shakespears Sister / Singles Party (1988-2019) [Deluxe Edition]

Used drive : SlimtypeeBAU108 6 L Adapter: 1 ID: 0

Read mode : Secure
Utilize accurate stream : Yes
Defeat audio cache : Yes
Make use of C2 pointers : No

Read offset correction : 6
Overread into Lead-In and Lead-Out : No
Fill up missing offset samples with silence : Yes
Delete leading and trailing silent blocks : No
Null samples used in CRC calculations : Yes
Used interface : Native Win32 interface for Win NT & 2000
Gap handling : Appended to previous track

Used output format : User Defined Encoder
Selected bitrate : 1024 kBit/s
Quality : High
Add ID3 tag : No
Command line compressor : D:\Software\flac-1.2.1-win\bin\flac.exe
Additional command line options : -8 -V -T "ARTIST=%artist%" -T "TITLE=%title%" -T "ALBUM=%albumtitle%" -T "DATE=%year%" -T "TRACKNUMBER=%tracknr%" -T "GENRE=%genre%" -T "PERFORMER=%albuminterpret%" -T "COMPOSER=%composer%" %haslyrics%–tag-from-file=LYRICS="%lyricsfile%"%haslyrics% -T "ALBUMARTIST=%albumartist%" -T "DISCNUMBER=%cdnumber%" -T "TOTALDISCS=%totalcds%" -T "TOTALTRACKS=%numtracks%" -T "COMMENT=%comment%" %source% -o %dest%


TOC of the extracted CD

Track | Start | Length | Start sector | End sector
––––––––––––––––––––––––––––-
1 | 0:00.00 | 2:20.43 | 0 | 10542
2 | 2:20.43 | 7:22.06 | 10543 | 43698
3 | 9:42.49 | 6:10.25 | 43699 | 71473
4 | 15:52.74 | 3:41.70 | 71474 | 88118
5 | 19:34.69 | 3:59.29 | 88119 | 106072
6 | 23:34.23 | 3:39.18 | 106073 | 122515
7 | 27:13.41 | 5:12.64 | 122516 | 145979
8 | 32:26.30 | 4:44.62 | 145980 | 167341
9 | 37:11.17 | 4:07.33 | 167342 | 185899
10 | 41:18.50 | 6:37.34 | 185900 | 215708
11 | 47:56.09 | 7:13.07 | 215709 | 248190
12 | 55:09.16 | 7:58.67 | 248191 | 284107
13 | 63:08.08 | 7:06.13 | 284108 | 316070
14 | 70:14.21 | 8:30.19 | 316071 | 354339


Track 1

Filename E:\BGMusic\Shakespears Sister - Singles Party (1988- 2019)\CD2\01 - Cat Worship.wav

Pre-gap length 0:00:02.00

Peak level 96.6 %
Extraction speed 1.1 X
Track quality 100.0 %
Test CRC 5D2B371E
Copy CRC 5D2B371E
Track not present in AccurateRip database
Copy OK

Track 2

Filename E:\BGMusic\Shakespears Sister - Singles Party (1988- 2019)\CD2\02 - You're History (Catz 'n Dogz Remix).wav

Peak level 96.6 %
Extraction speed 1.4 X
Track quality 100.0 %
Test CRC 048D4098
Copy CRC 048D4098
Track not present in AccurateRip database
Copy OK

Track 3

Filename E:\BGMusic\Shakespears Sister - Singles Party (1988- 2019)\CD2\03 - You Made Me Come to This (HMD Pulsatron Mix).wav

Peak level 96.6 %
Extraction speed 1.6 X
Track quality 100.0 %
Test CRC C1199AC8
Copy CRC C1199AC8
Track not present in AccurateRip database
Copy OK

Track 4

Filename E:\BGMusic\Shakespears Sister - Singles Party (1988- 2019)\CD2\04 - Pretty Boy.wav

Peak level 96.6 %
Extraction speed 1.6 X
Track quality 100.0 %
Test CRC 9BB8225E
Copy CRC 9BB8225E
Track not present in AccurateRip database
Copy OK

Track 5

Filename E:\BGMusic\Shakespears Sister - Singles Party (1988- 2019)\CD2\05 - Mr Wrong.wav

Peak level 96.6 %
Extraction speed 1.5 X
Track quality 99.9 %
Test CRC AD34E571
Copy CRC AD34E571
Track not present in AccurateRip database
Copy OK

Track 6

Filename E:\BGMusic\Shakespears Sister - Singles Party (1988- 2019)\CD2\06 - Remember My Name.wav

Peak level 96.6 %
Extraction speed 1.8 X
Track quality 100.0 %
Test CRC A9077A7C
Copy CRC A9077A7C
Track not present in AccurateRip database
Copy OK

Track 7

Filename E:\BGMusic\Shakespears Sister - Singles Party (1988- 2019)\CD2\07 - Do I Scare You.wav

Peak level 96.6 %
Extraction speed 2.0 X
Track quality 100.0 %
Test CRC 8C3A70F1
Copy CRC 8C3A70F1
Track not present in AccurateRip database
Copy OK

Track 8

Filename E:\BGMusic\Shakespears Sister - Singles Party (1988- 2019)\CD2\08 - Excuse Me John.wav

Peak level 96.6 %
Extraction speed 1.8 X
Track quality 99.9 %
Test CRC 76B76BB9
Copy CRC 76B76BB9
Track not present in AccurateRip database
Copy OK

Track 9

Filename E:\BGMusic\Shakespears Sister - Singles Party (1988- 2019)\CD2\09 - Singles Party.wav

Peak level 96.6 %
Extraction speed 2.1 X
Track quality 100.0 %
Test CRC 7BC41A53
Copy CRC 7BC41A53
Track not present in AccurateRip database
Copy OK

Track 10

Filename E:\BGMusic\Shakespears Sister - Singles Party (1988- 2019)\CD2\10 - Heroine (Heavenly Mix).wav

Peak level 96.6 %
Extraction speed 2.3 X
Track quality 100.0 %
Test CRC DCCE1FF2
Copy CRC DCCE1FF2
Track not present in AccurateRip database
Copy OK

Track 11

Filename E:\BGMusic\Shakespears Sister - Singles Party (1988- 2019)\CD2\11 - Black Sky (The Black Dub).wav

Peak level 96.6 %
Extraction speed 2.4 X
Track quality 100.0 %
Test CRC A9678D43
Copy CRC A9678D43
Track not present in AccurateRip database
Copy OK

Track 12

Filename E:\BGMusic\Shakespears Sister - Singles Party (1988- 2019)\CD2\12 - Break My Heart (Shep Pettibone Dub).wav

Peak level 96.6 %
Extraction speed 2.6 X
Track quality 100.0 %
Test CRC 96CD094A
Copy CRC 96CD094A
Track not present in AccurateRip database
Copy OK

Track 13

Filename E:\BGMusic\Shakespears Sister - Singles Party (1988- 2019)\CD2\13 - Goodbye Cruel World (BTO Remix).wav

Peak level 96.6 %
Extraction speed 2.7 X
Track quality 100.0 %
Test CRC E45F2A84
Copy CRC E45F2A84
Track not present in AccurateRip database
Copy OK

Track 14

Filename E:\BGMusic\Shakespears Sister - Singles Party (1988- 2019)\CD2\14 - You're History (Brothers In Rhythm Remix).wav

Peak level 96.6 %
Extraction speed 2.8 X
Track quality 100.0 %
Test CRC 58BF6286
Copy CRC 58BF6286
Track not present in AccurateRip database
Copy OK


None of the tracks are present in the AccurateRip database

No errors occurred

End of status report

–– CUETools DB Plugin V2.1.6

[CTDB TOCID: OnW0eQQ9bayU9DX9KM4CxJrhM1I-] found
Submit result: OnW0eQQ9bayU9DX9KM4CxJrhM1I- has been confirmed
Track | CTDB Status
1 | (7/7) Accurately ripped
2 | (7/7) Accurately ripped
3 | (7/7) Accurately ripped
4 | (7/7) Accurately ripped
5 | (7/7) Accurately ripped
6 | (7/7) Accurately ripped
7 | (7/7) Accurately ripped
8 | (7/7) Accurately ripped
9 | (7/7) Accurately ripped
10 | (7/7) Accurately ripped
11 | (7/7) Accurately ripped
12 | (7/7) Accurately ripped
13 | (7/7) Accurately ripped
14 | (7/7) Accurately ripped


==== Log checksum C965DCD5969BDE9C8645BFDE298F354733A7FA229A0545CF8AD777D34E60D90D ====

Thanks to the Original ripper !