Subcategories
Tags
Language
Tags

Tangerine Dream - Phaedra (Expanded Edition, Japanese SHM-CD + 2 bonus CDs) (1974/2019)

Posted By: delpotro
Tangerine Dream - Phaedra (Expanded Edition, Japanese SHM-CD + 2 bonus CDs) (1974/2019)

Tangerine Dream - Phaedra (Expanded Edition, Japanese SHM-CD + 2 bonus CDs) (1974/2019)
XLD Rip | FLAC (tracks+log+.cue) - 664 Mb | MP3 CBR 320 kbps - 371 Mb | Scans included | 02:35:51
Progressive Electronic, Ambient | Label: Universal Music, Virgin Records

Phaedra is the fifth major release and fifth studio album by German electronic music group Tangerine Dream. It was recorded during November 1973 at The Manor in Shipton-on-Cherwell, England and released on 20 February 1974 through Virgin Records. This is the first Tangerine Dream album to feature their now classic sequencer-driven sound, which is considered to have greatly influenced the Berlin School genre. The album marked the beginning of the group's international success and was their first album released on the Virgin label. It achieved six-figure sales in the UK, reaching number 15 in the UK Albums Chart in a 15-week run, with virtually no airplay, only by strong word of mouth. It also earned the group a gold disc (500,000 copies) in seven countries, though in their native Germany it sold barely 6,000 units.[8] The album title refers to Phaedra of Greek mythology.
Tracklist:
Disc 1
1. Phaedra
2. Mysterious Semblance At The Strand Of Nightmares
3. Movements Of A Visionary
4. Sequent C'
5. Phaedra
6. Sequent C'

Disc 2
1. 2nd Day
2. Flute Organ Piece
3. Phaedra Out-Take Version 2A

Disc 3
1. Phaedra Out-Take 1
2. Phaedra Out-Take 2B
3. 2nd Side Piece 1
4. 2nd Side Piece 2
5. Organ Piece

X Lossless Decoder version 20210101 (153.1)

XLD extraction logfile from 2021-05-06 11:23:11 -0400

Tangerine Dream / Phaedra

Used drive : HL-DT-ST DVDRW GX40N (revision RQ00)
Media type : Pressed CD

Ripper mode : XLD Secure Ripper
Disable audio cache : OK for the drive with a cache less than 1375KiB
Make use of C2 pointers : NO
Read offset correction : 6
Max retry count : 100
Gap status : Analyzed, Appended (except HTOA)

TOC of the extracted CD
Track | Start | Length | Start sector | End sector
––––––––––––––––––––––––––––-
1 | 00:00:00 | 17:40:21 | 0 | 79520
2 | 17:40:21 | 09:45:17 | 79521 | 123412
3 | 27:25:38 | 07:58:33 | 123413 | 159295
4 | 35:23:71 | 02:24:61 | 159296 | 170156
5 | 37:48:57 | 17:42:47 | 170157 | 249853
6 | 55:31:29 | 02:21:68 | 249854 | 260496

AccurateRip Summary (DiscID: 000fe932-00517ace-3e0d9106)
Track 01 : OK (v2, confidence 87/87)
Track 02 : OK (v2, confidence 88/88)
Track 03 : OK (v2, confidence 88/88)
Track 04 : OK (v2, confidence 88/88)
Track 05 : OK (v2, confidence 85/85)
Track 06 : OK (v2, confidence 86/86)
->All tracks accurately ripped.

All Tracks
Album gain : -3.28 dB
Peak : 0.995148
Statistics
Read error : 0
Jitter error (maybe fixed) : 0
Retry sector count : 0
Damaged sector count : 0

Track 01
Filename : /Users/theowner/Downloads/Tangerine Dream - Phaedra (1974) [FLAC]/01 Phaedra.flac
Pre-gap length : 00:02:00

Track gain : -3.53 dB
Peak : 0.989105
CRC32 hash (test run) : E9644672
CRC32 hash : E9644672
CRC32 hash (skip zero) : C85B9036
AccurateRip v1 signature : CC719146
AccurateRip v2 signature : B1342B06
->Accurately ripped (v2, confidence 87/87)
Statistics
Read error : 0
Jitter error (maybe fixed) : 0
Retry sector count : 0
Damaged sector count : 0

Track 02
Filename : /Users/theowner/Downloads/Tangerine Dream - Phaedra (1974) [FLAC]/02 Mysterious Semblance at the Strand of Nightmares.flac
Pre-gap length : 00:03:23

Track gain : -3.51 dB
Peak : 0.990143
CRC32 hash (test run) : CCEFFAB7
CRC32 hash : CCEFFAB7
CRC32 hash (skip zero) : 245FB0EC
AccurateRip v1 signature : 912CDA2C
AccurateRip v2 signature : 0D248A7A
->Accurately ripped (v2, confidence 88/88)
Statistics
Read error : 0
Jitter error (maybe fixed) : 0
Retry sector count : 0
Damaged sector count : 0

Track 03
Filename : /Users/theowner/Downloads/Tangerine Dream - Phaedra (1974) [FLAC]/03 Movements of a Visionary.flac
Pre-gap length : 00:03:57

Track gain : -3.50 dB
Peak : 0.987976
CRC32 hash (test run) : 5560692D
CRC32 hash : 5560692D
CRC32 hash (skip zero) : A458E694
AccurateRip v1 signature : 64F5D799
AccurateRip v2 signature : 391B4680
->Accurately ripped (v2, confidence 88/88)
Statistics
Read error : 0
Jitter error (maybe fixed) : 0
Retry sector count : 0
Damaged sector count : 0

Track 04
Filename : /Users/theowner/Downloads/Tangerine Dream - Phaedra (1974) [FLAC]/04 Sequent C'.flac
Pre-gap length : 00:03:13

Track gain : 0.14 dB
Peak : 0.687317
CRC32 hash (test run) : 0BFBF28D
CRC32 hash : 0BFBF28D
CRC32 hash (skip zero) : 63877CC6
AccurateRip v1 signature : A25FD3D5
AccurateRip v2 signature : 8691D736
->Accurately ripped (v2, confidence 88/88)
Statistics
Read error : 0
Jitter error (maybe fixed) : 0
Retry sector count : 0
Damaged sector count : 0

Track 05
Filename : /Users/theowner/Downloads/Tangerine Dream - Phaedra (1974) [FLAC]/05 Phaedra (Stereo).flac
Pre-gap length : 00:06:40

Track gain : -3.39 dB
Peak : 0.995148
CRC32 hash (test run) : 1ED83C0A
CRC32 hash : 1ED83C0A
CRC32 hash (skip zero) : 73E215AF
AccurateRip v1 signature : D2C736A5
AccurateRip v2 signature : 783C8870
->Accurately ripped (v2, confidence 85/85)
Statistics
Read error : 0
Jitter error (maybe fixed) : 0
Retry sector count : 0
Damaged sector count : 0

Track 06
Filename : /Users/theowner/Downloads/Tangerine Dream - Phaedra (1974) [FLAC]/06 Sequent C' (Stereo).flac
Pre-gap length : 00:04:49

Track gain : 2.25 dB
Peak : 0.491943
CRC32 hash (test run) : 11DC143E
CRC32 hash : 11DC143E
CRC32 hash (skip zero) : EF5DB4E0
AccurateRip v1 signature : C6E22429
AccurateRip v2 signature : F7BC8F83
->Accurately ripped (v2, confidence 86/86)
Statistics
Read error : 0
Jitter error (maybe fixed) : 0
Retry sector count : 0
Damaged sector count : 0

No errors occurred

End of status report

––-BEGIN XLD SIGNATURE––-
wVuQv2W1TSvIZ5KFbFsKhgEHBk.fbggNvyZRMXsaTATnRQy9Ph5zQdOqPx1fcX_vAVrNft7Y5.j0rqXzxHHv8EqxHQhhOHPO5ziFSWW
––-END XLD SIGNATURE––-
X Lossless Decoder version 20210101 (153.1)

XLD extraction logfile from 2021-05-05 23:09:35 -0400

Tangerine Dream / Phaedra

Used drive : HL-DT-ST DVDRW GX40N (revision RQ00)
Media type : Pressed CD

Ripper mode : XLD Secure Ripper
Disable audio cache : OK for the drive with a cache less than 1375KiB
Make use of C2 pointers : NO
Read offset correction : 6
Max retry count : 100
Gap status : Analyzed, Appended (except HTOA)

TOC of the extracted CD
Track | Start | Length | Start sector | End sector
––––––––––––––––––––––––––––-
1 | 00:00:00 | 20:34:14 | 0 | 92563
2 | 20:34:14 | 11:00:29 | 92564 | 142092
3 | 31:34:43 | 20:37:47 | 142093 | 234914

List of alternate offset correction values
# | Absolute | Relative | Confidence
–––––––––––––––––––––
1 | -6 | -12 | 64

AccurateRip Summary (DiscID: 00072a44-0017aadc-260c3c03)
Track 01 : OK (v2, confidence 64/64, with different offset)
Track 02 : OK (v2, confidence 63/63, with different offset)
Track 03 : OK (v2, confidence 63/63, with different offset)
->All tracks accurately ripped.

All Tracks
Album gain : -2.07 dB
Peak : 0.989716
Statistics
Read error : 0
Jitter error (maybe fixed) : 0
Retry sector count : 0
Damaged sector count : 0

Track 01
Filename : /Users/theowner/Downloads/Tangerine Dream - Phaedra (1974) [FLAC]/01 2nd Day.flac
Pre-gap length : 00:02:00

Track gain : -3.28 dB
Peak : 0.989716
CRC32 hash (test run) : D4A4920B
CRC32 hash : D4A4920B
CRC32 hash (skip zero) : ADCAE69A
AccurateRip v1 signature : 7781F20A
AccurateRip v2 signature : DB674946 (84795ED9 w/correction)
->Accurately ripped with different offset (v2, confidence 64/64, offset -12)
Statistics
Read error : 0
Jitter error (maybe fixed) : 0
Retry sector count : 0
Damaged sector count : 0

Track 02
Filename : /Users/theowner/Downloads/Tangerine Dream - Phaedra (1974) [FLAC]/02 Flute Organ Piece.flac
Pre-gap length : 00:02:51

Track gain : -1.23 dB
Peak : 0.740021
CRC32 hash (test run) : 1BCE4D5B
CRC32 hash : 1BCE4D5B
CRC32 hash (skip zero) : EB7A00C4
AccurateRip v1 signature : F2074EAB
AccurateRip v2 signature : AA0C28EE (9F4EE3FA w/correction)
->Accurately ripped with different offset (v2, confidence 63/63, offset -12)
Statistics
Read error : 0
Jitter error (maybe fixed) : 0
Retry sector count : 0
Damaged sector count : 0

Track 03
Filename : /Users/theowner/Downloads/Tangerine Dream - Phaedra (1974) [FLAC]/03 Phaedra Out-Take Version 2A.flac
Pre-gap length : 00:02:62

Track gain : -1.33 dB
Peak : 0.933807
CRC32 hash (test run) : E3B2FB2D
CRC32 hash : E3B2FB2D
CRC32 hash (skip zero) : 7D7738C8
AccurateRip v1 signature : 8D49A4F6
AccurateRip v2 signature : 04C6BCA5 (3E681B26 w/correction)
->Accurately ripped with different offset (v2, confidence 63/63, offset -12)
Statistics
Read error : 0
Jitter error (maybe fixed) : 0
Retry sector count : 0
Damaged sector count : 0

No errors occurred

End of status report

––-BEGIN XLD SIGNATURE––-
IF1Q838uG2cKg.x8cOx7MkHux3dNBwz7c.NI267Mdl153QY7yLuVUxjoxlV.JbhDe6MzuBFoY30J9eFXNgHMvxaWTDcjib6MaVYgodW
––-END XLD SIGNATURE––-
X Lossless Decoder version 20210101 (153.1)

XLD extraction logfile from 2021-05-06 13:25:17 -0400

Tangerine Dream / Phaedra

Used drive : HL-DT-ST DVDRW GX40N (revision RQ00)
Media type : Pressed CD

Ripper mode : XLD Secure Ripper
Disable audio cache : OK for the drive with a cache less than 1375KiB
Make use of C2 pointers : NO
Read offset correction : 6
Max retry count : 100
Gap status : Analyzed, Appended (except HTOA)

TOC of the extracted CD
Track | Start | Length | Start sector | End sector
––––––––––––––––––––––––––––-
1 | 00:00:00 | 11:46:17 | 0 | 52966
2 | 11:46:17 | 05:44:26 | 52967 | 78792
3 | 17:30:43 | 13:05:01 | 78793 | 137668
4 | 30:35:44 | 09:20:34 | 137669 | 179702
5 | 39:56:03 | 05:49:63 | 179703 | 205940

List of alternate offset correction values
# | Absolute | Relative | Confidence
–––––––––––––––––––––
1 | -6 | -12 | 63

AccurateRip Summary (DiscID: 0009fee1-002e30cf-420ab905)
Track 01 : OK (v2, confidence 63/63, with different offset)
Track 02 : OK (v2, confidence 63/63, with different offset)
Track 03 : OK (v2, confidence 63/63, with different offset)
Track 04 : OK (v2, confidence 62/62, with different offset)
Track 05 : OK (v2, confidence 63/63, with different offset)
->All tracks accurately ripped.

All Tracks
Album gain : -1.53 dB
Peak : 0.992279
Statistics
Read error : 0
Jitter error (maybe fixed) : 0
Retry sector count : 0
Damaged sector count : 0

Track 01
Filename : /Users/theowner/Downloads/Tangerine Dream - Phaedra (1974) [FLAC]/01 Phaedra Out-Take 1.flac
Pre-gap length : 00:02:00

Track gain : -1.76 dB
Peak : 0.833008
CRC32 hash (test run) : 62C75349
CRC32 hash : 62C75349
CRC32 hash (skip zero) : 11B7AD13
AccurateRip v1 signature : AE1E9FD1
AccurateRip v2 signature : E140A653 (2410505A w/correction)
->Accurately ripped with different offset (v2, confidence 63/63, offset -12)
Statistics
Read error : 0
Jitter error (maybe fixed) : 0
Retry sector count : 0
Damaged sector count : 0

Track 02
Filename : /Users/theowner/Downloads/Tangerine Dream - Phaedra (1974) [FLAC]/02 Phaedra Out-Take 2B.flac
Pre-gap length : 00:02:31

Track gain : -1.71 dB
Peak : 0.989136
CRC32 hash (test run) : 9F6F91D8
CRC32 hash : 9F6F91D8
CRC32 hash (skip zero) : FFFC1C38
AccurateRip v1 signature : AC5737D3
AccurateRip v2 signature : EE60AF44 (B8D4A6B4 w/correction)
->Accurately ripped with different offset (v2, confidence 63/63, offset -12)
Statistics
Read error : 0
Jitter error (maybe fixed) : 0
Retry sector count : 0
Damaged sector count : 0

Track 03
Filename : /Users/theowner/Downloads/Tangerine Dream - Phaedra (1974) [FLAC]/03 2nd Side Piece 1.flac
Pre-gap length : 00:01:59

Track gain : -0.68 dB
Peak : 0.896973
CRC32 hash (test run) : BBBF4722
CRC32 hash : BBBF4722
CRC32 hash (skip zero) : 89E0236A
AccurateRip v1 signature : 75E7A864
AccurateRip v2 signature : 8C51E4EE (DD9B7D65 w/correction)
->Accurately ripped with different offset (v2, confidence 63/63, offset -12)
Statistics
Read error : 0
Jitter error (maybe fixed) : 0
Retry sector count : 0
Damaged sector count : 0

Track 04
Filename : /Users/theowner/Downloads/Tangerine Dream - Phaedra (1974) [FLAC]/04 2nd SIde Piece 2.flac
Pre-gap length : 00:02:10

Track gain : -2.20 dB
Peak : 0.992279
CRC32 hash (test run) : 2223996D
CRC32 hash : 2223996D
CRC32 hash (skip zero) : 6B127877
AccurateRip v1 signature : 2A502B6F
AccurateRip v2 signature : 49380207 (230EAA80 w/correction)
->Accurately ripped with different offset (v2, confidence 62/62, offset -12)
Statistics
Read error : 0
Jitter error (maybe fixed) : 0
Retry sector count : 0
Damaged sector count : 0

Track 05
Filename : /Users/theowner/Downloads/Tangerine Dream - Phaedra (1974) [FLAC]/05 Organ Piece.flac
Pre-gap length : 00:02:45

Track gain : -1.65 dB
Peak : 0.980988
CRC32 hash (test run) : B2D0F88B
CRC32 hash : B2D0F88B
CRC32 hash (skip zero) : 518A91FA
AccurateRip v1 signature : 10389929
AccurateRip v2 signature : EC01440F (AF7CEA8E w/correction)
->Accurately ripped with different offset (v2, confidence 63/63, offset -12)
Statistics
Read error : 0
Jitter error (maybe fixed) : 0
Retry sector count : 0
Damaged sector count : 0

No errors occurred

End of status report

––-BEGIN XLD SIGNATURE––-
h7rbjeJrDq0cwEcr1aHWekeqLCqPWdVlWwPBVxhxNvONO2eGAArRk7L81xPz9_K1x8crghLoaNFRxq9JcvS329UXd4kZ_XI1OsANwVS
––-END XLD SIGNATURE––-

Thanks to the Original ripper !