Subcategories
Tags
Language
Tags

Tangerine Dream - Stratosfear (Expanded Edition, Japanese SHM-CD) (1976/2019)

Posted By: delpotro
Tangerine Dream - Stratosfear (Expanded Edition, Japanese SHM-CD) (1976/2019)

Tangerine Dream - Stratosfear (Expanded Edition, Japanese SHM-CD) (1976/2019)
XLD Rip | FLAC (tracks+log+.cue) - 755 Mb | MP3 CBR 320 kbps - 348 Mb | Scans included | 02:26:08
Progressive Electronic, Ambient, Berlin School | Label: Universal Music, Virgin Records

Stratosfear is the eighth major release and seventh studio album by the German group Tangerine Dream. The LP reached No.39 in the UK, in a 4-week chart run, and eventually reached silver status for selling in excess of 60,000 copies (£100,000+).
Tracklist:
Disc 1
1. Stratosfear
2. The Big Sleep In Search Of Hades
3. 3 AM At The Border Of The Marsh From Okefenokee
4. Invisible Limits
5. Conventry Cathedral
6. Stratosfear (Single Edit)
7. The Big Sleep in Search of Hades (Single Edit)

Disc 2
1. Introduction By John Peel
2. Rainbow Concert: Part 1
3. Rainbow Concert: Part 2

X Lossless Decoder version 20210101 (153.1)

XLD extraction logfile from 2021-05-13 22:08:04 -0400

Tangerine Dream / Stratosfear - Expanded

Used drive : HL-DT-ST DVDRW GX40N (revision RQ00)
Media type : Pressed CD

Ripper mode : XLD Secure Ripper
Disable audio cache : OK for the drive with a cache less than 1375KiB
Make use of C2 pointers : NO
Read offset correction : 6
Max retry count : 100
Gap status : Analyzed, Appended (except HTOA)

TOC of the extracted CD
Track | Start | Length | Start sector | End sector
––––––––––––––––––––––––––––-
1 | 00:00:00 | 02:36:25 | 0 | 11724
2 | 02:36:25 | 36:51:61 | 11725 | 177610
3 | 39:28:11 | 29:22:42 | 177611 | 309802

List of alternate offset correction values
# | Absolute | Relative | Confidence
–––––––––––––––––––––
1 | -6 | -12 | 61

AccurateRip Summary (DiscID: 00079dc3-001b65a8-1c102203)
Track 01 : OK (v2, confidence 61/61, with different offset)
Track 02 : OK (v2, confidence 60/60, with different offset)
Track 03 : OK (v2, confidence 56/56, with different offset)
->All tracks accurately ripped.

All Tracks
Album gain : -1.19 dB
Peak : 0.988617
Statistics
Read error : 0
Jitter error (maybe fixed) : 0
Retry sector count : 0
Damaged sector count : 0

Track 01
Filename : /Users/theowner/Downloads/Tangerine Dream - Stratosfear - Expanded (2019) [FLAC]/01 Introduction by John Peel.flac
Pre-gap length : 00:02:00

Track gain : 4.09 dB
Peak : 0.982635
CRC32 hash (test run) : E4260B37
CRC32 hash : E4260B37
CRC32 hash (skip zero) : 19102A3C
AccurateRip v1 signature : 9D70E329
AccurateRip v2 signature : 07FDCC14 (925BC130 w/correction)
->Accurately ripped with different offset (v2, confidence 61/61, offset -12)
Statistics
Read error : 0
Jitter error (maybe fixed) : 0
Retry sector count : 0
Damaged sector count : 0

Track 02
Filename : /Users/theowner/Downloads/Tangerine Dream - Stratosfear - Expanded (2019) [FLAC]/02 Rainbow Concert (Part 1).flac

Track gain : -1.89 dB
Peak : 0.988617
CRC32 hash (test run) : 7F41BE33
CRC32 hash : 7F41BE33
CRC32 hash (skip zero) : 70DD61EB
AccurateRip v1 signature : C03484CE
AccurateRip v2 signature : 3DC3AB97 (A1FC5AC2 w/correction)
->Accurately ripped with different offset (v2, confidence 60/60, offset -12)
Statistics
Read error : 0
Jitter error (maybe fixed) : 0
Retry sector count : 0
Damaged sector count : 0

Track 03
Filename : /Users/theowner/Downloads/Tangerine Dream - Stratosfear - Expanded (2019) [FLAC]/03 Rainbow Concert (Part 2).flac

Track gain : -0.43 dB
Peak : 0.988617
CRC32 hash (test run) : EBC5D786
CRC32 hash : EBC5D786
CRC32 hash (skip zero) : 20523C77
AccurateRip v1 signature : 30DB58DB
AccurateRip v2 signature : 6D570289 (F2DA87B3 w/correction)
->Accurately ripped with different offset (v2, confidence 56/56, offset -12)
Statistics
Read error : 0
Jitter error (maybe fixed) : 0
Retry sector count : 0
Damaged sector count : 0

No errors occurred

End of status report

––-BEGIN XLD SIGNATURE––-
BspfhHAAMwlHfYJsNZq.3sYYnZ87LKT9Sv8cp22eZn6IajuW0JCbYGxiCYdFEFEnybto0z1o0.KLDgjedXrSZeLpiRAPRwb49xpUWlO
––-END XLD SIGNATURE––-
X Lossless Decoder version 20210101 (153.1)

XLD extraction logfile from 2021-05-13 21:28:54 -0400

Tangerine Dream / Stratosfear

Used drive : HL-DT-ST DVDRW GX40N (revision RQ00)
Media type : Pressed CD

Ripper mode : XLD Secure Ripper
Disable audio cache : OK for the drive with a cache less than 1375KiB
Make use of C2 pointers : NO
Read offset correction : 6
Max retry count : 100
Gap status : Analyzed, Appended (except HTOA)

TOC of the extracted CD
Track | Start | Length | Start sector | End sector
––––––––––––––––––––––––––––-
1 | 00:00:00 | 10:35:55 | 0 | 47679
2 | 10:35:55 | 04:31:19 | 47680 | 68023
3 | 15:06:74 | 08:48:22 | 68024 | 107645
4 | 23:55:21 | 11:30:24 | 107646 | 159419
5 | 35:25:45 | 34:07:08 | 159420 | 312952
6 | 69:32:53 | 04:20:33 | 312953 | 332485
7 | 73:53:11 | 03:24:37 | 332486 | 347822

List of alternate offset correction values
# | Absolute | Relative | Confidence
–––––––––––––––––––––
1 | -6 | -12 | 60

AccurateRip Summary (DiscID: 0014ff20-0081ed05-5e121d07)
Track 01 : OK (v2, confidence 12/72)
Track 02 : OK (v2, confidence 12/72)
Track 03 : OK (v2, confidence 12/72)
Track 04 : OK (v2, confidence 12/72)
Track 05 : OK (v2, confidence 12/65)
Track 06 : OK (v2, confidence 12/68)
Track 07 : OK (v2, confidence 12/69)
->All tracks accurately ripped.

All Tracks
Album gain : -2.88 dB
Peak : 0.986328
Statistics
Read error : 0
Jitter error (maybe fixed) : 0
Retry sector count : 0
Damaged sector count : 0

Track 01
Filename : /Users/theowner/Downloads/Tangerine Dream - Stratosfear (Unknown Year) [FLAC]/01 Stratosfear.flac
Pre-gap length : 00:02:00

Track gain : -3.58 dB
Peak : 0.986298
CRC32 hash (test run) : 59432C5A
CRC32 hash : 59432C5A
CRC32 hash (skip zero) : 06B29CC0
AccurateRip v1 signature : DF5133EF
AccurateRip v2 signature : 8B8B6A86
->Accurately ripped (v2, confidence 12/72)
Statistics
Read error : 0
Jitter error (maybe fixed) : 0
Retry sector count : 0
Damaged sector count : 0

Track 02
Filename : /Users/theowner/Downloads/Tangerine Dream - Stratosfear (Unknown Year) [FLAC]/02 The Big Sleep in Search of Hades.flac
Pre-gap length : 00:01:72

Track gain : 5.33 dB
Peak : 0.542908
CRC32 hash (test run) : 906F66C3
CRC32 hash : 906F66C3
CRC32 hash (skip zero) : 1059644C
AccurateRip v1 signature : ABB8E087
AccurateRip v2 signature : B133CE67
->Accurately ripped (v2, confidence 12/72)
Statistics
Read error : 0
Jitter error (maybe fixed) : 0
Retry sector count : 0
Damaged sector count : 0

Track 03
Filename : /Users/theowner/Downloads/Tangerine Dream - Stratosfear (Unknown Year) [FLAC]/03 3 AM at the Border of the Marsh From Okefenokee.flac
Pre-gap length : 00:03:25

Track gain : -2.49 dB
Peak : 0.986328
CRC32 hash (test run) : 0B306F58
CRC32 hash : 0B306F58
CRC32 hash (skip zero) : 8BC5C4F6
AccurateRip v1 signature : 4C530F47
AccurateRip v2 signature : A8B47F28
->Accurately ripped (v2, confidence 12/72)
Statistics
Read error : 0
Jitter error (maybe fixed) : 0
Retry sector count : 0
Damaged sector count : 0

Track 04
Filename : /Users/theowner/Downloads/Tangerine Dream - Stratosfear (Unknown Year) [FLAC]/04 Invisible Limits.flac

Track gain : -1.07 dB
Peak : 0.986328
CRC32 hash (test run) : 18C245C1
CRC32 hash : 18C245C1
CRC32 hash (skip zero) : 08791C1D
AccurateRip v1 signature : 6946B742
AccurateRip v2 signature : FD444CCB
->Accurately ripped (v2, confidence 12/72)
Statistics
Read error : 0
Jitter error (maybe fixed) : 0
Retry sector count : 0
Damaged sector count : 0

Track 05
Filename : /Users/theowner/Downloads/Tangerine Dream - Stratosfear (Unknown Year) [FLAC]/05 Coventry Cathedral.flac
Pre-gap length : 00:05:15

Track gain : -3.24 dB
Peak : 0.986328
CRC32 hash (test run) : 0017410C
CRC32 hash : 0017410C
CRC32 hash (skip zero) : 9B0D0D95
AccurateRip v1 signature : 550DBDE9
AccurateRip v2 signature : 8148E472
->Accurately ripped (v2, confidence 12/65)
Statistics
Read error : 0
Jitter error (maybe fixed) : 0
Retry sector count : 0
Damaged sector count : 0

Track 06
Filename : /Users/theowner/Downloads/Tangerine Dream - Stratosfear (Unknown Year) [FLAC]/06 Stratosfear (Single Edit).flac
Pre-gap length : 00:04:74

Track gain : -4.64 dB
Peak : 0.907349
CRC32 hash (test run) : B631450F
CRC32 hash : B631450F
CRC32 hash (skip zero) : 1B096A14
AccurateRip v1 signature : 2FCC7CFF
AccurateRip v2 signature : E173EEB3
->Accurately ripped (v2, confidence 12/68)
Statistics
Read error : 0
Jitter error (maybe fixed) : 0
Retry sector count : 0
Damaged sector count : 0

Track 07
Filename : /Users/theowner/Downloads/Tangerine Dream - Stratosfear (Unknown Year) [FLAC]/07 The Big Sleep in Search of Hades (Single Edit).flac
Pre-gap length : 00:03:28

Track gain : -0.03 dB
Peak : 0.737183
CRC32 hash (test run) : 901B86DA
CRC32 hash : 901B86DA
CRC32 hash (skip zero) : 949CF28B
AccurateRip v1 signature : D943C135
AccurateRip v2 signature : 277CBC7E
->Accurately ripped (v2, confidence 12/69)
Statistics
Read error : 0
Jitter error (maybe fixed) : 0
Retry sector count : 0
Damaged sector count : 0

No errors occurred

End of status report

––-BEGIN XLD SIGNATURE––-
5dRDr_98G2yMO7e7VbFx.qGGAFUERayU9N.i0z0C7q6YqEPxWPcy9D53MJes1sxMrvBNyLWpbS1.ml4PZraXjsb8hVzdqm96YCor_Y4
––-END XLD SIGNATURE––-

Thanks to the Original ripper !