Tags
Language
Tags
April 2024
Su Mo Tu We Th Fr Sa
31 1 2 3 4 5 6
7 8 9 10 11 12 13
14 15 16 17 18 19 20
21 22 23 24 25 26 27
28 29 30 1 2 3 4

The Clash - Combat Rock + The People's Hall (Remastered) (2022)

Posted By: delpotro
The Clash - Combat Rock + The People's Hall (Remastered) (2022)

The Clash - Combat Rock + The People's Hall (Remastered) (2022)
XLD Rip | FLAC (tracks+log+.cue) | 01:41:33 | 657 Mb
New Wave, Punk Rock, Post-Punk | Label: Sony Music

Originally released in May 1982, Combat Rock is the final album from The Clash of Joe Strummer, Mick Jones, Paul Simonon and Topper Headon. Featuring two of the bands most well-known songs, 'Should I Stay Or Should I Go' and 'Rock The Casbah'. Now re-released as a double remaster-edition, with an additional 12-tracks compiled by The Clash.

Having returned to London following their pivotal 17-show residency at New Yorks Bond's Casino in 1981, the band rehearsed and recorded at The Peoples Hall in the squatted Republic of Frestonia near Latimer Road in London and from there they embarked on a tour of the East and South East Asia, during which the album sleeve image was captured by Pennie Smith in Thailand.

The tracks on The People's Hall chart the period from what was their last single Radio Clash right up to the release of Combat Rock, including unheard, rare and early versions of tracks.

The album highlights a new version of ‘Know Your Rights’ which was recorded at The People’s Hall on the Rolling Stones Mobile Studio, and the previously unreleased instrumental ‘He Who Dares Or Is Tired’. Other notable tracks include ‘Futura 2000’, an unreleased original mix of ‘The Escapades of Futura 2000’, Mikey Dread’s ‘Radio One’, and the outtakes ‘The Fulham Connection’, previously known as ‘The Beautiful People Are Ugly Too’ as well as ‘Idle in Kangaroo Court’.

‘Combat Rock’ is indicative of The Clash’s constant evolution and was influenced in part by the relatively recent end of the Vietnam War, particularly on ‘Sean Flynn’, inspired by the disappearance of the photojournalist and film star’s son. The band’s curiosity and range is illustrated by the many styles and voices here, notably poet Allen Ginsberg’s apocalyptic spoken word on ‘Ghetto Defendant’ and graffiti artist Futura’s rap on ‘Overpowered By Funk’.

The Clash’s influence on punk, post-punk and indie rock is well documented and ‘Combat Rock’ specifically continues to inspire waves of rediscovery from new audiences, most notably with the use of ‘Should I Stay Or Should I Go’ as a prominent plot device in the first season of the Netflix smash ‘Stranger Things’. Meanwhile, ‘Straight To Hell’ remains instantly recognizable having been used in ‘Paper Planes’ by M.I.A.
Tracklist:
Disc 1 (46:14)
1. Know Your Rights (Remastered) (03:39)
2. Car Jamming (Remastered) (03:59)
3. Should I Stay or Should I Go (Remastered) (03:09)
4. Rock the Casbah (Remastered) (03:42)
5. Red Angel Dragnet (Remastered) (03:44)
6. Straight to Hell (Remastered) (05:30)
7. Overpowered by Funk (Remastered) (04:52)
8. Atom Tan (Remastered) (02:30)
9. Sean Flynn (Remastered) (04:31)
10. Ghetto Defendant (Remastered) (04:43)
11. Inoculated City (Remastered) (02:41)
12. Death is a Star (Remastered) (03:14)

Disc 2 (55:03)
1. Outside Bonds (04:21)
2. This is Radio Clash (Different Lyrics) (04:10)
3. Futura 2000 (05:54)
4. First Night Back in London (02:11)
5. Radio One (06:17)
6. He Who Dares or Is Tired (02:53)
7. Long Time Jerk (05:09)
8. The Fulham Connection (Outtake) (03:44)
9. Midnight to Stevens (Outtake) (04:36)
10. Sean Flynn (Extended 'Marcus Music' Version) (07:22)
11. Idle in Kangaroo Court (05:04)
12. Know Your Rights (03:22)

X Lossless Decoder version 20211018 (154.0)

XLD extraction logfile from 2022-05-21 14:26:26 -0700

The Clash / Combat Rock + The People’s Hall

Used drive : PLEXTOR BDDVDR PX-B310U (revision 1.07)
Media type : Pressed CD

Ripper mode : XLD Secure Ripper
Disable audio cache : OK for the drive with a cache less than 1375KiB
Make use of C2 pointers : NO
Read offset correction : 6
Max retry count : 100
Gap status : Analyzed, Appended (except HTOA)

TOC of the extracted CD
Track | Start | Length | Start sector | End sector
––––––––––––––––––––––––––––-
1 | 00:00:00 | 03:40:70 | 0 | 16569
2 | 03:40:70 | 03:59:60 | 16570 | 34554
3 | 07:40:55 | 03:09:00 | 34555 | 48729
4 | 10:49:55 | 03:42:32 | 48730 | 65411
5 | 14:32:12 | 03:44:50 | 65412 | 82261
6 | 18:16:62 | 05:30:35 | 82262 | 107046
7 | 23:47:22 | 04:52:03 | 107047 | 128949
8 | 28:39:25 | 02:30:01 | 128950 | 140200
9 | 31:09:26 | 04:31:11 | 140201 | 160536
10 | 35:40:37 | 04:43:26 | 160537 | 181787
11 | 40:23:63 | 02:41:06 | 181788 | 193868
12 | 43:04:69 | 03:16:55 | 193869 | 208623

AccurateRip Summary
Disc not found in AccurateRip DB.

All Tracks
Album gain : -5.84 dB
Peak : 0.998871
Statistics
Read error : 0
Jitter error (maybe fixed) : 0
Retry sector count : 0
Damaged sector count : 0

Track 01
Filename : /Users/Shared/The Clash - Combat Rock + The People’s Hall (2022) [FLAC]/CD1/01 - Know Your Rights.flac
Pre-gap length : 00:02:00

Track gain : -7.01 dB
Peak : 0.996307
CRC32 hash (test run) : 6E2157C6
CRC32 hash : 6E2157C6
CRC32 hash (skip zero) : DA72200E
AccurateRip v1 signature : E2CD0EA2
AccurateRip v2 signature : 915082A2
->Track not present in AccurateRip database.
Statistics
Read error : 0
Jitter error (maybe fixed) : 0
Retry sector count : 0
Damaged sector count : 0

Track 02
Filename : /Users/Shared/The Clash - Combat Rock + The People’s Hall (2022) [FLAC]/CD1/02 - Car Jamming.flac

Track gain : -6.75 dB
Peak : 0.998871
CRC32 hash (test run) : 20277528
CRC32 hash : 20277528
CRC32 hash (skip zero) : 701F5A1D
AccurateRip v1 signature : 6A85D2A0
AccurateRip v2 signature : 7E046B9B
->Track not present in AccurateRip database.
Statistics
Read error : 0
Jitter error (maybe fixed) : 0
Retry sector count : 0
Damaged sector count : 0

Track 03
Filename : /Users/Shared/The Clash - Combat Rock + The People’s Hall (2022) [FLAC]/CD1/03 - Should I Stay or Should I Go.flac

Track gain : -7.61 dB
Peak : 0.998871
CRC32 hash (test run) : 240448E6
CRC32 hash : 240448E6
CRC32 hash (skip zero) : 10DD135E
AccurateRip v1 signature : 9B097BE1
AccurateRip v2 signature : C36C52C5
->Track not present in AccurateRip database.
Statistics
Read error : 0
Jitter error (maybe fixed) : 0
Retry sector count : 0
Damaged sector count : 0

Track 04
Filename : /Users/Shared/The Clash - Combat Rock + The People’s Hall (2022) [FLAC]/CD1/04 - Rock the Casbah.flac

Track gain : -7.50 dB
Peak : 0.998871
CRC32 hash (test run) : 648EFF80
CRC32 hash : 648EFF80
CRC32 hash (skip zero) : BD682603
AccurateRip v1 signature : 576D175F
AccurateRip v2 signature : 485DD5E7
->Track not present in AccurateRip database.
Statistics
Read error : 0
Jitter error (maybe fixed) : 0
Retry sector count : 0
Damaged sector count : 0

Track 05
Filename : /Users/Shared/The Clash - Combat Rock + The People’s Hall (2022) [FLAC]/CD1/05 - Red Angel Dragnet.flac

Track gain : -6.29 dB
Peak : 0.989288
CRC32 hash (test run) : 3C064978
CRC32 hash : 3C064978
CRC32 hash (skip zero) : C8547C67
AccurateRip v1 signature : 143838CB
AccurateRip v2 signature : 355B7C9C
->Track not present in AccurateRip database.
Statistics
Read error : 0
Jitter error (maybe fixed) : 0
Retry sector count : 0
Damaged sector count : 0

Track 06
Filename : /Users/Shared/The Clash - Combat Rock + The People’s Hall (2022) [FLAC]/CD1/06 - Straight to Hell.flac

Track gain : -3.86 dB
Peak : 0.997925
CRC32 hash (test run) : 186F5040
CRC32 hash : 186F5040
CRC32 hash (skip zero) : 502DD773
AccurateRip v1 signature : 04E77E76
AccurateRip v2 signature : 538BF7E6
->Track not present in AccurateRip database.
Statistics
Read error : 0
Jitter error (maybe fixed) : 0
Retry sector count : 0
Damaged sector count : 0

Track 07
Filename : /Users/Shared/The Clash - Combat Rock + The People’s Hall (2022) [FLAC]/CD1/07 - Overpowered by Funk.flac

Track gain : -5.51 dB
Peak : 0.995056
CRC32 hash (test run) : 6E6BFE09
CRC32 hash : 6E6BFE09
CRC32 hash (skip zero) : 602A6A17
AccurateRip v1 signature : 15BF3FCD
AccurateRip v2 signature : EA776CC5
->Track not present in AccurateRip database.
Statistics
Read error : 0
Jitter error (maybe fixed) : 0
Retry sector count : 0
Damaged sector count : 0

Track 08
Filename : /Users/Shared/The Clash - Combat Rock + The People’s Hall (2022) [FLAC]/CD1/08 - Atom Tan.flac

Track gain : -6.84 dB
Peak : 0.991669
CRC32 hash (test run) : 87CAA27F
CRC32 hash : 87CAA27F
CRC32 hash (skip zero) : 821C9580
AccurateRip v1 signature : 68F51B31
AccurateRip v2 signature : 0F875CE1
->Track not present in AccurateRip database.
Statistics
Read error : 0
Jitter error (maybe fixed) : 0
Retry sector count : 0
Damaged sector count : 0

Track 09
Filename : /Users/Shared/The Clash - Combat Rock + The People’s Hall (2022) [FLAC]/CD1/09 - Sean Flynn.flac

Track gain : -2.70 dB
Peak : 0.989014
CRC32 hash (test run) : 936F8160
CRC32 hash : 936F8160
CRC32 hash (skip zero) : EB4BB688
AccurateRip v1 signature : 607F0BDB
AccurateRip v2 signature : 84D97C80
->Track not present in AccurateRip database.
Statistics
Read error : 0
Jitter error (maybe fixed) : 0
Retry sector count : 0
Damaged sector count : 0

Track 10
Filename : /Users/Shared/The Clash - Combat Rock + The People’s Hall (2022) [FLAC]/CD1/10 - Ghetto Defendant.flac

Track gain : -4.84 dB
Peak : 0.996826
CRC32 hash (test run) : B140C27A
CRC32 hash : B140C27A
CRC32 hash (skip zero) : 64A1000D
AccurateRip v1 signature : B28F8C58
AccurateRip v2 signature : E6ADC408
->Track not present in AccurateRip database.
Statistics
Read error : 0
Jitter error (maybe fixed) : 0
Retry sector count : 0
Damaged sector count : 0

Track 11
Filename : /Users/Shared/The Clash - Combat Rock + The People’s Hall (2022) [FLAC]/CD1/11 - Inoculated City.flac

Track gain : -5.97 dB
Peak : 0.989777
CRC32 hash (test run) : 217DB49D
CRC32 hash : 217DB49D
CRC32 hash (skip zero) : A6A1A971
AccurateRip v1 signature : 3B4ABD28
AccurateRip v2 signature : 2961C459
->Track not present in AccurateRip database.
Statistics
Read error : 0
Jitter error (maybe fixed) : 0
Retry sector count : 0
Damaged sector count : 0

Track 12
Filename : /Users/Shared/The Clash - Combat Rock + The People’s Hall (2022) [FLAC]/CD1/12 - Death Is a Star.flac

Track gain : -0.02 dB
Peak : 0.998871
CRC32 hash (test run) : 9FF09330
CRC32 hash : 9FF09330
CRC32 hash (skip zero) : 620BD129
AccurateRip v1 signature : 1BDB66F9
AccurateRip v2 signature : EC5BC36C
->Track not present in AccurateRip database.
Statistics
Read error : 0
Jitter error (maybe fixed) : 0
Retry sector count : 0
Damaged sector count : 0

No errors occurred

End of status report

––-BEGIN XLD SIGNATURE––-
Npyzw5P.Rl9opwug3fiLXTuRHlO_G8Wexio5poiLanzPCXitSePrXOuP04PYmmRqiRvD68mTDydUuT2DScbK9Wcqxq_1.SXzEbqsMdS
––-END XLD SIGNATURE––-
X Lossless Decoder version 20211018 (154.0)

XLD extraction logfile from 2022-05-21 13:52:45 -0700

The Clash / Combat Rock + The People’s Hall

Used drive : PLEXTOR BDDVDR PX-B310U (revision 1.07)
Media type : Pressed CD

Ripper mode : XLD Secure Ripper
Disable audio cache : OK for the drive with a cache less than 1375KiB
Make use of C2 pointers : NO
Read offset correction : 6
Max retry count : 100
Gap status : Analyzed, Appended (except HTOA)

TOC of the extracted CD
Track | Start | Length | Start sector | End sector
––––––––––––––––––––––––––––-
1 | 00:00:00 | 04:22:32 | 0 | 19681
2 | 04:22:32 | 04:10:46 | 19682 | 38477
3 | 08:33:03 | 05:54:56 | 38478 | 65083
4 | 14:27:59 | 02:11:46 | 65084 | 74954
5 | 16:39:30 | 06:17:54 | 74955 | 103283
6 | 22:57:09 | 02:53:01 | 103284 | 116259
7 | 25:50:10 | 05:09:43 | 116260 | 139477
8 | 30:59:53 | 03:44:71 | 139478 | 156348
9 | 34:44:49 | 04:36:23 | 156349 | 177071
10 | 39:20:72 | 07:22:40 | 177072 | 210261
11 | 46:43:37 | 05:04:18 | 210262 | 233079
12 | 51:47:55 | 03:24:07 | 233080 | 248386

AccurateRip Summary
Disc not found in AccurateRip DB.

All Tracks
Album gain : -6.43 dB
Peak : 0.998901
Statistics
Read error : 0
Jitter error (maybe fixed) : 0
Retry sector count : 2
Damaged sector count : 0

Track 01
Filename : /Users/Shared/The Clash - Combat Rock + The People’s Hall (2022) [FLAC]/CD2/01 - Outside Bonds.flac
Pre-gap length : 00:02:00

Track gain : 9.43 dB
Peak : 0.485321
CRC32 hash (test run) : 1D05BC2A
CRC32 hash : 1D05BC2A
CRC32 hash (skip zero) : 549D9CDD
AccurateRip v1 signature : 33DF4C44
AccurateRip v2 signature : F81A1DEA
->Track not present in AccurateRip database.
Statistics
Read error : 0
Jitter error (maybe fixed) : 0
Retry sector count : 0
Damaged sector count : 0

Track 02
Filename : /Users/Shared/The Clash - Combat Rock + The People’s Hall (2022) [FLAC]/CD2/02 - Radio Clash.flac

Track gain : -7.67 dB
Peak : 0.973663
CRC32 hash (test run) : 5CA0FCE3
CRC32 hash : 5CA0FCE3
CRC32 hash (skip zero) : 9D314BD0
AccurateRip v1 signature : 21DB4BCD
AccurateRip v2 signature : 41E52951
->Track not present in AccurateRip database.
Statistics
Read error : 0
Jitter error (maybe fixed) : 0
Retry sector count : 0
Damaged sector count : 0

Track 03
Filename : /Users/Shared/The Clash - Combat Rock + The People’s Hall (2022) [FLAC]/CD2/03 - Futura 2000.flac

Track gain : -6.76 dB
Peak : 0.998901
CRC32 hash (test run) : 68672EC2
CRC32 hash : 68672EC2
CRC32 hash (skip zero) : A22059DB
AccurateRip v1 signature : 27F403D2
AccurateRip v2 signature : 36E559B4
->Track not present in AccurateRip database.
Statistics
Read error : 0
Jitter error (maybe fixed) : 0
Retry sector count : 0
Damaged sector count : 0

Track 04
Filename : /Users/Shared/The Clash - Combat Rock + The People’s Hall (2022) [FLAC]/CD2/04 - First Night Back in London.flac

Track gain : -6.00 dB
Peak : 0.998901
CRC32 hash (test run) : F6DFB7CE
CRC32 hash : F6DFB7CE
CRC32 hash (skip zero) : 5E8E174B
AccurateRip v1 signature : B3F567AF
AccurateRip v2 signature : 391BC1DA
->Track not present in AccurateRip database.
Statistics
Read error : 0
Jitter error (maybe fixed) : 0
Retry sector count : 0
Damaged sector count : 0

Track 05
Filename : /Users/Shared/The Clash - Combat Rock + The People’s Hall (2022) [FLAC]/CD2/05 - Radio One ‐ Mikey Dread.flac

Track gain : -5.18 dB
Peak : 0.998901
CRC32 hash (test run) : 13E1C81D
CRC32 hash : 13E1C81D
CRC32 hash (skip zero) : AE73D5A0
AccurateRip v1 signature : 0FDFEC1F
AccurateRip v2 signature : A7FF2F33
->Track not present in AccurateRip database.
Statistics
Read error : 0
Jitter error (maybe fixed) : 0
Retry sector count : 0
Damaged sector count : 0

Track 06
Filename : /Users/Shared/The Clash - Combat Rock + The People’s Hall (2022) [FLAC]/CD2/06 - He Who Dares or Is Tired.flac

Track gain : -7.80 dB
Peak : 0.998901
CRC32 hash (test run) : 98FD8323
CRC32 hash : 98FD8323
CRC32 hash (skip zero) : 6C776247
AccurateRip v1 signature : 2C4A7481
AccurateRip v2 signature : 18EAC441
->Track not present in AccurateRip database.
Statistics
Read error : 0
Jitter error (maybe fixed) : 0
Retry sector count : 0
Damaged sector count : 0

Track 07
Filename : /Users/Shared/The Clash - Combat Rock + The People’s Hall (2022) [FLAC]/CD2/07 - Long Time Jerk.flac

Track gain : -5.80 dB
Peak : 0.998810
CRC32 hash (test run) : C0F3944A
CRC32 hash : C0F3944A
CRC32 hash (skip zero) : 18CD4A6E
AccurateRip v1 signature : EE31A731
AccurateRip v2 signature : EE0E02F7
->Track not present in AccurateRip database.
Statistics
Read error : 0
Jitter error (maybe fixed) : 0
Retry sector count : 0
Damaged sector count : 0

Track 08
Filename : /Users/Shared/The Clash - Combat Rock + The People’s Hall (2022) [FLAC]/CD2/08 - The Fulham Connection.flac

Track gain : -5.08 dB
Peak : 0.977264
CRC32 hash (test run) : 3D10E87C
CRC32 hash : 3D10E87C
CRC32 hash (skip zero) : 8EFD8E07
AccurateRip v1 signature : 4A6617F9
AccurateRip v2 signature : 04E6DBF5
->Track not present in AccurateRip database.
Statistics
Read error : 0
Jitter error (maybe fixed) : 0
Retry sector count : 0
Damaged sector count : 0

Track 09
Filename : /Users/Shared/The Clash - Combat Rock + The People’s Hall (2022) [FLAC]/CD2/09 - Midnight to Stevens.flac

Track gain : -4.77 dB
Peak : 0.981659
CRC32 hash (test run) : EFD04D39
CRC32 hash : EFD04D39
CRC32 hash (skip zero) : 66F54089
AccurateRip v1 signature : 1ED6BC3B
AccurateRip v2 signature : A1849E16
->Track not present in AccurateRip database.
Statistics
Read error : 0
Jitter error (maybe fixed) : 0
Retry sector count : 0
Damaged sector count : 0

Track 10
Filename : /Users/Shared/The Clash - Combat Rock + The People’s Hall (2022) [FLAC]/CD2/10 - Sean Flynn.flac

Track gain : -3.80 dB
Peak : 0.977264
CRC32 hash (test run) : 804D2249
CRC32 hash : 804D2249
CRC32 hash (skip zero) : 559093A0
AccurateRip v1 signature : 04B17104
AccurateRip v2 signature : F4874A81
->Track not present in AccurateRip database.
Statistics
Read error : 0
Jitter error (maybe fixed) : 0
Retry sector count : 0
Damaged sector count : 0

Track 11
Filename : /Users/Shared/The Clash - Combat Rock + The People’s Hall (2022) [FLAC]/CD2/11 - Idle in Kangaroo Court.flac

Track gain : -5.80 dB
Peak : 0.998871
CRC32 hash (test run) : 9B30879A
CRC32 hash : 9B30879A
CRC32 hash (skip zero) : C43D7572
AccurateRip v1 signature : ED225015
AccurateRip v2 signature : 0B4E3703
->Track not present in AccurateRip database.
Statistics
Read error : 0
Jitter error (maybe fixed) : 0
Retry sector count : 2
Damaged sector count : 0

Track 12
Filename : /Users/Shared/The Clash - Combat Rock + The People’s Hall (2022) [FLAC]/CD2/12 - Know Your Rights.flac

Track gain : -10.33 dB
Peak : 0.977295
CRC32 hash (test run) : 968E678D
CRC32 hash : 968E678D
CRC32 hash (skip zero) : 4A596528
AccurateRip v1 signature : B9664FD8
AccurateRip v2 signature : AE74C903
->Track not present in AccurateRip database.
Statistics
Read error : 0
Jitter error (maybe fixed) : 0
Retry sector count : 0
Damaged sector count : 0

No errors occurred

End of status report

––-BEGIN XLD SIGNATURE––-
vWHlhy16XRpMhNEVLieFng5ifSKH6yr.kyLuDeX_Y9LewCdYSK9A0Kc7oSWPDU9VsRkIqpYMmZkDR.jJQHLYe8.NImMeZJr_TteCLoS
––-END XLD SIGNATURE––-

Thanks to the Original ripper !