Subcategories

The Durutti Column - 2001-2009 (2009)

Posted By: delpotro
The Durutti Column - 2001-2009 (2009)

The Durutti Column - 2001-2009 (2009)
EAC Rip | FLAC (tracks+log+.cue) - 1,8 Gb | MP3 CBR 320 kbps - 754 Mb | 05:29:07
Dreampop, Art Pop, Ambient, Experimental Rock | Label: Artful Records

5CD box set of the albums released on Artful/Fullfill during the period 2001-2009.

AllMusic Review by Rick Anderson
Like Bill Frisell and Richard Thompson, Vini Reilly is one of very few instantly recognizable guitarists in pop music: you only need to hear a bar or two of his playing to realize it's him. And it's not just that he has a distinctively personal tone, though he does; it's also his unique fingerpicking style and his approach to arpeggiation that make his sound so personal and so viscerally appealing. While Durutti Column started out as a band, its membership eventually shrank to the point where it has become a vehicle for Reilly's musical projects and experiments, with which he is helped by a shifting cast of singers and accompanists, though his guitar playing is generally central. This five-disc box set is, as its title suggests, a compilation of his work during the period 2001-2009. It brings together five complete albums (Rebellion, Someone Else's Party, Keep Breathing, Idiot Savants, and Love in the Time of Recession), each packaged in a separate cardboard sleeve and each including several bonus tracks; unfortunately, there is no additional information about the musicians involved, recording dates, or any other liner notes. However, the music itself is consistently wonderful. Although every track is recognizably a Durutti Column piece, the stylistic range exhibited on these five discs is quite broad and includes funky electronica with vocal samples ("Better Must Come," "Let Me Tell You Something"), spacious dub ("Lock-Down," "Overlord, Pt. 1"), and ethnomusicological experimentation ("Protest Song") along with the bittersweetly contemplative guitar compositions that have been Reilly's stock in trade for nearly 30 years. Most musicians with a musical profile as unique as Reilly's would be difficult to listen to for five hours at a stretch, but this box is actually a pleasure to hear from end to end – a powerful testament to Reilly's skill as a composer, his range, and the fertility of his musical imagination.
Tracklist:
Disc 1 (01:03:15)
1. 4 Sophia (04:24)
2. Longsight Romance (05:47)
3. Geh Cak Af En Yam (05:14)
4. The Fields Of Athenry (05:37)
5. Overlord Part One (04:25)
6. Falling (04:58)
7. Voluntary Arrangement (04:22)
8. Mello Part One (05:39)
9. Mello Part Two (04:20)
10. Protest Song (03:40)
11. Meschugana (04:24)
12. Everyone Loves Papa (XFM Session) (06:00)
13. Teresa (XFM Session) (04:25)

Disc 2 (01:16:52)
1. Love Is A Friend (04:22)
2. Spanish Lament (04:30)
3. Somewhere (03:52)
4. Somebody's Party (04:34)
5. Requiem For My Mother (04:23)
6. Remember (05:28)
7. Vigil (05:52)
8. Blue (04:55)
9. No More Hurt (05:34)
10. Spasmic Fairy (03:14)
11. American View (04:27)
12. Drinking Time (03:29)
13. Woman (06:54)
14. Goodbye (03:20)
15. Creole (XFM Session) (06:10)
16. Spasmic Fairy (XFM Session) (05:48)

Disc 3 (01:04:31)
1. Nina (03:52)
2. Its Wonderful (05:20)
3. Maggie (05:32)
4. Helen (04:47)
5. Neil (05:07)
6. Big Hole (05:17)
7. Let Me Tell You Something (07:02)
8. Lunch (03:55)
9. Gun (05:35)
10. Tuesday (04:31)
11. Agnus Dei (06:43)
12. Waiting (06:50)

Disc 4 (52:15)
1. Better Must Come (06:13)
2. Interleukin (For Anthony) (06:13)
3. Please Let Me Sleep (09:04)
4. 2 Times Nice (06:12)
5. No Last Surprise (05:43)
6. Gathering Dust (06:04)
7. Whisper To The Wind (08:31)
8. That Blows My Name Away (For Rachel) (04:15)

Disc 5 (01:11:41)
1. In Memory Of Anthony (06:11)
2. Rant (04:22)
3. More Rainbows (04:49)
4. I'm Alive (04:47)
5. For Bruce (06:08)
6. Painting (05:20)
7. Wild Beast Tamed (03:14)
8. Rainbow Maker (05:26)
9. My Poppy (03:21)
10. Loser (07:10)
11. Lock-down (07:07)
12. The Secret Between The Blade And Me (03:52)
13. Duet For Piano And Guitar (05:20)
14. Everybody's Laughing (I Don't Care) (04:34)

Exact Audio Copy V1.0 beta 3 from 29. August 2011

EAC extraction logfile from 30. August 2012, 18:28

The Durutti Column / Rebellion

Used drive : TSSTcorpCDDVDW SH-S203D Adapter: 2 ID: 0

Read mode : Secure
Utilize accurate stream : Yes
Defeat audio cache : Yes
Make use of C2 pointers : No

Read offset correction : 6
Overread into Lead-In and Lead-Out : No
Fill up missing offset samples with silence : Yes
Delete leading and trailing silent blocks : No
Null samples used in CRC calculations : Yes
Used interface : Native Win32 interface for Win NT & 2000
Gap handling : Appended to previous track

Used output format : User Defined Encoder
Selected bitrate : 768 kBit/s
Quality : High
Add ID3 tag : No
Command line compressor : C:\Users\Felix\Desktop\ÄppZ\Audio Encoders\flac-1.2.1b-icl\flac.exe
Additional command line options : -8 -V -T "ARTIST=%artist%" -T "TITLE=%title%" -T "ALBUM=%albumtitle%" -T "DATE=%year%" -T "TRACKNUMBER=%tracknr%" -T "GENRE=%genre%" -T "PERFORMER=%albuminterpret%" -T "COMPOSER=%composer%" %haslyrics%–tag-from-file=LYRICS="%lyricsfile%"%haslyrics% -T "ALBUMARTIST=%albumartist%" -T "DISCNUMBER=%cdnumber%" -T "TOTALDISCS=%totalcds%" -T "TOTALTRACKS=%numtracks%" -T "COMMENT=%comment%" %source% -o %dest%


TOC of the extracted CD

Track | Start | Length | Start sector | End sector
––––––––––––––––––––––––––––-
1 | 0:00.00 | 4:24.02 | 0 | 19801
2 | 4:24.02 | 5:47.06 | 19802 | 45832
3 | 10:11.08 | 5:14.53 | 45833 | 69435
4 | 15:25.61 | 5:37.63 | 69436 | 94773
5 | 21:03.49 | 4:25.28 | 94774 | 114676
6 | 25:29.02 | 4:58.05 | 114677 | 137031
7 | 30:27.07 | 4:22.25 | 137032 | 156706
8 | 34:49.32 | 5:39.07 | 156707 | 182138
9 | 40:28.39 | 4:20.62 | 182139 | 201700
10 | 44:49.26 | 3:40.16 | 201701 | 218216
11 | 48:29.42 | 4:24.05 | 218217 | 238021
12 | 52:53.47 | 6:00.61 | 238022 | 265082
13 | 58:54.33 | 4:25.74 | 265083 | 285031


Track 1

Filename D:\new rips\- CD\The Durutti Column - Rebellion (2001)\01. 4 Sophia.wav

Pre-gap length 0:00:02.00

Peak level 99.9 %
Extraction speed 4.4 X
Track quality 100.0 %
Test CRC 35E73790
Copy CRC 35E73790
Accurately ripped (confidence 8) [A3A6B006] (AR v1)
Copy OK

Track 2

Filename D:\new rips\- CD\The Durutti Column - Rebellion (2001)\02. Longsight Romance.wav

Peak level 99.9 %
Extraction speed 5.0 X
Track quality 100.0 %
Test CRC 1E4FD489
Copy CRC 1E4FD489
Accurately ripped (confidence 8) [754F9C8A] (AR v1)
Copy OK

Track 3

Filename D:\new rips\- CD\The Durutti Column - Rebellion (2001)\03. Ceh Cak Af en Yam.wav

Peak level 99.9 %
Extraction speed 4.7 X
Track quality 99.9 %
Test CRC B7A8769D
Copy CRC B7A8769D
Accurately ripped (confidence 8) [810CF512] (AR v1)
Copy OK

Track 4

Filename D:\new rips\- CD\The Durutti Column - Rebellion (2001)\04. Fields of Athenry.wav

Peak level 100.0 %
Extraction speed 6.0 X
Track quality 100.0 %
Test CRC 342C9837
Copy CRC 342C9837
Accurately ripped (confidence 8) [0D66B8F7] (AR v1)
Copy OK

Track 5

Filename D:\new rips\- CD\The Durutti Column - Rebellion (2001)\05. Overload Part One.wav

Peak level 99.9 %
Extraction speed 6.3 X
Track quality 100.0 %
Test CRC A5663516
Copy CRC A5663516
Accurately ripped (confidence 8) [ADD670BE] (AR v1)
Copy OK

Track 6

Filename D:\new rips\- CD\The Durutti Column - Rebellion (2001)\06. Falling.wav

Peak level 99.9 %
Extraction speed 6.7 X
Track quality 100.0 %
Test CRC E5D3D606
Copy CRC E5D3D606
Accurately ripped (confidence 8) [936BEB25] (AR v1)
Copy OK

Track 7

Filename D:\new rips\- CD\The Durutti Column - Rebellion (2001)\07. Voluntary Arrangement.wav

Peak level 99.9 %
Extraction speed 6.9 X
Track quality 100.0 %
Test CRC 89848435
Copy CRC 89848435
Accurately ripped (confidence 8) [3AAEF51A] (AR v1)
Copy OK

Track 8

Filename D:\new rips\- CD\The Durutti Column - Rebellion (2001)\08. Mello Part One.wav

Peak level 100.0 %
Extraction speed 7.4 X
Track quality 100.0 %
Test CRC EC040EB2
Copy CRC EC040EB2
Accurately ripped (confidence 8) [08887E9A] (AR v1)
Copy OK

Track 9

Filename D:\new rips\- CD\The Durutti Column - Rebellion (2001)\09. Mello Part Two.wav

Peak level 99.9 %
Extraction speed 7.5 X
Track quality 100.0 %
Test CRC 3DBA72E1
Copy CRC 3DBA72E1
Accurately ripped (confidence 7) [92DFFB12] (AR v1)
Copy OK

Track 10

Filename D:\new rips\- CD\The Durutti Column - Rebellion (2001)\10. Protest Song.wav

Peak level 99.9 %
Extraction speed 7.5 X
Track quality 100.0 %
Test CRC 2C637F2D
Copy CRC 2C637F2D
Accurately ripped (confidence 7) [E88D0E45] (AR v1)
Copy OK

Track 11

Filename D:\new rips\- CD\The Durutti Column - Rebellion (2001)\11. Meschugana.wav

Peak level 99.9 %
Extraction speed 7.9 X
Track quality 100.0 %
Test CRC 667B0AAD
Copy CRC 667B0AAD
Accurately ripped (confidence 7) [611B73A4] (AR v1)
Copy OK

Track 12

Filename D:\new rips\- CD\The Durutti Column - Rebellion (2001)\12. Everybody Loves Papa (XFM Session).wav

Peak level 79.4 %
Extraction speed 8.5 X
Track quality 100.0 %
Test CRC E9C141A2
Copy CRC E9C141A2
Accurately ripped (confidence 6) [90F729DD] (AR v1)
Copy OK

Track 13

Filename D:\new rips\- CD\The Durutti Column - Rebellion (2001)\13. Teresa (XFM Session).wav

Peak level 79.4 %
Extraction speed 8.4 X
Track quality 100.0 %
Test CRC 73CF97E4
Copy CRC 73CF97E4
Accurately ripped (confidence 6) [9E02A995] (AR v1)
Copy OK


All tracks accurately ripped

No errors occurred

End of status report

–– CUETools DB Plugin V2.1.3

[CTDB TOCID: 5FhjrmBlnLuA.t8E2MAq5F5lca4-] found, Submit result: 5FhjrmBlnLuA.t8E2MAq5F5lca4- has been confirmed
[7fe630ed] (1/1) Accurately ripped


==== Log checksum D200D61668910958ACE2AB4BF9B81864534173041D5D95FE33CD5E7A979C1BE5 ====
Exact Audio Copy V1.0 beta 3 from 29. August 2011

EAC extraction logfile from 30. August 2012, 20:05

The Durutti Column / Someone Else's Party

Used drive : TSSTcorpCDDVDW SH-S203D Adapter: 2 ID: 0

Read mode : Secure
Utilize accurate stream : Yes
Defeat audio cache : Yes
Make use of C2 pointers : No

Read offset correction : 6
Overread into Lead-In and Lead-Out : No
Fill up missing offset samples with silence : Yes
Delete leading and trailing silent blocks : No
Null samples used in CRC calculations : Yes
Used interface : Native Win32 interface for Win NT & 2000
Gap handling : Appended to previous track

Used output format : User Defined Encoder
Selected bitrate : 768 kBit/s
Quality : High
Add ID3 tag : No
Command line compressor : C:\Users\Felix\Desktop\ÄppZ\Audio Encoders\flac-1.2.1b-icl\flac.exe
Additional command line options : -8 -V -T "ARTIST=%artist%" -T "TITLE=%title%" -T "ALBUM=%albumtitle%" -T "DATE=%year%" -T "TRACKNUMBER=%tracknr%" -T "GENRE=%genre%" -T "PERFORMER=%albuminterpret%" -T "COMPOSER=%composer%" %haslyrics%–tag-from-file=LYRICS="%lyricsfile%"%haslyrics% -T "ALBUMARTIST=%albumartist%" -T "DISCNUMBER=%cdnumber%" -T "TOTALDISCS=%totalcds%" -T "TOTALTRACKS=%numtracks%" -T "COMMENT=%comment%" %source% -o %dest%


TOC of the extracted CD

Track | Start | Length | Start sector | End sector
––––––––––––––––––––––––––––-
1 | 0:00.00 | 4:22.06 | 0 | 19655
2 | 4:22.06 | 4:30.69 | 19656 | 39974
3 | 8:53.00 | 3:52.66 | 39975 | 57440
4 | 12:45.66 | 4:34.47 | 57441 | 78037
5 | 17:20.38 | 4:23.40 | 78038 | 97802
6 | 21:44.03 | 5:28.40 | 97803 | 122442
7 | 27:12.43 | 5:52.64 | 122443 | 148906
8 | 33:05.32 | 4:55.58 | 148907 | 171089
9 | 38:01.15 | 5:34.47 | 171090 | 196186
10 | 43:35.62 | 3:14.71 | 196187 | 210807
11 | 46:50.58 | 4:27.48 | 210808 | 230880
12 | 51:18.31 | 3:29.64 | 230881 | 246619
13 | 54:48.20 | 6:54.29 | 246620 | 277698
14 | 61:42.49 | 3:20.04 | 277699 | 292702
15 | 65:02.53 | 6:10.37 | 292703 | 320489
16 | 71:13.15 | 5:48.38 | 320490 | 346627


Track 1

Filename D:\new rips\- CD\The Durutti Column - Someone Else's Party (2003)\01. Love Is a Friend.wav

Pre-gap length 0:00:02.00

Peak level 99.9 %
Extraction speed 4.8 X
Track quality 100.0 %
Test CRC 95D029A4
Copy CRC 95D029A4
Accurately ripped (confidence 9) [8A1D80FC] (AR v1)
Copy OK

Track 2

Filename D:\new rips\- CD\The Durutti Column - Someone Else's Party (2003)\02. Spanish Lament.wav

Peak level 97.6 %
Extraction speed 4.3 X
Track quality 99.9 %
Test CRC F28F5779
Copy CRC F28F5779
Accurately ripped (confidence 9) [669E7098] (AR v1)
Copy OK

Track 3

Filename D:\new rips\- CD\The Durutti Column - Someone Else's Party (2003)\03. Somewhere.wav

Peak level 100.0 %
Extraction speed 5.5 X
Track quality 100.0 %
Test CRC 190A7947
Copy CRC 190A7947
Accurately ripped (confidence 9) [35EB4E23] (AR v1)
Copy OK

Track 4

Filename D:\new rips\- CD\The Durutti Column - Someone Else's Party (2003)\04. Somebody's Party.wav

Peak level 99.9 %
Extraction speed 6.0 X
Track quality 100.0 %
Test CRC 3F561CA6
Copy CRC 3F561CA6
Accurately ripped (confidence 9) [1E814489] (AR v1)
Copy OK

Track 5

Filename D:\new rips\- CD\The Durutti Column - Someone Else's Party (2003)\05. Requiem for My Mother.wav

Peak level 99.9 %
Extraction speed 6.3 X
Track quality 100.0 %
Test CRC DD09A910
Copy CRC DD09A910
Accurately ripped (confidence 9) [99D2AC56] (AR v1)
Copy OK

Track 6

Filename D:\new rips\- CD\The Durutti Column - Someone Else's Party (2003)\06. Remember.wav

Peak level 99.9 %
Extraction speed 6.8 X
Track quality 100.0 %
Test CRC 1CC4B618
Copy CRC 1CC4B618
Accurately ripped (confidence 9) [49EEB092] (AR v1)
Copy OK

Track 7

Filename D:\new rips\- CD\The Durutti Column - Someone Else's Party (2003)\07. Vigil.wav

Peak level 99.9 %
Extraction speed 7.3 X
Track quality 100.0 %
Test CRC 8264D227
Copy CRC 8264D227
Accurately ripped (confidence 9) [692B907B] (AR v1)
Copy OK

Track 8

Filename D:\new rips\- CD\The Durutti Column - Someone Else's Party (2003)\08. Blue.wav

Peak level 99.9 %
Extraction speed 6.2 X
Track quality 99.9 %
Test CRC 3711A363
Copy CRC 3711A363
Accurately ripped (confidence 9) [E8F8C985] (AR v1)
Copy OK

Track 9

Filename D:\new rips\- CD\The Durutti Column - Someone Else's Party (2003)\09. No More Hurt.wav

Peak level 76.7 %
Extraction speed 6.6 X
Track quality 99.9 %
Test CRC FE6F8FCA
Copy CRC FE6F8FCA
Accurately ripped (confidence 9) [FC8B777F] (AR v1)
Copy OK

Track 10

Filename D:\new rips\- CD\The Durutti Column - Someone Else's Party (2003)\10. Spasmic Fairy.wav

Peak level 100.0 %
Extraction speed 7.6 X
Track quality 100.0 %
Test CRC 7E092C9F
Copy CRC 7E092C9F
Accurately ripped (confidence 9) [7807DD6C] (AR v1)
Copy OK

Track 11

Filename D:\new rips\- CD\The Durutti Column - Someone Else's Party (2003)\11. American View.wav

Peak level 100.0 %
Extraction speed 8.2 X
Track quality 100.0 %
Test CRC 8C460220
Copy CRC 8C460220
Accurately ripped (confidence 9) [F7B9EC90] (AR v1)
Copy OK

Track 12

Filename D:\new rips\- CD\The Durutti Column - Someone Else's Party (2003)\12. Drinking Time.wav

Peak level 100.0 %
Extraction speed 8.0 X
Track quality 100.0 %
Test CRC FEB34B37
Copy CRC FEB34B37
Accurately ripped (confidence 9) [15FC2712] (AR v1)
Copy OK

Track 13

Filename D:\new rips\- CD\The Durutti Column - Someone Else's Party (2003)\13. Woman.wav

Peak level 100.0 %
Extraction speed 9.1 X
Track quality 100.0 %
Test CRC 23B339CC
Copy CRC 23B339CC
Accurately ripped (confidence 9) [F5BC1ADD] (AR v1)
Copy OK

Track 14

Filename D:\new rips\- CD\The Durutti Column - Someone Else's Party (2003)\14. Goodbye.wav

Peak level 100.0 %
Extraction speed 8.4 X
Track quality 100.0 %
Test CRC 55072E56
Copy CRC 55072E56
Accurately ripped (confidence 9) [F5810B08] (AR v1)
Copy OK

Track 15

Filename D:\new rips\- CD\The Durutti Column - Someone Else's Party (2003)\15. Creole (XFM Session).wav

Peak level 100.0 %
Extraction speed 8.0 X
Track quality 99.9 %
Test CRC A53C77CB
Copy CRC A53C77CB
Accurately ripped (confidence 8) [F50C94AA] (AR v1)
Copy OK

Track 16

Filename D:\new rips\- CD\The Durutti Column - Someone Else's Party (2003)\16. Spasmic Fairy (XFM Session).wav

Peak level 100.0 %
Extraction speed 9.7 X
Track quality 100.0 %
Test CRC 3978E90F
Copy CRC 3978E90F
Accurately ripped (confidence 8) [C655E1D8] (AR v1)
Copy OK


All tracks accurately ripped

No errors occurred

End of status report

–– CUETools DB Plugin V2.1.3

[CTDB TOCID: dWwnwBw92g2iWEOglnU.QychxKo-] found, Submit result: dWwnwBw92g2iWEOglnU.QychxKo- has been confirmed
[70c780ca] (2/2) Accurately ripped


==== Log checksum 496F137B0890BBB17374C9403703FB46762BF9B391736D6B3699C6AE9BC84BB2 ====
Exact Audio Copy V1.0 beta 3 from 29. August 2011

EAC extraction logfile from 30. August 2012, 20:45

The Durutti Column / Keep Breathing

Used drive : TSSTcorpCDDVDW SH-S203D Adapter: 2 ID: 0

Read mode : Secure
Utilize accurate stream : Yes
Defeat audio cache : Yes
Make use of C2 pointers : No

Read offset correction : 6
Overread into Lead-In and Lead-Out : No
Fill up missing offset samples with silence : Yes
Delete leading and trailing silent blocks : No
Null samples used in CRC calculations : Yes
Used interface : Native Win32 interface for Win NT & 2000
Gap handling : Appended to previous track

Used output format : User Defined Encoder
Selected bitrate : 768 kBit/s
Quality : High
Add ID3 tag : No
Command line compressor : C:\Users\Felix\Desktop\ÄppZ\Audio Encoders\flac-1.2.1b-icl\flac.exe
Additional command line options : -8 -V -T "ARTIST=%artist%" -T "TITLE=%title%" -T "ALBUM=%albumtitle%" -T "DATE=%year%" -T "TRACKNUMBER=%tracknr%" -T "GENRE=%genre%" -T "PERFORMER=%albuminterpret%" -T "COMPOSER=%composer%" %haslyrics%–tag-from-file=LYRICS="%lyricsfile%"%haslyrics% -T "ALBUMARTIST=%albumartist%" -T "DISCNUMBER=%cdnumber%" -T "TOTALDISCS=%totalcds%" -T "TOTALTRACKS=%numtracks%" -T "COMMENT=%comment%" %source% -o %dest%


TOC of the extracted CD

Track | Start | Length | Start sector | End sector
––––––––––––––––––––––––––––-
1 | 0:00.00 | 3:52.71 | 0 | 17470
2 | 3:52.71 | 5:20.17 | 17471 | 41487
3 | 9:13.13 | 5:32.23 | 41488 | 66410
4 | 14:45.36 | 4:47.73 | 66411 | 88008
5 | 19:33.34 | 5:07.36 | 88009 | 111069
6 | 24:40.70 | 5:17.72 | 111070 | 134916
7 | 29:58.67 | 7:02.47 | 134917 | 166613
8 | 37:01.39 | 3:55.14 | 166614 | 184252
9 | 40:56.53 | 5:35.35 | 184253 | 209412
10 | 46:32.13 | 4:31.53 | 209413 | 229790
11 | 51:03.66 | 6:43.52 | 229791 | 260067
12 | 57:47.43 | 6:50.40 | 260068 | 290857


Track 1

Filename D:\new rips\- CD\The Durutti Column - Keep Breathing (2006)\01. Nina.wav

Pre-gap length 0:00:02.00

Peak level 98.8 %
Extraction speed 4.2 X
Track quality 100.0 %
Test CRC 41132BF1
Copy CRC 41132BF1
Accurately ripped (confidence 7) [5DF99E3A] (AR v1)
Copy OK

Track 2

Filename D:\new rips\- CD\The Durutti Column - Keep Breathing (2006)\02. It's Wonderful.wav

Peak level 100.0 %
Extraction speed 4.9 X
Track quality 100.0 %
Test CRC 61A9C9F7
Copy CRC 61A9C9F7
Accurately ripped (confidence 7) [228E4502] (AR v1)
Copy OK

Track 3

Filename D:\new rips\- CD\The Durutti Column - Keep Breathing (2006)\03. Maggie.wav

Peak level 100.0 %
Extraction speed 4.6 X
Track quality 99.9 %
Test CRC 1B8F3004
Copy CRC 1B8F3004
Accurately ripped (confidence 7) [051DE86F] (AR v1)
Copy OK

Track 4

Filename D:\new rips\- CD\The Durutti Column - Keep Breathing (2006)\04. Helen.wav

Peak level 100.0 %
Extraction speed 5.8 X
Track quality 100.0 %
Test CRC 019B215A
Copy CRC 019B215A
Accurately ripped (confidence 7) [5DF2DDD1] (AR v1)
Copy OK

Track 5

Filename D:\new rips\- CD\The Durutti Column - Keep Breathing (2006)\05. Neil.wav

Peak level 100.0 %
Extraction speed 6.2 X
Track quality 100.0 %
Test CRC F71CFF2B
Copy CRC F71CFF2B
Accurately ripped (confidence 7) [76CDDAF8] (AR v1)
Copy OK

Track 6

Filename D:\new rips\- CD\The Durutti Column - Keep Breathing (2006)\06. Big Hole.wav

Peak level 100.0 %
Extraction speed 6.7 X
Track quality 100.0 %
Test CRC F80F06DD
Copy CRC F80F06DD
Accurately ripped (confidence 7) [FDA054F4] (AR v1)
Copy OK

Track 7

Filename D:\new rips\- CD\The Durutti Column - Keep Breathing (2006)\07. Let Me Tell You Something.wav

Peak level 100.0 %
Extraction speed 6.3 X
Track quality 99.9 %
Test CRC D539F2EB
Copy CRC D539F2EB
Accurately ripped (confidence 7) [1B4CD9ED] (AR v1)
Copy OK

Track 8

Filename D:\new rips\- CD\The Durutti Column - Keep Breathing (2006)\08. Lunch.wav

Peak level 100.0 %
Extraction speed 7.1 X
Track quality 100.0 %
Test CRC 2F7789A6
Copy CRC 2F7789A6
Accurately ripped (confidence 7) [31726776] (AR v1)
Copy OK

Track 9

Filename D:\new rips\- CD\The Durutti Column - Keep Breathing (2006)\09. Gun.wav

Peak level 100.0 %
Extraction speed 7.7 X
Track quality 100.0 %
Test CRC 8F931A64
Copy CRC 8F931A64
Accurately ripped (confidence 7) [7D0D2F31] (AR v1)
Copy OK

Track 10

Filename D:\new rips\- CD\The Durutti Column - Keep Breathing (2006)\10. Tuesday.wav

Peak level 100.0 %
Extraction speed 7.8 X
Track quality 100.0 %
Test CRC 115D3DB9
Copy CRC 115D3DB9
Accurately ripped (confidence 7) [64F13DB3] (AR v1)
Copy OK

Track 11

Filename D:\new rips\- CD\The Durutti Column - Keep Breathing (2006)\11. Agnus Dei.wav

Peak level 100.0 %
Extraction speed 7.3 X
Track quality 99.9 %
Test CRC 59B69B74
Copy CRC 59B69B74
Accurately ripped (confidence 7) [E86EED59] (AR v1)
Copy OK

Track 12

Filename D:\new rips\- CD\The Durutti Column - Keep Breathing (2006)\12. Waiting.wav

Peak level 99.9 %
Extraction speed 8.8 X
Track quality 100.0 %
Test CRC 188B4142
Copy CRC 188B4142
Accurately ripped (confidence 7) [CC566133] (AR v1)
Copy OK


All tracks accurately ripped

No errors occurred

End of status report

–– CUETools DB Plugin V2.1.3

[CTDB TOCID: zSf_N0NEW2INS_xf8drxzOLRN9Y-] found, Submit result: zSf_N0NEW2INS_xf8drxzOLRN9Y- has been confirmed
[ecaddd9e] (11/11) Accurately ripped


==== Log checksum F2AC618A9C142FACCD9700883F39348873033C7A28A04499BFE0D423BAABCE6B ====
Exact Audio Copy V1.0 beta 3 from 29. August 2011

EAC extraction logfile from 30. August 2012, 21:03

The Durutti Column / Idiot Savants

Used drive : TSSTcorpCDDVDW SH-S203D Adapter: 2 ID: 0

Read mode : Secure
Utilize accurate stream : Yes
Defeat audio cache : Yes
Make use of C2 pointers : No

Read offset correction : 6
Overread into Lead-In and Lead-Out : No
Fill up missing offset samples with silence : Yes
Delete leading and trailing silent blocks : No
Null samples used in CRC calculations : Yes
Used interface : Native Win32 interface for Win NT & 2000
Gap handling : Appended to previous track

Used output format : User Defined Encoder
Selected bitrate : 768 kBit/s
Quality : High
Add ID3 tag : No
Command line compressor : C:\Users\Felix\Desktop\ÄppZ\Audio Encoders\flac-1.2.1b-icl\flac.exe
Additional command line options : -8 -V -T "ARTIST=%artist%" -T "TITLE=%title%" -T "ALBUM=%albumtitle%" -T "DATE=%year%" -T "TRACKNUMBER=%tracknr%" -T "GENRE=%genre%" -T "PERFORMER=%albuminterpret%" -T "COMPOSER=%composer%" %haslyrics%–tag-from-file=LYRICS="%lyricsfile%"%haslyrics% -T "ALBUMARTIST=%albumartist%" -T "DISCNUMBER=%cdnumber%" -T "TOTALDISCS=%totalcds%" -T "TOTALTRACKS=%numtracks%" -T "COMMENT=%comment%" %source% -o %dest%


TOC of the extracted CD

Track | Start | Length | Start sector | End sector
––––––––––––––––––––––––––––-
1 | 0:00.00 | 6:13.45 | 0 | 28019
2 | 6:13.45 | 6:13.14 | 28020 | 56008
3 | 12:26.59 | 9:04.06 | 56009 | 96814
4 | 21:30.65 | 6:12.57 | 96815 | 124771
5 | 27:43.47 | 5:43.41 | 124772 | 150537
6 | 33:27.13 | 6:04.48 | 150538 | 177885
7 | 39:31.61 | 8:31.05 | 177886 | 216215
8 | 48:02.66 | 4:15.65 | 216216 | 235405


Track 1

Filename D:\new rips\- CD\The Durutti Column - Idiot Savants (2007)\01. Better Must Come.wav

Pre-gap length 0:00:02.00

Peak level 60.9 %
Extraction speed 4.6 X
Track quality 100.0 %
Test CRC 9732D10E
Copy CRC 9732D10E
Accurately ripped (confidence 7) [53FBE52B] (AR v1)
Copy OK

Track 2

Filename D:\new rips\- CD\The Durutti Column - Idiot Savants (2007)\02. Interleukin 2 (For Anthony).wav

Peak level 89.3 %
Extraction speed 5.3 X
Track quality 100.0 %
Test CRC 57A61597
Copy CRC 57A61597
Accurately ripped (confidence 7) [1B54053B] (AR v1)
Copy OK

Track 3

Filename D:\new rips\- CD\The Durutti Column - Idiot Savants (2007)\03. Please Let Me Slee.wav

Peak level 78.4 %
Extraction speed 6.3 X
Track quality 100.0 %
Test CRC 071A6BF3
Copy CRC 071A6BF3
Accurately ripped (confidence 7) [DC1E3828] (AR v1)
Copy OK

Track 4

Filename D:\new rips\- CD\The Durutti Column - Idiot Savants (2007)\04. 2 Times Nice.wav

Peak level 62.9 %
Extraction speed 6.7 X
Track quality 100.0 %
Test CRC 2F1A6919
Copy CRC 2F1A6919
Accurately ripped (confidence 7) [47DF44EA] (AR v1)
Copy OK

Track 5

Filename D:\new rips\- CD\The Durutti Column - Idiot Savants (2007)\05. No Last Surprise.wav

Peak level 99.9 %
Extraction speed 7.1 X
Track quality 100.0 %
Test CRC BE978C9C
Copy CRC BE978C9C
Accurately ripped (confidence 7) [A224FE68] (AR v1)
Copy OK

Track 6

Filename D:\new rips\- CD\The Durutti Column - Idiot Savants (2007)\06. Gathering Dust.wav

Peak level 99.9 %
Extraction speed 7.6 X
Track quality 100.0 %
Test CRC B02925DA
Copy CRC B02925DA
Accurately ripped (confidence 7) [AE165A97] (AR v1)
Copy OK

Track 7

Filename D:\new rips\- CD\The Durutti Column - Idiot Savants (2007)\07. Whisper To The Wind.wav

Peak level 85.4 %
Extraction speed 8.4 X
Track quality 100.0 %
Test CRC 6C2FDCC0
Copy CRC 6C2FDCC0
Accurately ripped (confidence 7) [AB2FDA30] (AR v1)
Copy OK

Track 8

Filename D:\new rips\- CD\The Durutti Column - Idiot Savants (2007)\08. That Blows My Name Away (For Rachel).wav

Peak level 96.5 %
Extraction speed 8.2 X
Track quality 100.0 %
Test CRC 8833C419
Copy CRC 8833C419
Accurately ripped (confidence 7) [A0848908] (AR v1)
Copy OK


All tracks accurately ripped

No errors occurred

End of status report

–– CUETools DB Plugin V2.1.3

[CTDB TOCID: s0U0QINkdRQx2d5jzbgoYY4bLZE-] found, Submit result: s0U0QINkdRQx2d5jzbgoYY4bLZE- has been confirmed
[20e330a8] (1/1) Accurately ripped


==== Log checksum 0E560CFAE601A36E92E78E1E640EF28C876A79D082CFFE0BD33DBA60F510F92F ====
Exact Audio Copy V1.0 beta 3 from 29. August 2011

EAC extraction logfile from 30. August 2012, 21:28

The Durutti Column / Love In The Time of Recession

Used drive : TSSTcorpCDDVDW SH-S203D Adapter: 2 ID: 0

Read mode : Secure
Utilize accurate stream : Yes
Defeat audio cache : Yes
Make use of C2 pointers : No

Read offset correction : 6
Overread into Lead-In and Lead-Out : No
Fill up missing offset samples with silence : Yes
Delete leading and trailing silent blocks : No
Null samples used in CRC calculations : Yes
Used interface : Native Win32 interface for Win NT & 2000
Gap handling : Appended to previous track

Used output format : User Defined Encoder
Selected bitrate : 768 kBit/s
Quality : High
Add ID3 tag : No
Command line compressor : C:\Users\Felix\Desktop\ÄppZ\Audio Encoders\flac-1.2.1b-icl\flac.exe
Additional command line options : -8 -V -T "ARTIST=%artist%" -T "TITLE=%title%" -T "ALBUM=%albumtitle%" -T "DATE=%year%" -T "TRACKNUMBER=%tracknr%" -T "GENRE=%genre%" -T "PERFORMER=%albuminterpret%" -T "COMPOSER=%composer%" %haslyrics%–tag-from-file=LYRICS="%lyricsfile%"%haslyrics% -T "ALBUMARTIST=%albumartist%" -T "DISCNUMBER=%cdnumber%" -T "TOTALDISCS=%totalcds%" -T "TOTALTRACKS=%numtracks%" -T "COMMENT=%comment%" %source% -o %dest%


TOC of the extracted CD

Track | Start | Length | Start sector | End sector
––––––––––––––––––––––––––––-
1 | 0:00.00 | 6:11.00 | 0 | 27824
2 | 6:11.00 | 4:22.15 | 27825 | 47489
3 | 10:33.15 | 4:49.49 | 47490 | 69213
4 | 15:22.64 | 4:47.46 | 69214 | 90784
5 | 20:10.35 | 6:08.52 | 90785 | 118436
6 | 26:19.12 | 5:20.18 | 118437 | 142454
7 | 31:39.30 | 3:14.59 | 142455 | 157063
8 | 34:54.14 | 5:26.16 | 157064 | 181529
9 | 40:20.30 | 3:21.67 | 181530 | 196671
10 | 43:42.22 | 7:10.42 | 196672 | 228963
11 | 50:52.64 | 7:07.35 | 228964 | 261023
12 | 58:00.24 | 3:52.72 | 261024 | 278495
13 | 61:53.21 | 5:20.25 | 278496 | 302520
14 | 67:13.46 | 4:34.33 | 302521 | 323103


Track 1

Filename D:\new rips\- CD\The Durutti Column - Love In The Time of Recession (2009)\01. In Memory of Anthony.wav

Pre-gap length 0:00:02.00

Peak level 100.0 %
Extraction speed 5.1 X
Track quality 100.0 %
Test CRC 8C5EA984
Copy CRC 8C5EA984
Accurately ripped (confidence 7) [6A668053] (AR v1)
Copy OK

Track 2

Filename D:\new rips\- CD\The Durutti Column - Love In The Time of Recession (2009)\02. Rant.wav

Peak level 100.0 %
Extraction speed 5.4 X
Track quality 100.0 %
Test CRC 16A73E72
Copy CRC 16A73E72
Accurately ripped (confidence 7) [59ED4C64] (AR v1)
Copy OK

Track 3

Filename D:\new rips\- CD\The Durutti Column - Love In The Time of Recession (2009)\03. More Rainbows.wav

Peak level 95.6 %
Extraction speed 5.9 X
Track quality 100.0 %
Test CRC 6ED713F3
Copy CRC 6ED713F3
Accurately ripped (confidence 7) [D065DA8D] (AR v1)
Copy OK

Track 4

Filename D:\new rips\- CD\The Durutti Column - Love In The Time of Recession (2009)\04. I'm Alive.wav

Peak level 100.0 %
Extraction speed 6.3 X
Track quality 100.0 %
Test CRC 473EFBA0
Copy CRC 473EFBA0
Accurately ripped (confidence 7) [BB0CA675] (AR v1)
Copy OK

Track 5

Filename D:\new rips\- CD\The Durutti Column - Love In The Time of Recession (2009)\05. For Bruce.wav

Peak level 100.0 %
Extraction speed 7.0 X
Track quality 100.0 %
Test CRC 060466F6
Copy CRC 060466F6
Accurately ripped (confidence 7) [14E3C47F] (AR v1)
Copy OK

Track 6

Filename D:\new rips\- CD\The Durutti Column - Love In The Time of Recession (2009)\06. Painting.wav

Peak level 96.3 %
Extraction speed 7.3 X
Track quality 100.0 %
Test CRC 8D84EB2C
Copy CRC 8D84EB2C
Accurately ripped (confidence 7) [92BA181A] (AR v1)
Copy OK

Track 7

Filename D:\new rips\- CD\The Durutti Column - Love In The Time of Recession (2009)\07. Wild Beast Tamed.wav

Peak level 87.4 %
Extraction speed 7.1 X
Track quality 100.0 %
Test CRC 44226D67
Copy CRC 44226D67
Accurately ripped (confidence 7) [4C870066] (AR v1)
Copy OK

Track 8

Filename D:\new rips\- CD\The Durutti Column - Love In The Time of Recession (2009)\08. Rainbow Maker.wav

Peak level 100.0 %
Extraction speed 7.8 X
Track quality 100.0 %
Test CRC 4F22FC4E
Copy CRC 4F22FC4E
Accurately ripped (confidence 7) [73B62D49] (AR v1)
Copy OK

Track 9

Filename D:\new rips\- CD\The Durutti Column - Love In The Time of Recession (2009)\09. My Poppy.wav

Peak level 100.0 %
Extraction speed 7.7 X
Track quality 100.0 %
Test CRC 1828C1A0
Copy CRC 1828C1A0
Accurately ripped (confidence 7) [E328EE8E] (AR v1)
Copy OK

Track 10

Filename D:\new rips\- CD\The Durutti Column - Love In The Time of Recession (2009)\10. Loser.wav

Peak level 100.0 %
Extraction speed 8.7 X
Track quality 100.0 %
Test CRC 5257F809
Copy CRC 5257F809
Accurately ripped (confidence 7) [90EE4EF8] (AR v1)
Copy OK

Track 11

Filename D:\new rips\- CD\The Durutti Column - Love In The Time of Recession (2009)\11. Lock-Down.wav

Peak level 100.0 %
Extraction speed 9.1 X
Track quality 100.0 %
Test CRC 91D0A96A
Copy CRC 91D0A96A
Accurately ripped (confidence 7) [6F9A5CF2] (AR v1)
Copy OK

Track 12

Filename D:\new rips\- CD\The Durutti Column - Love In The Time of Recession (2009)\12. The Secret Between The Blade And Me.wav

Peak level 100.0 %
Extraction speed 8.8 X
Track quality 100.0 %
Test CRC BA46BDB3
Copy CRC BA46BDB3
Accurately ripped (confidence 7) [6A878D52] (AR v1)
Copy OK

Track 13

Filename D:\new rips\- CD\The Durutti Column - Love In The Time of Recession (2009)\13. Duet For Piano And Guitar.wav

Peak level 100.0 %
Extraction speed 7.7 X
Track quality 99.9 %
Test CRC 52C16665
Copy CRC 52C16665
Accurately ripped (confidence 7) [7F4EA2CD] (AR v1)
Copy OK

Track 14

Filename D:\new rips\- CD\The Durutti Column - Love In The Time of Recession (2009)\14. Everybody's Laughing (I Don't Care).wav

Peak level 100.0 %
Extraction speed 9.4 X
Track quality 100.0 %
Test CRC 9D79D552
Copy CRC 9D79D552
Accurately ripped (confidence 7) [34B551CF] (AR v1)
Copy OK


All tracks accurately ripped

No errors occurred

End of status report

–– CUETools DB Plugin V2.1.3

[CTDB TOCID: IcTispOUazSciWmHuAgwHn85Z1w-] found, Submit result: IcTispOUazSciWmHuAgwHn85Z1w- has been confirmed
[4ebb0627] (1/1) Accurately ripped


==== Log checksum B5C682974EEE93EF1AF9BEE48C60185A963426C1C3EB0C0F472FDAD920F3C0A4 ====

Thanks to the Original ripper !