Tags
Language
Tags

Travis & Fripp ‎- Between The Silence (2018)

Posted By: delpotro
Travis & Fripp ‎- Between The Silence (2018)

Travis & Fripp ‎- Between The Silence (2018)
XLD Rip | FLAC (tracks+log+.cue) - 766 Mb | MP3 CBR 320 kbps - 391 Mb | 02:50:53
Ambient, Jazz | Label: Panegyric, Discipline Global Mobile

Travis & Fripp has proved to be one of the most enduring of Robert Fripp’s many duo projects – all the more remarkable really, given that both musicians are consistently involved in other projects; for Fripp, a renewed King Crimson has been a primary musical enterprise since 2014, while Theo Travis has, in recent years recorded and toured with David Sylvian, Steven Wilson, continues as a member of Soft Machine, runs his own band Double Talk & still somehow, finds time for an ongoing commitment to teaching a next generation of musicians.

While this has meant that plans for further Travis & Fripp concerts have proved impossible to schedule at present, work has continued on the music already recorded. Between the Silence presents a specially priced 3CD set comprising three complete concerts recorded in 2009 & 2010. As with so much music where improvisation is central, a core element, hearing the performances as heard on the respective nights allows the listener to enter more fully into the spirit in which the music originated, while the differences in venues, acoustics & even size of audience impacts upon the manner in which the duo approaches each concert.


Most of the music featured is new to CD with only two tracks having appeared in different/edited form on the album Follow.

As ever the music produced by Travis & Fripp remains wonderfully difficult to neatly categorise – sometimes quiet, but never to the extent that it could be described as ‘ambient’ – improvisational, but not in such a manner as to call it ‘jazz’ - using electronics, but not resulting in music that could be described as ‘electronica’. It is, nonetheless, music that has touched a great many people – both in concert & as presented on discs – with this release marking the duo’s fifth recorded release.
Tracklist:
Disc 1 (50:56)
1. The Apparent Chaos Of Stone (08:36)
2. In A Field Of Green (07:51)
3. Route 23 (Improv) (02:54)
4. The Offering (07:14)
5. Blue Calm (05:18)
6. Moonchild (05:40)
7. Duet For The End Of Time (07:53)
8. Coda: Duet For The End Of Time (05:30)

Disc 2 (01:07:49)
1. Emporium (04:15)
2. In A Field Of Green (11:34)
3. Rotary Symmetrical (06:24)
4. Moonchild (05:44)
5. A Careful Distance (10:34)
6. Blue Calm (03:42)
7. Route 23 (Improv) (05:37)
8. Duet For The End Of Time (14:40)
9. Encore: Bath Improv (05:19)

Disc 3 (52:06)
1. The Power To Believe (01:26)
2. Pastorale (07:10)
3. Rotary Symmetrical (06:02)
4. Dark Clouds (08:34)
5. Blue Calm (08:35)
6. When The Rains Fall (10:30)
7. Duet For The End Of Time (09:49)

X Lossless Decoder version 20181019 (151.1)

XLD extraction logfile from 2019-08-20 17:59:14 -0700

Travis & Fripp / Between The Silence (CD 1: All Saints Church, Broad Chalke - 21 May 2009)

Used drive : MATSHITA DVD-R UJ-868 (revision KB19)
Media type : Pressed CD

Ripper mode : XLD Secure Ripper
Disable audio cache : OK for the drive with a cache less than 1375KiB
Make use of C2 pointers : NO
Read offset correction : 102
Max retry count : 20
Gap status : Analyzed, Appended (except HTOA)

TOC of the extracted CD
Track | Start | Length | Start sector | End sector
––––––––––––––––––––––––––––-
1 | 00:00:00 | 08:37:16 | 0 | 38790
2 | 08:37:16 | 07:51:55 | 38791 | 74170
3 | 16:28:71 | 02:54:59 | 74171 | 87279
4 | 19:23:55 | 07:14:30 | 87280 | 119859
5 | 26:38:10 | 05:18:36 | 119860 | 143745
6 | 31:56:46 | 05:39:48 | 143746 | 169218
7 | 37:36:19 | 07:52:61 | 169219 | 204679
8 | 45:29:05 | 05:30:54 | 204680 | 229483

AccurateRip Summary (DiscID: 001048df-006ac931-680bf308)
Track 01 : OK (v2, confidence 7/7)
Track 02 : OK (v2, confidence 7/7)
Track 03 : OK (v2, confidence 7/7)
Track 04 : OK (v2, confidence 7/7)
Track 05 : OK (v2, confidence 7/7)
Track 06 : OK (v2, confidence 7/7)
Track 07 : OK (v2, confidence 7/7)
Track 08 : OK (v2, confidence 7/7)
->All tracks accurately ripped.

All Tracks
Album gain : -4.44 dB
Peak : 0.999969
Statistics
Read error : 0
Jitter error (maybe fixed) : 1
Retry sector count : 43
Damaged sector count : 0

Track 01
Filename : /Rips/Travis & Fripp - Between The Silence (CD 1: All Saints Church, Broad Chalke - 21 May 2009) (2018) [MP3 V0]/01 The Apparent Chaos Of Stone.mp3
/Rips/Travis & Fripp - Between The Silence (CD 1: All Saints Church, Broad Chalke - 21 May 2009) (2018) [MP3 320]/01 The Apparent Chaos Of Stone.mp3
/Rips/Travis & Fripp - Between The Silence (CD 1: All Saints Church, Broad Chalke - 21 May 2009) (2018) [FLAC]/01 The Apparent Chaos Of Stone.flac
Pre-gap length : 00:02:00

Track gain : -1.14 dB
Peak : 0.809204
CRC32 hash (test run) : C250B184
CRC32 hash : C250B184
CRC32 hash (skip zero) : 9DDDFA7F
AccurateRip v1 signature : 76C8D452
AccurateRip v2 signature : C02FFE95
->Accurately ripped (v2, confidence 7/7)
Statistics
Read error : 0
Jitter error (maybe fixed) : 0
Retry sector count : 0
Damaged sector count : 0

Track 02
Filename : /Rips/Travis & Fripp - Between The Silence (CD 1: All Saints Church, Broad Chalke - 21 May 2009) (2018) [MP3 V0]/02 In A Field Of Green.mp3
/Rips/Travis & Fripp - Between The Silence (CD 1: All Saints Church, Broad Chalke - 21 May 2009) (2018) [MP3 320]/02 In A Field Of Green.mp3
/Rips/Travis & Fripp - Between The Silence (CD 1: All Saints Church, Broad Chalke - 21 May 2009) (2018) [FLAC]/02 In A Field Of Green.flac

Track gain : -4.05 dB
Peak : 0.937592
CRC32 hash (test run) : 73C2B0C4
CRC32 hash : 73C2B0C4
CRC32 hash (skip zero) : 9FF375CC
AccurateRip v1 signature : AA1A2BE7
AccurateRip v2 signature : B7200964
->Accurately ripped (v2, confidence 7/7)
Statistics
Read error : 0
Jitter error (maybe fixed) : 0
Retry sector count : 0
Damaged sector count : 0

Track 03
Filename : /Rips/Travis & Fripp - Between The Silence (CD 1: All Saints Church, Broad Chalke - 21 May 2009) (2018) [MP3 V0]/03 Route 23 (Improv).mp3
/Rips/Travis & Fripp - Between The Silence (CD 1: All Saints Church, Broad Chalke - 21 May 2009) (2018) [MP3 320]/03 Route 23 (Improv).mp3
/Rips/Travis & Fripp - Between The Silence (CD 1: All Saints Church, Broad Chalke - 21 May 2009) (2018) [FLAC]/03 Route 23 (Improv).flac

Track gain : -1.07 dB
Peak : 0.718994
CRC32 hash (test run) : 1D605A2F
CRC32 hash : 1D605A2F
CRC32 hash (skip zero) : F570F247
AccurateRip v1 signature : 601EAF04
AccurateRip v2 signature : EBDFFEB3
->Accurately ripped (v2, confidence 7/7)
Statistics
Read error : 0
Jitter error (maybe fixed) : 0
Retry sector count : 0
Damaged sector count : 0

Track 04
Filename : /Rips/Travis & Fripp - Between The Silence (CD 1: All Saints Church, Broad Chalke - 21 May 2009) (2018) [MP3 V0]/04 The Offering.mp3
/Rips/Travis & Fripp - Between The Silence (CD 1: All Saints Church, Broad Chalke - 21 May 2009) (2018) [MP3 320]/04 The Offering.mp3
/Rips/Travis & Fripp - Between The Silence (CD 1: All Saints Church, Broad Chalke - 21 May 2009) (2018) [FLAC]/04 The Offering.flac

Track gain : -4.12 dB
Peak : 0.958069
CRC32 hash (test run) : BF9D6568
CRC32 hash : BF9D6568
CRC32 hash (skip zero) : 3847CFB7
AccurateRip v1 signature : 92C78EBE
AccurateRip v2 signature : D87C2B11
->Accurately ripped (v2, confidence 7/7)
Statistics
Read error : 0
Jitter error (maybe fixed) : 0
Retry sector count : 0
Damaged sector count : 0

Track 05
Filename : /Rips/Travis & Fripp - Between The Silence (CD 1: All Saints Church, Broad Chalke - 21 May 2009) (2018) [MP3 V0]/05 Blue Calm.mp3
/Rips/Travis & Fripp - Between The Silence (CD 1: All Saints Church, Broad Chalke - 21 May 2009) (2018) [MP3 320]/05 Blue Calm.mp3
/Rips/Travis & Fripp - Between The Silence (CD 1: All Saints Church, Broad Chalke - 21 May 2009) (2018) [FLAC]/05 Blue Calm.flac

Track gain : -3.24 dB
Peak : 0.861908
CRC32 hash (test run) : 231348C0
CRC32 hash : 231348C0
CRC32 hash (skip zero) : 526D2CB3
AccurateRip v1 signature : 187CCA7D
AccurateRip v2 signature : B40F1FE4
->Accurately ripped (v2, confidence 7/7)
Statistics
Read error : 0
Jitter error (maybe fixed) : 0
Retry sector count : 0
Damaged sector count : 0

Track 06
Filename : /Rips/Travis & Fripp - Between The Silence (CD 1: All Saints Church, Broad Chalke - 21 May 2009) (2018) [MP3 V0]/06 Moonchild.mp3
/Rips/Travis & Fripp - Between The Silence (CD 1: All Saints Church, Broad Chalke - 21 May 2009) (2018) [MP3 320]/06 Moonchild.mp3
/Rips/Travis & Fripp - Between The Silence (CD 1: All Saints Church, Broad Chalke - 21 May 2009) (2018) [FLAC]/06 Moonchild.flac

Track gain : -6.20 dB
Peak : 0.999939
CRC32 hash (test run) : D43A6961
CRC32 hash : D43A6961
CRC32 hash (skip zero) : 37565176
AccurateRip v1 signature : 6E1073A5
AccurateRip v2 signature : 9850941F
->Accurately ripped (v2, confidence 7/7)
Statistics
Read error : 0
Jitter error (maybe fixed) : 0
Retry sector count : 0
Damaged sector count : 0

Track 07
Filename : /Rips/Travis & Fripp - Between The Silence (CD 1: All Saints Church, Broad Chalke - 21 May 2009) (2018) [MP3 V0]/07 Duet For The End Of Time.mp3
/Rips/Travis & Fripp - Between The Silence (CD 1: All Saints Church, Broad Chalke - 21 May 2009) (2018) [MP3 320]/07 Duet For The End Of Time.mp3
/Rips/Travis & Fripp - Between The Silence (CD 1: All Saints Church, Broad Chalke - 21 May 2009) (2018) [FLAC]/07 Duet For The End Of Time.flac

Track gain : -6.99 dB
Peak : 0.999969
CRC32 hash (test run) : C4EDFB21
CRC32 hash : C4EDFB21
CRC32 hash (skip zero) : E8654257
AccurateRip v1 signature : B51C723A
AccurateRip v2 signature : B6865717
->Accurately ripped (v2, confidence 7/7)
Statistics
Read error : 0
Jitter error (maybe fixed) : 1
Retry sector count : 43
Damaged sector count : 0

Track 08
Filename : /Rips/Travis & Fripp - Between The Silence (CD 1: All Saints Church, Broad Chalke - 21 May 2009) (2018) [MP3 V0]/08 Coda: Duet For The End Of Time.mp3
/Rips/Travis & Fripp - Between The Silence (CD 1: All Saints Church, Broad Chalke - 21 May 2009) (2018) [MP3 320]/08 Coda: Duet For The End Of Time.mp3
/Rips/Travis & Fripp - Between The Silence (CD 1: All Saints Church, Broad Chalke - 21 May 2009) (2018) [FLAC]/08 Coda: Duet For The End Of Time.flac

Track gain : -2.30 dB
Peak : 0.930542
CRC32 hash (test run) : 9880B297
CRC32 hash : 9880B297
CRC32 hash (skip zero) : 7D9B35E2
AccurateRip v1 signature : 64F2F24B
AccurateRip v2 signature : BF7B274E
->Accurately ripped (v2, confidence 7/7)
Statistics
Read error : 0
Jitter error (maybe fixed) : 0
Retry sector count : 0
Damaged sector count : 0

No errors occurred

End of status report

––-BEGIN XLD SIGNATURE––-
V1_x.DFYrdpaNOPR_jZXbDxxomNHsT25SvuEgvxOPfzOSapwmyQpaxnI7qEtKLwRmZPPmzfjiCVmRWFlzvrBxQhjEOY3qlnRURSFY40
––-END XLD SIGNATURE––-

X Lossless Decoder version 20181019 (151.1)

XLD extraction logfile from 2019-08-20 21:01:28 -0700

Travis & Fripp / Between The Silence (CD 2: Spiegeltent, Bath Festival - 5 June 2010)

Used drive : HL-DT-ST DVDRAM SP80NB80 (revision RC00)
Media type : Pressed CD

Ripper mode : XLD Secure Ripper
Disable audio cache : OK for the drive with a cache less than 1375KiB
Make use of C2 pointers : NO
Read offset correction : 102
Max retry count : 20
Gap status : Analyzed, Appended (except HTOA)

TOC of the extracted CD
Track | Start | Length | Start sector | End sector
––––––––––––––––––––––––––––-
1 | 00:00:00 | 04:15:06 | 0 | 19130
2 | 04:15:06 | 11:34:63 | 19131 | 71243
3 | 15:49:69 | 06:24:06 | 71244 | 100049
4 | 22:14:00 | 05:43:10 | 100050 | 125784
5 | 27:57:10 | 10:34:21 | 125785 | 173355
6 | 38:31:31 | 03:42:13 | 173356 | 190018
7 | 42:13:44 | 05:36:54 | 190019 | 215272
8 | 47:50:23 | 14:40:37 | 215273 | 281309
9 | 62:30:60 | 05:19:14 | 281310 | 305248

List of alternate offset correction values
# | Absolute | Relative | Confidence
–––––––––––––––––––––
1 | 6 | -96 | 7

AccurateRip Summary (DiscID: 00169ac9-00a7341d-7f0fe509)
Track 01 : OK (v2, confidence 7/7, with different offset)
Track 02 : OK (v2, confidence 7/7, with different offset)
Track 03 : OK (v2, confidence 7/7, with different offset)
Track 04 : OK (v2, confidence 7/7, with different offset)
Track 05 : OK (v2, confidence 7/7, with different offset)
Track 06 : OK (v2, confidence 7/7, with different offset)
Track 07 : OK (v2, confidence 7/7, with different offset)
Track 08 : OK (v2, confidence 7/7, with different offset)
Track 09 : OK (v2, confidence 7/7, with different offset)
->All tracks accurately ripped.

All Tracks
Album gain : -4.85 dB
Peak : 0.999969
Statistics
Read error : 0
Jitter error (maybe fixed) : 0
Retry sector count : 0
Damaged sector count : 0

Track 01
Filename : /Rips/Travis & Fripp - Between The Silence (CD 2: Spiegeltent, Bath Festival - 5 June 2010) (2018) [MP3 V0]/01 Emporium.mp3
/Rips/Travis & Fripp - Between The Silence (CD 2: Spiegeltent, Bath Festival - 5 June 2010) (2018) [MP3 320]/01 Emporium.mp3
/Rips/Travis & Fripp - Between The Silence (CD 2: Spiegeltent, Bath Festival - 5 June 2010) (2018) [FLAC]/01 Emporium.flac
Pre-gap length : 00:02:00

Track gain : -2.83 dB
Peak : 0.901306
CRC32 hash (test run) : 95F765AC
CRC32 hash : 95F765AC
CRC32 hash (skip zero) : 80E724F1
AccurateRip v1 signature : 4322A686
AccurateRip v2 signature : 7DB639F6 (0A733047 w/correction)
->Accurately ripped with different offset (v2, confidence 7/7, offset -96)
Statistics
Read error : 0
Jitter error (maybe fixed) : 0
Retry sector count : 0
Damaged sector count : 0

Track 02
Filename : /Rips/Travis & Fripp - Between The Silence (CD 2: Spiegeltent, Bath Festival - 5 June 2010) (2018) [MP3 V0]/02 In A Field Of Green.mp3
/Rips/Travis & Fripp - Between The Silence (CD 2: Spiegeltent, Bath Festival - 5 June 2010) (2018) [MP3 320]/02 In A Field Of Green.mp3
/Rips/Travis & Fripp - Between The Silence (CD 2: Spiegeltent, Bath Festival - 5 June 2010) (2018) [FLAC]/02 In A Field Of Green.flac

Track gain : -5.09 dB
Peak : 0.999969
CRC32 hash (test run) : 363556A1
CRC32 hash : 363556A1
CRC32 hash (skip zero) : 8CC1213D
AccurateRip v1 signature : 9E13269B
AccurateRip v2 signature : D64F2178 (AFFF7F36 w/correction)
->Accurately ripped with different offset (v2, confidence 7/7, offset -96)
Statistics
Read error : 0
Jitter error (maybe fixed) : 0
Retry sector count : 0
Damaged sector count : 0

Track 03
Filename : /Rips/Travis & Fripp - Between The Silence (CD 2: Spiegeltent, Bath Festival - 5 June 2010) (2018) [MP3 V0]/03 Rotary Symmetrical.mp3
/Rips/Travis & Fripp - Between The Silence (CD 2: Spiegeltent, Bath Festival - 5 June 2010) (2018) [MP3 320]/03 Rotary Symmetrical.mp3
/Rips/Travis & Fripp - Between The Silence (CD 2: Spiegeltent, Bath Festival - 5 June 2010) (2018) [FLAC]/03 Rotary Symmetrical.flac

Track gain : -7.52 dB
Peak : 0.999969
CRC32 hash (test run) : 40EED662
CRC32 hash : 40EED662
CRC32 hash (skip zero) : A79F861C
AccurateRip v1 signature : CF628742
AccurateRip v2 signature : 0837D775 (8858BC49 w/correction)
->Accurately ripped with different offset (v2, confidence 7/7, offset -96)
Statistics
Read error : 0
Jitter error (maybe fixed) : 0
Retry sector count : 0
Damaged sector count : 0

Track 04
Filename : /Rips/Travis & Fripp - Between The Silence (CD 2: Spiegeltent, Bath Festival - 5 June 2010) (2018) [MP3 V0]/04 Moonchild.mp3
/Rips/Travis & Fripp - Between The Silence (CD 2: Spiegeltent, Bath Festival - 5 June 2010) (2018) [MP3 320]/04 Moonchild.mp3
/Rips/Travis & Fripp - Between The Silence (CD 2: Spiegeltent, Bath Festival - 5 June 2010) (2018) [FLAC]/04 Moonchild.flac

Track gain : -4.77 dB
Peak : 0.915070
CRC32 hash (test run) : 986AD0D8
CRC32 hash : 986AD0D8
CRC32 hash (skip zero) : E530373F
AccurateRip v1 signature : C4E0A3DE
AccurateRip v2 signature : C050B22D (BC50AF5C w/correction)
->Accurately ripped with different offset (v2, confidence 7/7, offset -96)
Statistics
Read error : 0
Jitter error (maybe fixed) : 0
Retry sector count : 0
Damaged sector count : 0

Track 05
Filename : /Rips/Travis & Fripp - Between The Silence (CD 2: Spiegeltent, Bath Festival - 5 June 2010) (2018) [MP3 V0]/05 A Careful Distance.mp3
/Rips/Travis & Fripp - Between The Silence (CD 2: Spiegeltent, Bath Festival - 5 June 2010) (2018) [MP3 320]/05 A Careful Distance.mp3
/Rips/Travis & Fripp - Between The Silence (CD 2: Spiegeltent, Bath Festival - 5 June 2010) (2018) [FLAC]/05 A Careful Distance.flac

Track gain : -4.82 dB
Peak : 0.963287
CRC32 hash (test run) : 8F914C76
CRC32 hash : 8F914C76
CRC32 hash (skip zero) : EE256C86
AccurateRip v1 signature : 17FA4C2E
AccurateRip v2 signature : DBE6FE0D (D0841E00 w/correction)
->Accurately ripped with different offset (v2, confidence 7/7, offset -96)
Statistics
Read error : 0
Jitter error (maybe fixed) : 0
Retry sector count : 0
Damaged sector count : 0

Track 06
Filename : /Rips/Travis & Fripp - Between The Silence (CD 2: Spiegeltent, Bath Festival - 5 June 2010) (2018) [MP3 V0]/06 Blue Calm.mp3
/Rips/Travis & Fripp - Between The Silence (CD 2: Spiegeltent, Bath Festival - 5 June 2010) (2018) [MP3 320]/06 Blue Calm.mp3
/Rips/Travis & Fripp - Between The Silence (CD 2: Spiegeltent, Bath Festival - 5 June 2010) (2018) [FLAC]/06 Blue Calm.flac

Track gain : 0.75 dB
Peak : 0.590302
CRC32 hash (test run) : 5EDCF2A2
CRC32 hash : 5EDCF2A2
CRC32 hash (skip zero) : E602EBD1
AccurateRip v1 signature : 07819BCE
AccurateRip v2 signature : FB6F7B0E (067A03F2 w/correction)
->Accurately ripped with different offset (v2, confidence 7/7, offset -96)
Statistics
Read error : 0
Jitter error (maybe fixed) : 0
Retry sector count : 0
Damaged sector count : 0

Track 07
Filename : /Rips/Travis & Fripp - Between The Silence (CD 2: Spiegeltent, Bath Festival - 5 June 2010) (2018) [MP3 V0]/07 Route 23 (Improv).mp3
/Rips/Travis & Fripp - Between The Silence (CD 2: Spiegeltent, Bath Festival - 5 June 2010) (2018) [MP3 320]/07 Route 23 (Improv).mp3
/Rips/Travis & Fripp - Between The Silence (CD 2: Spiegeltent, Bath Festival - 5 June 2010) (2018) [FLAC]/07 Route 23 (Improv).flac

Track gain : -1.54 dB
Peak : 0.954742
CRC32 hash (test run) : 62298BEC
CRC32 hash : 62298BEC
CRC32 hash (skip zero) : A96B256B
AccurateRip v1 signature : EFA1B3A4
AccurateRip v2 signature : C0958850 (0FE67547 w/correction)
->Accurately ripped with different offset (v2, confidence 7/7, offset -96)
Statistics
Read error : 0
Jitter error (maybe fixed) : 0
Retry sector count : 0
Damaged sector count : 0

Track 08
Filename : /Rips/Travis & Fripp - Between The Silence (CD 2: Spiegeltent, Bath Festival - 5 June 2010) (2018) [MP3 V0]/08 Duet For The End Of Time.mp3
/Rips/Travis & Fripp - Between The Silence (CD 2: Spiegeltent, Bath Festival - 5 June 2010) (2018) [MP3 320]/08 Duet For The End Of Time.mp3
/Rips/Travis & Fripp - Between The Silence (CD 2: Spiegeltent, Bath Festival - 5 June 2010) (2018) [FLAC]/08 Duet For The End Of Time.flac

Track gain : -4.67 dB
Peak : 0.999939
CRC32 hash (test run) : 4A9DAC5A
CRC32 hash : 4A9DAC5A
CRC32 hash (skip zero) : 042B51A4
AccurateRip v1 signature : 42E4A040
AccurateRip v2 signature : 8F46FE61 (8905D80C w/correction)
->Accurately ripped with different offset (v2, confidence 7/7, offset -96)
Statistics
Read error : 0
Jitter error (maybe fixed) : 0
Retry sector count : 0
Damaged sector count : 0

Track 09
Filename : /Rips/Travis & Fripp - Between The Silence (CD 2: Spiegeltent, Bath Festival - 5 June 2010) (2018) [MP3 V0]/09 Encore: Bath Improv.mp3
/Rips/Travis & Fripp - Between The Silence (CD 2: Spiegeltent, Bath Festival - 5 June 2010) (2018) [MP3 320]/09 Encore: Bath Improv.mp3
/Rips/Travis & Fripp - Between The Silence (CD 2: Spiegeltent, Bath Festival - 5 June 2010) (2018) [FLAC]/09 Encore: Bath Improv.flac

Track gain : -5.72 dB
Peak : 0.999969
CRC32 hash (test run) : DD6CF993
CRC32 hash : DD6CF993
CRC32 hash (skip zero) : D0AEBEDF
AccurateRip v1 signature : 4E94FE62
AccurateRip v2 signature : DEA638B8 (3482BEB4 w/correction)
->Accurately ripped with different offset (v2, confidence 7/7, offset -96)
Statistics
Read error : 0
Jitter error (maybe fixed) : 0
Retry sector count : 0
Damaged sector count : 0

No errors occurred

End of status report

––-BEGIN XLD SIGNATURE––-
qddiEpHi_5PTWUdaKmR3hToUUzTSNGXiY4LiG40NFVHO2Re6Oxv76Q0t8QDFIGhCzzt0KnuGRffO2HlxVt1u7YXwzUFnQNbO1Uphtmi
––-END XLD SIGNATURE––-

X Lossless Decoder version 20181019 (151.1)

XLD extraction logfile from 2019-08-20 21:53:35 -0700

Travis & Fripp / Between The Silence (CD 3: All Saints Church, Pittville, Cheltenham - 16 July 2010)

Used drive : HL-DT-ST DVDRAM SP80NB80 (revision RC00)
Media type : Pressed CD

Ripper mode : XLD Secure Ripper
Disable audio cache : OK for the drive with a cache less than 1375KiB
Make use of C2 pointers : NO
Read offset correction : 102
Max retry count : 20
Gap status : Analyzed, Appended (except HTOA)

TOC of the extracted CD
Track | Start | Length | Start sector | End sector
––––––––––––––––––––––––––––-
1 | 00:00:00 | 01:26:63 | 0 | 6512
2 | 01:26:63 | 07:10:28 | 6513 | 38790
3 | 08:37:16 | 06:02:60 | 38791 | 66000
4 | 14:40:01 | 08:34:40 | 66001 | 104590
5 | 23:14:41 | 08:35:53 | 104591 | 143268
6 | 31:50:19 | 10:31:27 | 143269 | 190620
7 | 42:21:46 | 09:41:53 | 190621 | 234248

List of alternate offset correction values
# | Absolute | Relative | Confidence
–––––––––––––––––––––
1 | 6 | -96 | 7

AccurateRip Summary (DiscID: 000bf6a3-004c0df8-610c3307)
Track 01 : OK (v2, confidence 7/7, with different offset)
Track 02 : OK (v2, confidence 7/7, with different offset)
Track 03 : OK (v2, confidence 7/7, with different offset)
Track 04 : OK (v2, confidence 7/7, with different offset)
Track 05 : OK (v2, confidence 7/7, with different offset)
Track 06 : OK (v2, confidence 7/7, with different offset)
Track 07 : OK (v2, confidence 7/7, with different offset)
->All tracks accurately ripped.

All Tracks
Album gain : -4.86 dB
Peak : 0.999969
Statistics
Read error : 0
Jitter error (maybe fixed) : 0
Retry sector count : 0
Damaged sector count : 0

Track 01
Filename : /Rips/Travis & Fripp - Between The Silence (CD 3: All Saints Church, Pittville, Cheltenham - 16 July 2010) (2018) [MP3 V0]/01 The Power To Believe.mp3
/Rips/Travis & Fripp - Between The Silence (CD 3: All Saints Church, Pittville, Cheltenham - 16 July 2010) (2018) [MP3 320]/01 The Power To Believe.mp3
/Rips/Travis & Fripp - Between The Silence (CD 3: All Saints Church, Pittville, Cheltenham - 16 July 2010) (2018) [FLAC]/01 The Power To Believe.flac
Pre-gap length : 00:02:00

Track gain : 8.68 dB
Peak : 0.351257
CRC32 hash (test run) : 3F1EDB99
CRC32 hash : 3F1EDB99
CRC32 hash (skip zero) : 4D31128F
AccurateRip v1 signature : D7A8D61D
AccurateRip v2 signature : 7035DF1D (12AEEE49 w/correction)
->Accurately ripped with different offset (v2, confidence 7/7, offset -96)
Statistics
Read error : 0
Jitter error (maybe fixed) : 0
Retry sector count : 0
Damaged sector count : 0

Track 02
Filename : /Rips/Travis & Fripp - Between The Silence (CD 3: All Saints Church, Pittville, Cheltenham - 16 July 2010) (2018) [MP3 V0]/02 Pastorale.mp3
/Rips/Travis & Fripp - Between The Silence (CD 3: All Saints Church, Pittville, Cheltenham - 16 July 2010) (2018) [MP3 320]/02 Pastorale.mp3
/Rips/Travis & Fripp - Between The Silence (CD 3: All Saints Church, Pittville, Cheltenham - 16 July 2010) (2018) [FLAC]/02 Pastorale.flac

Track gain : -3.22 dB
Peak : 0.857941
CRC32 hash (test run) : 024D893E
CRC32 hash : 024D893E
CRC32 hash (skip zero) : 12E25804
AccurateRip v1 signature : 7E062A97
AccurateRip v2 signature : B8FCE855 (3F44022E w/correction)
->Accurately ripped with different offset (v2, confidence 7/7, offset -96)
Statistics
Read error : 0
Jitter error (maybe fixed) : 0
Retry sector count : 0
Damaged sector count : 0

Track 03
Filename : /Rips/Travis & Fripp - Between The Silence (CD 3: All Saints Church, Pittville, Cheltenham - 16 July 2010) (2018) [MP3 V0]/03 Rotary Symmetrical.mp3
/Rips/Travis & Fripp - Between The Silence (CD 3: All Saints Church, Pittville, Cheltenham - 16 July 2010) (2018) [MP3 320]/03 Rotary Symmetrical.mp3
/Rips/Travis & Fripp - Between The Silence (CD 3: All Saints Church, Pittville, Cheltenham - 16 July 2010) (2018) [FLAC]/03 Rotary Symmetrical.flac

Track gain : -5.51 dB
Peak : 0.999969
CRC32 hash (test run) : 94CCABAC
CRC32 hash : 94CCABAC
CRC32 hash (skip zero) : BEDF5863
AccurateRip v1 signature : 09D3868C
AccurateRip v2 signature : B362C4FA (BD6F8997 w/correction)
->Accurately ripped with different offset (v2, confidence 7/7, offset -96)
Statistics
Read error : 0
Jitter error (maybe fixed) : 0
Retry sector count : 0
Damaged sector count : 0

Track 04
Filename : /Rips/Travis & Fripp - Between The Silence (CD 3: All Saints Church, Pittville, Cheltenham - 16 July 2010) (2018) [MP3 V0]/04 Dark Clouds.mp3
/Rips/Travis & Fripp - Between The Silence (CD 3: All Saints Church, Pittville, Cheltenham - 16 July 2010) (2018) [MP3 320]/04 Dark Clouds.mp3
/Rips/Travis & Fripp - Between The Silence (CD 3: All Saints Church, Pittville, Cheltenham - 16 July 2010) (2018) [FLAC]/04 Dark Clouds.flac

Track gain : -2.61 dB
Peak : 0.947784
CRC32 hash (test run) : 09E05864
CRC32 hash : 09E05864
CRC32 hash (skip zero) : 9EF427B9
AccurateRip v1 signature : 80BA28A2
AccurateRip v2 signature : 30D2BB65 (DD9F9240 w/correction)
->Accurately ripped with different offset (v2, confidence 7/7, offset -96)
Statistics
Read error : 0
Jitter error (maybe fixed) : 0
Retry sector count : 0
Damaged sector count : 0

Track 05
Filename : /Rips/Travis & Fripp - Between The Silence (CD 3: All Saints Church, Pittville, Cheltenham - 16 July 2010) (2018) [MP3 V0]/05 Blue Calm.mp3
/Rips/Travis & Fripp - Between The Silence (CD 3: All Saints Church, Pittville, Cheltenham - 16 July 2010) (2018) [MP3 320]/05 Blue Calm.mp3
/Rips/Travis & Fripp - Between The Silence (CD 3: All Saints Church, Pittville, Cheltenham - 16 July 2010) (2018) [FLAC]/05 Blue Calm.flac

Track gain : -3.43 dB
Peak : 0.999939
CRC32 hash (test run) : 29D070A8
CRC32 hash : 29D070A8
CRC32 hash (skip zero) : 0BBDEAA5
AccurateRip v1 signature : 260D2190
AccurateRip v2 signature : 007C539C (0AFD9FD6 w/correction)
->Accurately ripped with different offset (v2, confidence 7/7, offset -96)
Statistics
Read error : 0
Jitter error (maybe fixed) : 0
Retry sector count : 0
Damaged sector count : 0

Track 06
Filename : /Rips/Travis & Fripp - Between The Silence (CD 3: All Saints Church, Pittville, Cheltenham - 16 July 2010) (2018) [MP3 V0]/06 When The Rains Fall.mp3
/Rips/Travis & Fripp - Between The Silence (CD 3: All Saints Church, Pittville, Cheltenham - 16 July 2010) (2018) [MP3 320]/06 When The Rains Fall.mp3
/Rips/Travis & Fripp - Between The Silence (CD 3: All Saints Church, Pittville, Cheltenham - 16 July 2010) (2018) [FLAC]/06 When The Rains Fall.flac

Track gain : -6.33 dB
Peak : 0.999969
CRC32 hash (test run) : 3F7D9398
CRC32 hash : 3F7D9398
CRC32 hash (skip zero) : 336319B0
AccurateRip v1 signature : FD8D037A
AccurateRip v2 signature : 4575BB05 (C5E6F48A w/correction)
->Accurately ripped with different offset (v2, confidence 7/7, offset -96)
Statistics
Read error : 0
Jitter error (maybe fixed) : 0
Retry sector count : 0
Damaged sector count : 0

Track 07
Filename : /Rips/Travis & Fripp - Between The Silence (CD 3: All Saints Church, Pittville, Cheltenham - 16 July 2010) (2018) [MP3 V0]/07 Duet For The End Of Time.mp3
/Rips/Travis & Fripp - Between The Silence (CD 3: All Saints Church, Pittville, Cheltenham - 16 July 2010) (2018) [MP3 320]/07 Duet For The End Of Time.mp3
/Rips/Travis & Fripp - Between The Silence (CD 3: All Saints Church, Pittville, Cheltenham - 16 July 2010) (2018) [FLAC]/07 Duet For The End Of Time.flac

Track gain : -5.55 dB
Peak : 0.999969
CRC32 hash (test run) : BBAF8611
CRC32 hash : BBAF8611
CRC32 hash (skip zero) : C561C0F2
AccurateRip v1 signature : 96672C21
AccurateRip v2 signature : 676CE617 (17E1EF37 w/correction)
->Accurately ripped with different offset (v2, confidence 7/7, offset -96)
Statistics
Read error : 0
Jitter error (maybe fixed) : 0
Retry sector count : 0
Damaged sector count : 0

No errors occurred

End of status report

––-BEGIN XLD SIGNATURE––-
o8PgnAf_Tl_x0TLK1xyLmOYLXHWpGjoDd5WbTsf_LLG.P.SI2qZxAMMKR6WG9XFb0T3m9WMEPHvqUACEjxJJq.fNz4rH2w1pfni4tgK
––-END XLD SIGNATURE––-

Thanks to the Original ripper !