Tags
Language
Tags
May 2024
Su Mo Tu We Th Fr Sa
28 29 30 1 2 3 4
5 6 7 8 9 10 11
12 13 14 15 16 17 18
19 20 21 22 23 24 25
26 27 28 29 30 31 1

VA - British Invasion (2017)

Posted By: delpotro
VA - British Invasion (2017)

VA - British Invasion (2017)
EAC Rip | FLAC (tracks+log+.cue) - 1,17 Gb | MP3 CBR 320 kbps - 478 Mb | 03:28:49
Psychedelic Rock, Pop Rock, Mod, Beat | Label: Universal Music

The British Invasion was a cultural phenomenon of the mid-1960s, when rock and pop music acts from the United Kingdom and other aspects of British culture became popular in the United States and significant to the rising "counterculture" on both sides of the Atlantic Ocean. Pop and rock groups such as the Beatles, the Rolling Stones, the Who, the Kinks, the Dave Clark Five, Herman's Hermits, the Hollies, the Swinging Blue Jeans, the Animals, Gerry and the Pacemakers, and the Searchers were at the forefront of the "invasion".
Tracklist:
CD1
1. Animals - It's My Life (3.07)
2. Barry Ryan - Eloise (5.47)
3. Crispian St Peters - You Were On My Mind (2.44)
4. Dave Dee & Dozy & Beaky & Mick & Tich - The Legend Of Xanadu (3.37)
5. David McWilliams - Days Of Pearly Spencer (2.35)
6. Don Partridge - Rosie (2.17)
7. Dusty Springfield - You Don't Have To Say You Love Me (2.50)
8. Fortunes - You've Got Your Troubles (3.23)
9. Georgie Fame - The Ballad Of Bonnie And Clyde (3.08)
10. Herd - From The Underworld (3.16)
11. Los Bravos - Bring A Little Lovin' (2.22)
12. Manfred Mann - Do Wah Diddy Diddy (2.24)
13. Marbles - The Walls Fell Down (2.56)
14. Marianne Faithfull - Summer Nights (1.49)
15. Moody Blues - Tuesday Afternoon (Forever Afternoon) (4.48)
16. Peter & Gordon - World Without Love (2.41)
17. Petula Clark - Downtown (3.06)
18. Dave Berry - This Strange Effect (2.30)
19. Procol Harum - Homburg (3.55)
20. Small Faces - Tin Soldier (3.23)
21. Spencer Davis Group - Somebody Help Me (2.03)
22. Troggs - I Can't Control Myself (3.06)
23. Donovan - Turquoise (3.30)
24. Yardbirds - For Your Love (2.28)

CD2
1. Aphrodite's Child - It's Five O'Clock (3.30)
2. Herman's Hermits - Mrs Brown You've Got A Lovely Daughter (2.48)
3. Lovin' Spoonful - Rain On The Roof (2.12)
4. Dave Berry - Mama (2.53)
5. David McWilliams - Can I Get There By Candlelight (3.12)
6. Donovan - Mellow Yellow (3.38)
7. Dusty Springfield - Wishin' And Hopin' (2.56)
8. Fleetwood Mac - Albatross (3.10)
9. Fortunes - Seasons In The Sun (3.43)
10. Small Faces - My Mind's Eye (2.04)
11. Billy J Kramer & The Dakotas - Do You Want To Know A Secret (2.04)
12. Manfred Mann - Pretty Flamingo (2.34)
13. Marianne Faithfull - Come And Stay With Me (2.26)
14. Marmalade - Reflections Of My Life (4.13)
15. Moody Blues - Question (5.46)
16. Dave Dee & Dozy & Beaky & Mick & Tich - Bend It (2.33)
17. Move - Fire Brigade (2.24)
18. Raymond Froggatt - Callow-La-Vita (2.37)
19. Searchers - Goodbye My Love (3.00)
20. Hollies - I'm Alive (2.26)
21. Spencer Davis Group - Keep On Running (2.44)
22. Swinging Blue Jeans - Hippy Hippy Shake (1.44)
23. Tom Jones - It's Not Unusual (2.02)
24. Troggs - Love Is All Around (2.58)

CD3
1. Animals - Don't Let Me Be Misunderstood (2.28)
2. Crispian St Peters - The Pied Piper (2.33)
3. Troggs - With A Girl Like You (2.08)
4. Dave Dee & Dozy & Beaky & Mick & Tich - Zabadak (3.57)
5. Dusty Springfield - I Only Want To Be With You (2.37)
6. Fortunes - Here It Comes Again (3.05)
7. Gerry & The Pacemakers - Don't Let The Sun Catch You Crying (2.37)
8. Honeycombs - Have I The Right (2.58)
9. Lovin' Spoonful - Darling Be Home Soon (3.36)
10. Marbles - Only One Woman (2.42)
11. Moody Blues - Voices In The Sky (3.30)
12. Georgie Fame - Yeh Yeh (2.46)
13. Small Faces - Itchycoo Park (2.46)
14. Silkie - You've Got To Hide Your Love Away (2.11)
15. Sandie Shaw - Long Live Love (2.40)
16. Spencer Davis Group - When I Come Home (1.57)
17. Swinging Blue Jeans - You're No Good (2.17)
18. Tornados - Telstar (3.21)
19. Tremeloes - Silence Is Golden (3.09)
20. Dave Berry - I'm Gonna Take You There (2.28)
21. Unit 4 Plus 2 - Concrete And Clay (2.13)
22. Mindbenders - A Groovy Kind Of Love (2.01)
23. Web & John L Watson - Baby Won't You Leave Me Alone (2.31)
24. Traffic - Hole In My Shoe (3.01)

Exact Audio Copy V1.3 from 2. September 2016

EAC extraction logfile from 24. July 2017, 19:23

Various Artists / British Invasion (2017) CD1

Used drive : HL-DT-STDVDRAM GP57EW40 Adapter: 1 ID: 0

Read mode : Secure
Utilize accurate stream : Yes
Defeat audio cache : Yes
Make use of C2 pointers : No

Read offset correction : 6
Overread into Lead-In and Lead-Out : No
Fill up missing offset samples with silence : Yes
Delete leading and trailing silent blocks : No
Null samples used in CRC calculations : Yes
Used interface : Native Win32 interface for Win NT & 2000
Gap handling : Appended to previous track

Used output format : User Defined Encoder
Selected bitrate : 1024 kBit/s
Quality : High
Add ID3 tag : No
Command line compressor : C:\Program Files (x86)\Exact Audio Copy\Flac\flac.exe
Additional command line options : -8 -V -T "ARTIST=%artist%" -T "TITLE=%title%" -T "ALBUM=%albumtitle%" -T "DATE=%year%" -T "TRACKNUMBER=%tracknr%" -T "GENRE=%genre%" -T "PERFORMER=%albuminterpret%" -T "COMPOSER=%composer%" %haslyrics%–tag-from-file=LYRICS="%lyricsfile%"%haslyrics% -T "ALBUMARTIST=%albumartist%" -T "DISCNUMBER=%cdnumber%" -T "TOTALDISCS=%totalcds%" -T "TOTALTRACKS=%numtracks%" -T "COMMENT=%comment%" %source% -o %dest%


TOC of the extracted CD

Track | Start | Length | Start sector | End sector
––––––––––––––––––––––––––––-
1 | 0:00.00 | 3:07.00 | 0 | 14024
2 | 3:07.00 | 5:46.63 | 14025 | 40037
3 | 8:53.63 | 2:44.00 | 40038 | 52337
4 | 11:37.63 | 3:37.32 | 52338 | 68644
5 | 15:15.20 | 2:34.59 | 68645 | 80253
6 | 17:50.04 | 2:16.59 | 80254 | 90512
7 | 20:06.63 | 2:50.18 | 90513 | 103280
8 | 22:57.06 | 3:23.22 | 103281 | 118527
9 | 26:20.28 | 3:08.29 | 118528 | 132656
10 | 29:28.57 | 3:16.11 | 132657 | 147367
11 | 32:44.68 | 2:21.54 | 147368 | 157996
12 | 35:06.47 | 2:23.44 | 157997 | 168765
13 | 37:30.16 | 2:56.07 | 168766 | 181972
14 | 40:26.23 | 1:49.24 | 181973 | 190171
15 | 42:15.47 | 4:48.26 | 190172 | 211797
16 | 47:03.73 | 2:40.55 | 211798 | 223852
17 | 49:44.53 | 3:05.54 | 223853 | 237781
18 | 52:50.32 | 2:29.69 | 237782 | 249025
19 | 55:20.26 | 3:55.07 | 249026 | 266657
20 | 59:15.33 | 3:23.19 | 266658 | 281901
21 | 62:38.52 | 2:02.63 | 281902 | 291114
22 | 64:41.40 | 3:05.46 | 291115 | 305035
23 | 67:47.11 | 3:29.41 | 305036 | 320751
24 | 71:16.52 | 2:28.00 | 320752 | 331851


Track 1

Filename K:\EAC\01 - Animals - It's My Life [1965].wav

Pre-gap length 0:00:02.00

Peak level 94.9 %
Extraction speed 1.2 X
Track quality 100.0 %
Test CRC C85392B6
Copy CRC C85392B6
Track not present in AccurateRip database
Copy OK

Track 2

Filename K:\EAC\02 - Barry Ryan - Eloise [1968].wav

Pre-gap length 0:00:02.00

Peak level 94.8 %
Extraction speed 1.5 X
Track quality 100.0 %
Test CRC 2A35F04D
Copy CRC 2A35F04D
Track not present in AccurateRip database
Copy OK

Track 3

Filename K:\EAC\03 - Crispian St Peters - You Were On My Mind [1965].wav

Pre-gap length 0:00:02.00

Peak level 100.0 %
Extraction speed 1.2 X
Track quality 99.9 %
Test CRC 20323F88
Copy CRC 20323F88
Track not present in AccurateRip database
Copy OK

Track 4

Filename K:\EAC\04 - Dave Dee & Dozy & Beaky & Mick & Tich - The Legend Of Xanadu [1968].wav

Pre-gap length 0:00:02.00

Peak level 99.1 %
Extraction speed 1.4 X
Track quality 99.9 %
Test CRC 744ED7CD
Copy CRC 744ED7CD
Track not present in AccurateRip database
Copy OK

Track 5

Filename K:\EAC\05 - David McWilliams - Days Of Pearly Spencer [1967].wav

Pre-gap length 0:00:02.00

Peak level 96.8 %
Extraction speed 1.6 X
Track quality 100.0 %
Test CRC F716E669
Copy CRC F716E669
Track not present in AccurateRip database
Copy OK

Track 6

Filename K:\EAC\06 - Don Partridge - Rosie [1967].wav

Pre-gap length 0:00:02.00

Peak level 100.0 %
Extraction speed 1.3 X
Track quality 99.9 %
Test CRC D582C0FC
Copy CRC D582C0FC
Track not present in AccurateRip database
Copy OK

Track 7

Filename K:\EAC\07 - Dusty Springfield - You Don't Have To Say You Love Me [1966].wav

Pre-gap length 0:00:02.00

Peak level 79.9 %
Extraction speed 1.7 X
Track quality 100.0 %
Test CRC 1693D598
Copy CRC 1693D598
Track not present in AccurateRip database
Copy OK

Track 8

Filename K:\EAC\08 - Fortunes - You've Got Your Troubles [1965].wav

Pre-gap length 0:00:02.00

Peak level 99.9 %
Extraction speed 1.8 X
Track quality 100.0 %
Test CRC 89AB28A5
Copy CRC 89AB28A5
Track not present in AccurateRip database
Copy OK

Track 9

Filename K:\EAC\09 - Georgie Fame - The Ballad Of Bonnie And Clyde [1967].wav

Pre-gap length 0:00:02.00

Peak level 100.0 %
Extraction speed 1.9 X
Track quality 100.0 %
Test CRC D4A6CC9C
Copy CRC D4A6CC9C
Track not present in AccurateRip database
Copy OK

Track 10

Filename K:\EAC\10 - Herd - From The Underworld [1967].wav

Pre-gap length 0:00:02.00

Peak level 95.8 %
Extraction speed 1.9 X
Track quality 100.0 %
Test CRC 8C18D514
Copy CRC 8C18D514
Track not present in AccurateRip database
Copy OK

Track 11

Filename K:\EAC\11 - Los Bravos - Bring A Little Lovin' [1966].wav

Pre-gap length 0:00:02.00

Peak level 96.7 %
Extraction speed 1.6 X
Track quality 99.9 %
Test CRC F05C145C
Copy CRC F05C145C
Track not present in AccurateRip database
Copy OK

Track 12

Filename K:\EAC\12 - Manfred Mann - Do Wah Diddy Diddy [1964].wav

Pre-gap length 0:00:02.00

Peak level 93.2 %
Extraction speed 1.9 X
Track quality 100.0 %
Test CRC 3F23E7F7
Copy CRC 3F23E7F7
Track not present in AccurateRip database
Copy OK

Track 13

Filename K:\EAC\13 - Marbles - The Walls Fell Down [1969].wav

Pre-gap length 0:00:02.00

Peak level 90.5 %
Extraction speed 2.1 X
Track quality 100.0 %
Test CRC DD74678B
Copy CRC DD74678B
Track not present in AccurateRip database
Copy OK

Track 14

Filename K:\EAC\14 - Marianne Faithfull - Summer Nights [1965].wav

Pre-gap length 0:00:02.00

Peak level 100.0 %
Extraction speed 1.9 X
Track quality 100.0 %
Test CRC B3757D99
Copy CRC B3757D99
Track not present in AccurateRip database
Copy OK

Track 15

Filename K:\EAC\15 - Moody Blues - Tuesday Afternoon (Forever Afternoon) [1967].wav

Pre-gap length 0:00:02.00

Peak level 99.7 %
Extraction speed 2.3 X
Track quality 100.0 %
Test CRC 829A9F06
Copy CRC 829A9F06
Track not present in AccurateRip database
Copy OK

Track 16

Filename K:\EAC\16 - Peter & Gordon - World Without Love [1964].wav

Pre-gap length 0:00:02.00

Peak level 99.9 %
Extraction speed 2.2 X
Track quality 100.0 %
Test CRC 60372971
Copy CRC 60372971
Track not present in AccurateRip database
Copy OK

Track 17

Filename K:\EAC\17 - Petula Clark - Downtown [1964].wav

Pre-gap length 0:00:02.00

Peak level 98.8 %
Extraction speed 2.3 X
Track quality 100.0 %
Test CRC 637DB0D7
Copy CRC 637DB0D7
Track not present in AccurateRip database
Copy OK

Track 18

Filename K:\EAC\18 - Dave Berry - This Strange Effect [1965].wav

Pre-gap length 0:00:02.00

Peak level 93.6 %
Extraction speed 2.2 X
Track quality 100.0 %
Test CRC 53D6B3C4
Copy CRC 53D6B3C4
Track not present in AccurateRip database
Copy OK

Track 19

Filename K:\EAC\19 - Procol Harum - Homburg [1967].wav

Pre-gap length 0:00:02.00

Peak level 99.7 %
Extraction speed 2.5 X
Track quality 100.0 %
Test CRC 3162C326
Copy CRC 3162C326
Track not present in AccurateRip database
Copy OK

Track 20

Filename K:\EAC\20 - Small Faces - Tin Soldier [1967].wav

Pre-gap length 0:00:02.00

Peak level 100.0 %
Extraction speed 2.5 X
Track quality 100.0 %
Test CRC 334CA53D
Copy CRC 334CA53D
Track not present in AccurateRip database
Copy OK

Track 21

Filename K:\EAC\21 - Spencer Davis Group - Somebody Help Me [1966].wav

Pre-gap length 0:00:02.00

Peak level 94.8 %
Extraction speed 1.9 X
Track quality 99.9 %
Test CRC 92EA3434
Copy CRC 92EA3434
Track not present in AccurateRip database
Copy OK

Track 22

Filename K:\EAC\22 - Troggs - I Can't Control Myself [1966].wav

Pre-gap length 0:00:02.00

Peak level 99.7 %
Extraction speed 2.2 X
Track quality 99.9 %
Test CRC 9F90B12B
Copy CRC 9F90B12B
Track not present in AccurateRip database
Copy OK

Track 23

Filename K:\EAC\23 - Donovan - Turquoise [1965].wav

Pre-gap length 0:00:02.00

Peak level 89.2 %
Extraction speed 2.6 X
Track quality 100.0 %
Test CRC C0E39A15
Copy CRC C0E39A15
Track not present in AccurateRip database
Copy OK

Track 24

Filename K:\EAC\24 - Yardbirds - For Your Love [1965].wav

Pre-gap length 0:00:02.00

Peak level 94.3 %
Extraction speed 2.5 X
Track quality 100.0 %
Test CRC 0B8992B5
Copy CRC 0B8992B5
Track not present in AccurateRip database
Copy OK


None of the tracks are present in the AccurateRip database

No errors occurred

End of status report

–– CUETools DB Plugin V2.1.6

[CTDB TOCID: njD0wHTB8up7GOORvku0Spb_.p4-] disk not present in database
Submit result: njD0wHTB8up7GOORvku0Spb_.p4- has been uploaded


==== Log checksum 7E3D4195E1A3CC86C19AD8FF1CDBDE9A825EA419B95092B25FAB208EA1519AF4 ====
Exact Audio Copy V1.3 from 2. September 2016

EAC extraction logfile from 24. July 2017, 20:56

Various Artists / British Invasion (2017) CD2

Used drive : HL-DT-STDVDRAM GP57EW40 Adapter: 1 ID: 0

Read mode : Secure
Utilize accurate stream : Yes
Defeat audio cache : Yes
Make use of C2 pointers : No

Read offset correction : 6
Overread into Lead-In and Lead-Out : No
Fill up missing offset samples with silence : Yes
Delete leading and trailing silent blocks : No
Null samples used in CRC calculations : Yes
Used interface : Native Win32 interface for Win NT & 2000
Gap handling : Appended to previous track

Used output format : User Defined Encoder
Selected bitrate : 1024 kBit/s
Quality : High
Add ID3 tag : No
Command line compressor : C:\Program Files (x86)\Exact Audio Copy\Flac\flac.exe
Additional command line options : -8 -V -T "ARTIST=%artist%" -T "TITLE=%title%" -T "ALBUM=%albumtitle%" -T "DATE=%year%" -T "TRACKNUMBER=%tracknr%" -T "GENRE=%genre%" -T "PERFORMER=%albuminterpret%" -T "COMPOSER=%composer%" %haslyrics%–tag-from-file=LYRICS="%lyricsfile%"%haslyrics% -T "ALBUMARTIST=%albumartist%" -T "DISCNUMBER=%cdnumber%" -T "TOTALDISCS=%totalcds%" -T "TOTALTRACKS=%numtracks%" -T "COMMENT=%comment%" %source% -o %dest%


TOC of the extracted CD

Track | Start | Length | Start sector | End sector
––––––––––––––––––––––––––––-
1 | 0:00.00 | 3:30.11 | 0 | 15760
2 | 3:30.11 | 2:47.59 | 15761 | 28344
3 | 6:17.70 | 2:12.16 | 28345 | 38260
4 | 8:30.11 | 2:53.08 | 38261 | 51243
5 | 11:23.19 | 3:12.00 | 51244 | 65643
6 | 14:35.19 | 3:37.63 | 65644 | 81981
7 | 18:13.07 | 2:55.61 | 81982 | 95167
8 | 21:08.68 | 3:10.36 | 95168 | 109453
9 | 24:19.29 | 3:42.42 | 109454 | 126145
10 | 28:01.71 | 2:03.56 | 126146 | 135426
11 | 30:05.52 | 2:03.66 | 135427 | 144717
12 | 32:09.43 | 2:34.05 | 144718 | 156272
13 | 34:43.48 | 2:25.54 | 156273 | 167201
14 | 37:09.27 | 4:12.56 | 167202 | 186157
15 | 41:22.08 | 5:46.09 | 186158 | 212116
16 | 47:08.17 | 2:32.71 | 212117 | 223587
17 | 49:41.13 | 2:23.42 | 223588 | 234354
18 | 52:04.55 | 2:36.64 | 234355 | 246118
19 | 54:41.44 | 2:59.73 | 246119 | 259616
20 | 57:41.42 | 2:26.13 | 259617 | 270579
21 | 60:07.55 | 2:44.22 | 270580 | 282901
22 | 62:52.02 | 1:44.34 | 282902 | 290735
23 | 64:36.36 | 2:01.61 | 290736 | 299871
24 | 66:38.22 | 2:57.50 | 299872 | 313196


Track 1

Filename K:\EAC\01 - Aphrodite's Child - It's Five O'Clock [1969].wav

Pre-gap length 0:00:02.00

Peak level 99.7 %
Extraction speed 1.1 X
Track quality 99.9 %
Test CRC 81ED577F
Copy CRC 81ED577F
Track not present in AccurateRip database
Copy OK

Track 2

Filename K:\EAC\02 - Herman's Hermits - Mrs Brown You've Got A Lovely Daughter [1965].wav

Pre-gap length 0:00:02.00

Peak level 99.0 %
Extraction speed 1.3 X
Track quality 100.0 %
Test CRC AB6EA817
Copy CRC AB6EA817
Track not present in AccurateRip database
Copy OK

Track 3

Filename K:\EAC\03 - Lovin' Spoonful - Rain On The Roof [1966].wav

Pre-gap length 0:00:02.00

Peak level 100.0 %
Extraction speed 1.3 X
Track quality 100.0 %
Test CRC E7811DAE
Copy CRC E7811DAE
Track not present in AccurateRip database
Copy OK

Track 4

Filename K:\EAC\04 - Dave Berry - Mama [1966].wav

Pre-gap length 0:00:02.00

Peak level 99.9 %
Extraction speed 1.4 X
Track quality 100.0 %
Test CRC AC02F86A
Copy CRC AC02F86A
Track not present in AccurateRip database
Copy OK

Track 5

Filename K:\EAC\05 - David McWilliams - Can I Get There By Candlelight [1967].wav

Pre-gap length 0:00:02.00

Peak level 100.0 %
Extraction speed 1.6 X
Track quality 100.0 %
Test CRC 9CEC1016
Copy CRC 9CEC1016
Track not present in AccurateRip database
Copy OK

Track 6

Filename K:\EAC\06 - Donovan - Mellow Yellow [1966].wav

Pre-gap length 0:00:02.00

Peak level 99.8 %
Extraction speed 1.7 X
Track quality 100.0 %
Test CRC F1FF083C
Copy CRC F1FF083C
Track not present in AccurateRip database
Copy OK

Track 7

Filename K:\EAC\07 - Dusty Springfield - Wishin' And Hopin' [1964].wav

Pre-gap length 0:00:02.00

Peak level 95.0 %
Extraction speed 1.7 X
Track quality 100.0 %
Test CRC 164B2F08
Copy CRC 164B2F08
Track not present in AccurateRip database
Copy OK

Track 8

Filename K:\EAC\08 - Fleetwood Mac - Albatross [1968].wav

Pre-gap length 0:00:02.00

Peak level 100.0 %
Extraction speed 1.8 X
Track quality 100.0 %
Test CRC E7CF1B98
Copy CRC E7CF1B98
Track not present in AccurateRip database
Copy OK

Track 9

Filename K:\EAC\09 - Fortunes - Seasons In The Sun [1969].wav

Pre-gap length 0:00:02.00

Peak level 99.9 %
Extraction speed 1.9 X
Track quality 100.0 %
Test CRC 5DEB760A
Copy CRC 5DEB760A
Track not present in AccurateRip database
Copy OK

Track 10

Filename K:\EAC\10 - Small Faces - My Mind's Eye [1966].wav

Pre-gap length 0:00:02.00

Peak level 92.1 %
Extraction speed 1.7 X
Track quality 100.0 %
Test CRC BD348331
Copy CRC BD348331
Track not present in AccurateRip database
Copy OK

Track 11

Filename K:\EAC\11 - Billy J Kramer & The Dakotas - Do You Want To Know A Secret [1963].wav

Pre-gap length 0:00:02.00

Peak level 95.6 %
Extraction speed 1.8 X
Track quality 100.0 %
Test CRC 05635D29
Copy CRC 05635D29
Track not present in AccurateRip database
Copy OK

Track 12

Filename K:\EAC\12 - Manfred Mann - Pretty Flamingo [1966].wav

Pre-gap length 0:00:02.00

Peak level 86.0 %
Extraction speed 1.9 X
Track quality 100.0 %
Test CRC 3EBFC037
Copy CRC 3EBFC037
Track not present in AccurateRip database
Copy OK

Track 13

Filename K:\EAC\13 - Marianne Faithfull - Come And Stay With Me [1965].wav

Pre-gap length 0:00:02.00

Peak level 100.0 %
Extraction speed 1.6 X
Track quality 99.9 %
Test CRC 1B7AE3DC
Copy CRC 1B7AE3DC
Track not present in AccurateRip database
Copy OK

Track 14

Filename K:\EAC\14 - Marmalade - Reflections Of My Life [1969].wav

Pre-gap length 0:00:02.00

Peak level 99.9 %
Extraction speed 2.2 X
Track quality 100.0 %
Test CRC 4AC2493D
Copy CRC 4AC2493D
Track not present in AccurateRip database
Copy OK

Track 15

Filename K:\EAC\15 - Moody Blues - Question [1970].wav

Pre-gap length 0:00:02.00

Peak level 89.1 %
Extraction speed 2.3 X
Track quality 100.0 %
Test CRC A17001EC
Copy CRC A17001EC
Track not present in AccurateRip database
Copy OK

Track 16

Filename K:\EAC\16 - Dave Dee & Dozy & Beaky & Mick & Tich - Bend It [1966].wav

Pre-gap length 0:00:02.00

Peak level 96.8 %
Extraction speed 2.1 X
Track quality 100.0 %
Test CRC 09BC6E50
Copy CRC 09BC6E50
Track not present in AccurateRip database
Copy OK

Track 17

Filename K:\EAC\17 - Move - Fire Brigade [1968].wav

Pre-gap length 0:00:02.00

Peak level 94.0 %
Extraction speed 2.2 X
Track quality 100.0 %
Test CRC A2881F95
Copy CRC A2881F95
Track not present in AccurateRip database
Copy OK

Track 18

Filename K:\EAC\18 - Raymond Froggatt - Callow-La-Vita [1968].wav

Pre-gap length 0:00:02.00

Peak level 89.6 %
Extraction speed 2.2 X
Track quality 100.0 %
Test CRC 989AA946
Copy CRC 989AA946
Track not present in AccurateRip database
Copy OK

Track 19

Filename K:\EAC\19 - Searchers - Goodbye My Love [1964].wav

Pre-gap length 0:00:02.00

Peak level 86.2 %
Extraction speed 2.3 X
Track quality 100.0 %
Test CRC 92998C26
Copy CRC 92998C26
Track not present in AccurateRip database
Copy OK

Track 20

Filename K:\EAC\20 - Hollies - I'm Alive [1965].wav

Pre-gap length 0:00:02.00

Peak level 94.0 %
Extraction speed 2.3 X
Track quality 100.0 %
Test CRC D7815023
Copy CRC D7815023
Track not present in AccurateRip database
Copy OK

Track 21

Filename K:\EAC\21 - Spencer Davis Group - Keep On Running [1965].wav

Pre-gap length 0:00:02.00

Peak level 98.9 %
Extraction speed 2.4 X
Track quality 100.0 %
Test CRC 02CCC9BB
Copy CRC 02CCC9BB
Track not present in AccurateRip database
Copy OK

Track 22

Filename K:\EAC\22 - Swinging Blue Jeans - Hippy Hippy Shake [1963].wav

Pre-gap length 0:00:02.00

Peak level 92.3 %
Extraction speed 2.2 X
Track quality 100.0 %
Test CRC AD1E9E99
Copy CRC AD1E9E99
Track not present in AccurateRip database
Copy OK

Track 23

Filename K:\EAC\23 - Tom Jones - It's Not Unusual [1965].wav

Pre-gap length 0:00:02.00

Peak level 89.1 %
Extraction speed 1.9 X
Track quality 99.9 %
Test CRC 085FD739
Copy CRC 085FD739
Track not present in AccurateRip database
Copy OK

Track 24

Filename K:\EAC\24 - Troggs - Love Is All Around [1967].wav

Pre-gap length 0:00:02.00

Peak level 99.9 %
Extraction speed 2.5 X
Track quality 100.0 %
Test CRC 0553716D
Copy CRC 0553716D
Track not present in AccurateRip database
Copy OK


None of the tracks are present in the AccurateRip database

No errors occurred

End of status report

–– CUETools DB Plugin V2.1.6

[CTDB TOCID: 5Jta3RBcxA8Y9RXUU8YIo7v50jM-] disk not present in database
Submit result: 5Jta3RBcxA8Y9RXUU8YIo7v50jM- has been uploaded


==== Log checksum B7B0456F4A80609DED0E044A850A6CAA74454125AB2490E75B4D97EBD3015D64 ====
Exact Audio Copy V1.3 from 2. September 2016

EAC extraction logfile from 24. July 2017, 22:14

Various Artists / British Invasion (2017) CD3

Used drive : HL-DT-STDVDRAM GP57EW40 Adapter: 1 ID: 0

Read mode : Secure
Utilize accurate stream : Yes
Defeat audio cache : Yes
Make use of C2 pointers : No

Read offset correction : 6
Overread into Lead-In and Lead-Out : No
Fill up missing offset samples with silence : Yes
Delete leading and trailing silent blocks : No
Null samples used in CRC calculations : Yes
Used interface : Native Win32 interface for Win NT & 2000
Gap handling : Appended to previous track

Used output format : User Defined Encoder
Selected bitrate : 1024 kBit/s
Quality : High
Add ID3 tag : No
Command line compressor : C:\Program Files (x86)\Exact Audio Copy\Flac\flac.exe
Additional command line options : -8 -V -T "ARTIST=%artist%" -T "TITLE=%title%" -T "ALBUM=%albumtitle%" -T "DATE=%year%" -T "TRACKNUMBER=%tracknr%" -T "GENRE=%genre%" -T "PERFORMER=%albuminterpret%" -T "COMPOSER=%composer%" %haslyrics%–tag-from-file=LYRICS="%lyricsfile%"%haslyrics% -T "ALBUMARTIST=%albumartist%" -T "DISCNUMBER=%cdnumber%" -T "TOTALDISCS=%totalcds%" -T "TOTALTRACKS=%numtracks%" -T "COMMENT=%comment%" %source% -o %dest%


TOC of the extracted CD

Track | Start | Length | Start sector | End sector
––––––––––––––––––––––––––––-
1 | 0:00.00 | 2:27.48 | 0 | 11072
2 | 2:27.48 | 2:32.68 | 11073 | 22540
3 | 5:00.41 | 2:07.66 | 22541 | 32131
4 | 7:08.32 | 3:57.22 | 32132 | 49928
5 | 11:05.54 | 2:36.44 | 49929 | 61672
6 | 13:42.23 | 3:04.45 | 61673 | 75517
7 | 16:46.68 | 2:37.07 | 75518 | 87299
8 | 19:24.00 | 2:57.73 | 87300 | 100647
9 | 22:21.73 | 3:35.51 | 100648 | 116823
10 | 25:57.49 | 2:41.45 | 116824 | 128943
11 | 28:39.19 | 3:29.58 | 128944 | 144676
12 | 32:09.02 | 2:45.52 | 144677 | 157103
13 | 34:54.54 | 2:46.10 | 157104 | 169563
14 | 37:40.64 | 2:11.01 | 169564 | 179389
15 | 39:51.65 | 2:39.64 | 179390 | 191378
16 | 42:31.54 | 1:56.63 | 191379 | 200141
17 | 44:28.42 | 2:17.14 | 200142 | 210430
18 | 46:45.56 | 3:20.44 | 210431 | 225474
19 | 50:06.25 | 3:08.56 | 225475 | 239630
20 | 53:15.06 | 2:27.67 | 239631 | 250722
21 | 55:42.73 | 2:13.04 | 250723 | 260701
22 | 57:56.02 | 2:01.14 | 260702 | 269790
23 | 59:57.16 | 2:30.54 | 269791 | 281094
24 | 62:27.70 | 3:00.40 | 281095 | 294634


Track 1

Filename K:\EAC\01 - Animals - Don't Let Me Be Misunderstood [1964].wav

Pre-gap length 0:00:02.00

Peak level 100.0 %
Extraction speed 1.0 X
Track quality 100.0 %
Test CRC B5C64E54
Copy CRC B5C64E54
Track not present in AccurateRip database
Copy OK

Track 2

Filename K:\EAC\02 - Crispian St Peters - The Pied Piper [1966].wav

Pre-gap length 0:00:02.00

Peak level 100.0 %
Extraction speed 1.2 X
Track quality 100.0 %
Test CRC 8F61531A
Copy CRC 8F61531A
Track not present in AccurateRip database
Copy OK

Track 3

Filename K:\EAC\03 - Troggs - With A Girl Like You [1966].wav

Pre-gap length 0:00:02.00

Peak level 100.0 %
Extraction speed 1.2 X
Track quality 100.0 %
Test CRC 1B671A1D
Copy CRC 1B671A1D
Track not present in AccurateRip database
Copy OK

Track 4

Filename K:\EAC\04 - Dave Dee & Dozy & Beaky & Mick & Tich - Zabadak [1967].wav

Pre-gap length 0:00:02.00

Peak level 100.0 %
Extraction speed 1.4 X
Track quality 100.0 %
Test CRC 96BA774B
Copy CRC 96BA774B
Track not present in AccurateRip database
Copy OK

Track 5

Filename K:\EAC\05 - Dusty Springfield - I Only Want To Be With You [1963].wav

Pre-gap length 0:00:02.00

Peak level 100.0 %
Extraction speed 1.4 X
Track quality 100.0 %
Test CRC 08C2F95B
Copy CRC 08C2F95B
Track not present in AccurateRip database
Copy OK

Track 6

Filename K:\EAC\06 - Fortunes - Here It Comes Again [1965].wav

Pre-gap length 0:00:02.00

Peak level 100.0 %
Extraction speed 1.3 X
Track quality 99.9 %
Test CRC 868A8AB4
Copy CRC 868A8AB4
Track not present in AccurateRip database
Copy OK

Track 7

Filename K:\EAC\07 - Gerry & The Pacemakers - Don't Let The Sun Catch You Crying [1964].wav

Pre-gap length 0:00:02.00

Peak level 100.0 %
Extraction speed 1.5 X
Track quality 100.0 %
Test CRC DF1CE88D
Copy CRC DF1CE88D
Track not present in AccurateRip database
Copy OK

Track 8

Filename K:\EAC\08 - Honeycombs - Have I The Right [1964].wav

Pre-gap length 0:00:02.00

Peak level 100.0 %
Extraction speed 1.4 X
Track quality 99.9 %
Test CRC 790A92BE
Copy CRC 790A92BE
Track not present in AccurateRip database
Copy OK

Track 9

Filename K:\EAC\09 - Lovin' Spoonful - Darling Be Home Soon [1967].wav

Pre-gap length 0:00:02.00

Peak level 100.0 %
Extraction speed 1.8 X
Track quality 100.0 %
Test CRC 9BD8E416
Copy CRC 9BD8E416
Track not present in AccurateRip database
Copy OK

Track 10

Filename K:\EAC\10 - Marbles - Only One Woman [1968].wav

Pre-gap length 0:00:02.00

Peak level 99.9 %
Extraction speed 1.7 X
Track quality 100.0 %
Test CRC CE83B6DE
Copy CRC CE83B6DE
Track not present in AccurateRip database
Copy OK

Track 11

Filename K:\EAC\11 - Moody Blues - Voices In The Sky [1968].wav

Pre-gap length 0:00:02.00

Peak level 100.0 %
Extraction speed 1.9 X
Track quality 100.0 %
Test CRC A3461BE8
Copy CRC A3461BE8
Track not present in AccurateRip database
Copy OK

Track 12

Filename K:\EAC\12 - Georgie Fame - Yeh Yeh [1964].wav

Pre-gap length 0:00:02.00

Peak level 100.0 %
Extraction speed 1.6 X
Track quality 99.9 %
Test CRC 882C9495
Copy CRC 882C9495
Track not present in AccurateRip database
Copy OK

Track 13

Filename K:\EAC\13 - Small Faces - Itchycoo Park [1967].wav

Pre-gap length 0:00:02.00

Peak level 100.0 %
Extraction speed 1.9 X
Track quality 100.0 %
Test CRC 4B8CA66A
Copy CRC 4B8CA66A
Track not present in AccurateRip database
Copy OK

Track 14

Filename K:\EAC\14 - Silkie - You've Got To Hide Your Love Away [1965].wav

Pre-gap length 0:00:02.00

Peak level 100.0 %
Extraction speed 1.8 X
Track quality 100.0 %
Test CRC E3A57B7F
Copy CRC E3A57B7F
Track not present in AccurateRip database
Copy OK

Track 15

Filename K:\EAC\15 - Sandie Shaw - Long Live Love [1965].wav

Pre-gap length 0:00:02.00

Peak level 100.0 %
Extraction speed 2.0 X
Track quality 100.0 %
Test CRC 6551D447
Copy CRC 6551D447
Track not present in AccurateRip database
Copy OK

Track 16

Filename K:\EAC\16 - Spencer Davis Group - When I Come Home [1966].wav

Pre-gap length 0:00:02.00

Peak level 99.9 %
Extraction speed 1.5 X
Track quality 99.9 %
Test CRC 9F74CCDB
Copy CRC 9F74CCDB
Track not present in AccurateRip database
Copy OK

Track 17

Filename K:\EAC\17 - Swinging Blue Jeans - You're No Good [1964].wav

Pre-gap length 0:00:02.00

Peak level 100.0 %
Extraction speed 2.0 X
Track quality 100.0 %
Test CRC 4C78CFF5
Copy CRC 4C78CFF5
Track not present in AccurateRip database
Copy OK

Track 18

Filename K:\EAC\18 - Tornados - Telstar [1962].wav

Pre-gap length 0:00:02.00

Peak level 100.0 %
Extraction speed 2.1 X
Track quality 100.0 %
Test CRC 55BAF41B
Copy CRC 55BAF41B
Track not present in AccurateRip database
Copy OK

Track 19

Filename K:\EAC\19 - Tremeloes - Silence Is Golden [1967].wav

Pre-gap length 0:00:02.00

Peak level 100.0 %
Extraction speed 2.2 X
Track quality 100.0 %
Test CRC 37FE0A74
Copy CRC 37FE0A74
Track not present in AccurateRip database
Copy OK

Track 20

Filename K:\EAC\20 - Dave Berry - I'm Gonna Take You There [1965].wav

Pre-gap length 0:00:02.00

Peak level 100.0 %
Extraction speed 2.1 X
Track quality 100.0 %
Test CRC 2AFB3899
Copy CRC 2AFB3899
Track not present in AccurateRip database
Copy OK

Track 21

Filename K:\EAC\21 - Unit 4 Plus 2 - Concrete And Clay [1964].wav

Pre-gap length 0:00:02.00

Peak level 99.9 %
Extraction speed 2.1 X
Track quality 100.0 %
Test CRC 1BD9F98D
Copy CRC 1BD9F98D
Track not present in AccurateRip database
Copy OK

Track 22

Filename K:\EAC\22 - Mindbenders - A Groovy Kind Of Love [1965].wav

Pre-gap length 0:00:02.00

Peak level 100.0 %
Extraction speed 1.7 X
Track quality 99.9 %
Test CRC 5D996BB5
Copy CRC 5D996BB5
Track not present in AccurateRip database
Copy OK

Track 23

Filename K:\EAC\23 - Web & John L Watson - Baby Won't You Leave Me Alone [1968].wav

Pre-gap length 0:00:02.00

Peak level 100.0 %
Extraction speed 1.9 X
Track quality 99.9 %
Test CRC 74C37E6F
Copy CRC 74C37E6F
Track not present in AccurateRip database
Copy OK

Track 24

Filename K:\EAC\24 - Traffic - Hole In My Shoe [1967].wav

Pre-gap length 0:00:02.00

Peak level 100.0 %
Extraction speed 2.3 X
Track quality 100.0 %
Test CRC EB912E18
Copy CRC EB912E18
Track not present in AccurateRip database
Copy OK


None of the tracks are present in the AccurateRip database

No errors occurred

End of status report

–– CUETools DB Plugin V2.1.6

[CTDB TOCID: q2p6IcNyAHZRygwLB1VNnhd.K4Q-] disk not present in database
Submit result: q2p6IcNyAHZRygwLB1VNnhd.K4Q- has been uploaded


==== Log checksum 99D9DA53F9CD33280BE10C47FF2BCF4B158258527D0F176178F23A7492F87642 ====

Thanks to the Original ripper !