Subcategories

VA - Kearney Barton: Architect of the Northwest Sound (2020)

Posted By: delpotro
VA - Kearney Barton: Architect of the Northwest Sound (2020)

VA - Kearney Barton: Architect of the Northwest Sound (2020)
XLD Rip | FLAC (tracks+log+.cue) - 324 Mb | MP3 CBR 320 kbps - 165 Mb | 01:11:57
Folk, R'n'B, Soul, Rock | Label: Light in the Attic Records

When Seattle-based recording engineer Kearney Barton died in 2012, the 80 year-old studio veteran had spent the past 50 years recording the cream of the Seattle music scene through the decades. The Fleetwoods, Quincy Jones, The Ventures, The Wailers, The Sonics, Ann Wilson (Heart), The Frantics, The Kingsmen, and Dave Lewis to name a few. Barton also captured Seattle’s vibrant 1960s-70s R&B and soul scene, including Black On White Affair and Soul Swingers, among others, as documented in Light in the Attic’s Wheedle’s Groove series. In his later years Barton’s old school reputation drew in contemporary bands like Young Fresh Fellows, The Smugglers, The Minus 5, and The A-Bones into his studio. Essentially, when a local unknown band wanted to make a demo tape, or record their debut album, or perhaps someone just wanted to capture their uncle playing banjo or their kid sister’s first songs, they’d go to Barton’s studio.

There were 7,000 reel-to-reel tapes piled up in Barton’s house at the time of his passing. The University of Washington carefully cataloged these tapes, and former Sub Pop employee Dan Trager (who had learned the art of recording from Kearney years earlier as a student) began listening and taking notes. With input from a team drawn from the university and Light in the Attic, Dan compiled a shortlist of essential tracks that would form the basis of this compilation.

Kearney Barton: Architect of the Northwest Sound is a comprehensive document of Seattle in the 1960s, 70s, and 80s. It is also a testament to Barton’s life-long dedication to the art of recording. It includes long out of print recordings originally released by local labels such as Jerden, Topaz, Piccadilly, and Etiquette Records. It covers a wide range of genres: sitar and balalaika players, gospel church choirs, unknown garage bands, steel drums, obscure soul artists and teenage a cappella singers. There’s also some familiar names here: Sonics, Wailers, a young pre-Heart Ann Wilson, Larry Coryell making his first ever studio recordings with Chuck Mahaffay, the Hudson Brothers long before they were on TV.

“However diverse, there is a commonality that stands out among his recordings: hardcore analog fidelity,” says University of Washington archivist John Vallier. “It sounds like you are in the room with the drums, bass, guitar, and vocals. The mix is minimum. It’s a raw, sonic reality, even if the band is poppy and jangly. It’s an honest sound that doesn’t sugarcoat what’s being performed. That’s Kearney, too.”
Tracklist:
1. Kearney Barton – Introduction (00:20)
2. Woody Carr & The Entertainers – Hey Little One (03:01)
3. Ann Wilson & The Daybreaks – Through Eyes and Glass (03:19)
4. The Black On White Affair – Bold Soul Sister, Bold Soul Brother (02:56)
5. Occupation Soul – Occupation Soul (02:15)
6. James Henry & The Olympics – Sticky (02:23)
7. Valamont – Dig That Crazy Jam Session (00:11)
8. Serge Lusgins & His Russian Balalaika Orchestra – Two Guitars (03:39)
9. Valamont – Ooze (00:06)
10. Tropical Rainstorm – Flying Bird (03:51)
11. Prabha Devi – Spanish Harlem (02:47)
12. Secret Dynamics – Happy (02:51)
13. Kearney Barton – Introducing a New Concept (00:04)
14. Beacon Hill First Baptist Choir – Hold to God's Unchanging Hand (03:23)
15. Sweet Rolle – Everybody Knows (03:44)
16. Muf – Wrong Age (02:52)
17. Kearney Barton – With Five Types of Music (00:04)
18. Wilkins – Qui El Petit (01:41)
19. Fox - Brownsmith – Gold + Mellow (03:38)
20. Keith Kessler – Sunshine Morning (03:02)
21. Chuck Mahaffay & The Individuals – Bossa Nada (02:27)
22. Patty Waters – For All We Know (05:29)
23. Dave Lewis – MMM MMM MMM (02:36)
24. Tiki & The Fabulons – Don't Ask Me (02:52)
25. Magic Fern – High Flyer (01:38)
26. The Cuidads – Blind Love (01:45)
27. Fury Four – Mr. Blue (03:00)

X Lossless Decoder version 20181019 (151.1)

XLD extraction logfile from 2020-05-13 13:15:13 -0700

Various Artists / Kearney Barton: Architect of the Northwest Sound

Used drive : Apple SuperDrive (revision 2.03)
Media type : Pressed CD

Ripper mode : XLD Secure Ripper
Disable audio cache : OK for the drive with a cache less than 1375KiB
Make use of C2 pointers : NO
Read offset correction : 6
Max retry count : 100
Gap status : Analyzed, Appended (except HTOA)

TOC of the extracted CD
Track | Start | Length | Start sector | End sector
––––––––––––––––––––––––––––-
1 | 00:00:00 | 00:20:73 | 0 | 1572
2 | 00:20:73 | 03:01:22 | 1573 | 15169
3 | 03:22:20 | 03:19:25 | 15170 | 30119
4 | 06:41:45 | 02:56:11 | 30120 | 43330
5 | 09:37:56 | 02:15:51 | 43331 | 53506
6 | 11:53:32 | 02:23:24 | 53507 | 64255
7 | 14:16:56 | 00:11:55 | 64256 | 65135
8 | 14:28:36 | 03:39:22 | 65136 | 81582
9 | 18:07:58 | 00:06:42 | 81583 | 82074
10 | 18:14:25 | 03:51:35 | 82075 | 99434
11 | 22:05:60 | 02:47:18 | 99435 | 111977
12 | 24:53:03 | 02:51:63 | 111978 | 124865
13 | 27:44:66 | 00:04:01 | 124866 | 125166
14 | 27:48:67 | 03:23:41 | 125167 | 140432
15 | 31:12:33 | 03:44:21 | 140433 | 157253
16 | 34:56:54 | 02:52:48 | 157254 | 170201
17 | 37:49:27 | 00:04:05 | 170202 | 170506
18 | 37:53:32 | 01:41:06 | 170507 | 178087
19 | 39:34:38 | 03:38:23 | 178088 | 194460
20 | 43:12:61 | 03:02:69 | 194461 | 208179
21 | 46:15:55 | 02:27:51 | 208180 | 219255
22 | 48:43:31 | 05:29:30 | 219256 | 243960
23 | 54:12:61 | 02:36:44 | 243961 | 255704
24 | 56:49:30 | 02:52:60 | 255705 | 268664
25 | 59:42:15 | 02:43:49 | 268665 | 280938
26 | 62:25:64 | 01:38:44 | 280939 | 288332
27 | 64:04:33 | 01:45:62 | 288333 | 296269
28 | 65:50:20 | 03:07:28 | 296270 | 310322
29 | 68:57:48 | 03:00:08 | 310323 | 323830

AccurateRip Summary
Disc not found in AccurateRip DB.

All Tracks
Album gain : -6.98 dB
Peak : 0.999969
Statistics
Read error : 0
Jitter error (maybe fixed) : 0
Retry sector count : 0
Damaged sector count : 0

Track 01
Filename : /Users/Shared/rips/Various Artists - Kearney Barton: Architect of the Northwest Sound (Unknown Year) [MP3 V0]/01 Introduction.mp3
/Users/Shared/rips/Various Artists - Kearney Barton: Architect of the Northwest Sound (Unknown Year) [MP3 320kbps]/01 Introduction.mp3
/Users/Shared/rips/Various Artists - Kearney Barton: Architect of the Northwest Sound (Unknown Year) [FLAC]/01 Introduction.flac
Pre-gap length : 00:02:00

Track gain : -0.30 dB
Peak : 0.656342
CRC32 hash (test run) : 68584A7B
CRC32 hash : 68584A7B
CRC32 hash (skip zero) : B09374E9
AccurateRip v1 signature : D4E2ACD8
AccurateRip v2 signature : B755FC95
->Track not present in AccurateRip database.
Statistics
Read error : 0
Jitter error (maybe fixed) : 0
Retry sector count : 0
Damaged sector count : 0

Track 02
Filename : /Users/Shared/rips/Various Artists - Kearney Barton: Architect of the Northwest Sound (Unknown Year) [MP3 V0]/02 Hey Little One.mp3
/Users/Shared/rips/Various Artists - Kearney Barton: Architect of the Northwest Sound (Unknown Year) [MP3 320kbps]/02 Hey Little One.mp3
/Users/Shared/rips/Various Artists - Kearney Barton: Architect of the Northwest Sound (Unknown Year) [FLAC]/02 Hey Little One.flac

Track gain : -5.71 dB
Peak : 0.973999
CRC32 hash (test run) : 57702C47
CRC32 hash : 57702C47
CRC32 hash (skip zero) : 49E6ECAB
AccurateRip v1 signature : 24E1130F
AccurateRip v2 signature : 734EAD23
->Track not present in AccurateRip database.
Statistics
Read error : 0
Jitter error (maybe fixed) : 0
Retry sector count : 0
Damaged sector count : 0

Track 03
Filename : /Users/Shared/rips/Various Artists - Kearney Barton: Architect of the Northwest Sound (Unknown Year) [MP3 V0]/03 Looking Through Eyes Of Glass.mp3
/Users/Shared/rips/Various Artists - Kearney Barton: Architect of the Northwest Sound (Unknown Year) [MP3 320kbps]/03 Looking Through Eyes Of Glass.mp3
/Users/Shared/rips/Various Artists - Kearney Barton: Architect of the Northwest Sound (Unknown Year) [FLAC]/03 Looking Through Eyes Of Glass.flac

Track gain : -6.30 dB
Peak : 0.838806
CRC32 hash (test run) : 3ECA9931
CRC32 hash : 3ECA9931
CRC32 hash (skip zero) : 3CACBE36
AccurateRip v1 signature : E9A5D96C
AccurateRip v2 signature : 0C20FA63
->Track not present in AccurateRip database.
Statistics
Read error : 0
Jitter error (maybe fixed) : 0
Retry sector count : 0
Damaged sector count : 0

Track 04
Filename : /Users/Shared/rips/Various Artists - Kearney Barton: Architect of the Northwest Sound (Unknown Year) [MP3 V0]/04 Bold Soul Sister, Bold Soul Brother.mp3
/Users/Shared/rips/Various Artists - Kearney Barton: Architect of the Northwest Sound (Unknown Year) [MP3 320kbps]/04 Bold Soul Sister, Bold Soul Brother.mp3
/Users/Shared/rips/Various Artists - Kearney Barton: Architect of the Northwest Sound (Unknown Year) [FLAC]/04 Bold Soul Sister, Bold Soul Brother.flac

Track gain : -10.03 dB
Peak : 0.865387
CRC32 hash (test run) : 6E1DBC6F
CRC32 hash : 6E1DBC6F
CRC32 hash (skip zero) : F388B8CF
AccurateRip v1 signature : 9AB3F808
AccurateRip v2 signature : 9AFC4B68
->Track not present in AccurateRip database.
Statistics
Read error : 0
Jitter error (maybe fixed) : 0
Retry sector count : 0
Damaged sector count : 0

Track 05
Filename : /Users/Shared/rips/Various Artists - Kearney Barton: Architect of the Northwest Sound (Unknown Year) [MP3 V0]/05 Occupation Soul.mp3
/Users/Shared/rips/Various Artists - Kearney Barton: Architect of the Northwest Sound (Unknown Year) [MP3 320kbps]/05 Occupation Soul.mp3
/Users/Shared/rips/Various Artists - Kearney Barton: Architect of the Northwest Sound (Unknown Year) [FLAC]/05 Occupation Soul.flac

Track gain : -5.65 dB
Peak : 0.971832
CRC32 hash (test run) : DDAF85A1
CRC32 hash : DDAF85A1
CRC32 hash (skip zero) : F4260A74
AccurateRip v1 signature : 8B61E2F8
AccurateRip v2 signature : 8E7A455A
->Track not present in AccurateRip database.
Statistics
Read error : 0
Jitter error (maybe fixed) : 0
Retry sector count : 0
Damaged sector count : 0

Track 06
Filename : /Users/Shared/rips/Various Artists - Kearney Barton: Architect of the Northwest Sound (Unknown Year) [MP3 V0]/06 Sticky.mp3
/Users/Shared/rips/Various Artists - Kearney Barton: Architect of the Northwest Sound (Unknown Year) [MP3 320kbps]/06 Sticky.mp3
/Users/Shared/rips/Various Artists - Kearney Barton: Architect of the Northwest Sound (Unknown Year) [FLAC]/06 Sticky.flac

Track gain : -7.75 dB
Peak : 0.976013
CRC32 hash (test run) : F41DD4E0
CRC32 hash : F41DD4E0
CRC32 hash (skip zero) : 580A29FC
AccurateRip v1 signature : 8C3352CC
AccurateRip v2 signature : FAFE7143
->Track not present in AccurateRip database.
Statistics
Read error : 0
Jitter error (maybe fixed) : 0
Retry sector count : 0
Damaged sector count : 0

Track 07
Filename : /Users/Shared/rips/Various Artists - Kearney Barton: Architect of the Northwest Sound (Unknown Year) [MP3 V0]/07 Dig That Crazy Jam Session.mp3
/Users/Shared/rips/Various Artists - Kearney Barton: Architect of the Northwest Sound (Unknown Year) [MP3 320kbps]/07 Dig That Crazy Jam Session.mp3
/Users/Shared/rips/Various Artists - Kearney Barton: Architect of the Northwest Sound (Unknown Year) [FLAC]/07 Dig That Crazy Jam Session.flac

Track gain : -3.75 dB
Peak : 0.738281
CRC32 hash (test run) : C1A0C302
CRC32 hash : C1A0C302
CRC32 hash (skip zero) : F1BB4D16
AccurateRip v1 signature : 1A199576
AccurateRip v2 signature : FAAE00C6
->Track not present in AccurateRip database.
Statistics
Read error : 0
Jitter error (maybe fixed) : 0
Retry sector count : 0
Damaged sector count : 0

Track 08
Filename : /Users/Shared/rips/Various Artists - Kearney Barton: Architect of the Northwest Sound (Unknown Year) [MP3 V0]/08 Two Guitars.mp3
/Users/Shared/rips/Various Artists - Kearney Barton: Architect of the Northwest Sound (Unknown Year) [MP3 320kbps]/08 Two Guitars.mp3
/Users/Shared/rips/Various Artists - Kearney Barton: Architect of the Northwest Sound (Unknown Year) [FLAC]/08 Two Guitars.flac

Track gain : -7.35 dB
Peak : 0.999969
CRC32 hash (test run) : 8DAA9908
CRC32 hash : 8DAA9908
CRC32 hash (skip zero) : BA2E685A
AccurateRip v1 signature : 1691046F
AccurateRip v2 signature : C206C86F
->Track not present in AccurateRip database.
Statistics
Read error : 0
Jitter error (maybe fixed) : 0
Retry sector count : 0
Damaged sector count : 0

Track 09
Filename : /Users/Shared/rips/Various Artists - Kearney Barton: Architect of the Northwest Sound (Unknown Year) [MP3 V0]/09 Ooze.mp3
/Users/Shared/rips/Various Artists - Kearney Barton: Architect of the Northwest Sound (Unknown Year) [MP3 320kbps]/09 Ooze.mp3
/Users/Shared/rips/Various Artists - Kearney Barton: Architect of the Northwest Sound (Unknown Year) [FLAC]/09 Ooze.flac

Track gain : -5.96 dB
Peak : 0.778595
CRC32 hash (test run) : 7B5DA2DE
CRC32 hash : 7B5DA2DE
CRC32 hash (skip zero) : 04181B98
AccurateRip v1 signature : 402D1DEA
AccurateRip v2 signature : 4686A34D
->Track not present in AccurateRip database.
Statistics
Read error : 0
Jitter error (maybe fixed) : 0
Retry sector count : 0
Damaged sector count : 0

Track 10
Filename : /Users/Shared/rips/Various Artists - Kearney Barton: Architect of the Northwest Sound (Unknown Year) [MP3 V0]/10 Flying Bird.mp3
/Users/Shared/rips/Various Artists - Kearney Barton: Architect of the Northwest Sound (Unknown Year) [MP3 320kbps]/10 Flying Bird.mp3
/Users/Shared/rips/Various Artists - Kearney Barton: Architect of the Northwest Sound (Unknown Year) [FLAC]/10 Flying Bird.flac

Track gain : -6.58 dB
Peak : 0.972595
CRC32 hash (test run) : 7843A3D8
CRC32 hash : 7843A3D8
CRC32 hash (skip zero) : EE1AA0D2
AccurateRip v1 signature : DC9CCBD0
AccurateRip v2 signature : 35960C66
->Track not present in AccurateRip database.
Statistics
Read error : 0
Jitter error (maybe fixed) : 0
Retry sector count : 0
Damaged sector count : 0

Track 11
Filename : /Users/Shared/rips/Various Artists - Kearney Barton: Architect of the Northwest Sound (Unknown Year) [MP3 V0]/11 Spanish Harlem.mp3
/Users/Shared/rips/Various Artists - Kearney Barton: Architect of the Northwest Sound (Unknown Year) [MP3 320kbps]/11 Spanish Harlem.mp3
/Users/Shared/rips/Various Artists - Kearney Barton: Architect of the Northwest Sound (Unknown Year) [FLAC]/11 Spanish Harlem.flac

Track gain : -7.69 dB
Peak : 0.971771
CRC32 hash (test run) : 065C0174
CRC32 hash : 065C0174
CRC32 hash (skip zero) : C41845EC
AccurateRip v1 signature : 13F4A1B2
AccurateRip v2 signature : 6AB2F1F3
->Track not present in AccurateRip database.
Statistics
Read error : 0
Jitter error (maybe fixed) : 0
Retry sector count : 0
Damaged sector count : 0

Track 12
Filename : /Users/Shared/rips/Various Artists - Kearney Barton: Architect of the Northwest Sound (Unknown Year) [MP3 V0]/12 Happy.mp3
/Users/Shared/rips/Various Artists - Kearney Barton: Architect of the Northwest Sound (Unknown Year) [MP3 320kbps]/12 Happy.mp3
/Users/Shared/rips/Various Artists - Kearney Barton: Architect of the Northwest Sound (Unknown Year) [FLAC]/12 Happy.flac

Track gain : -4.80 dB
Peak : 0.971130
CRC32 hash (test run) : 0494C266
CRC32 hash : 0494C266
CRC32 hash (skip zero) : 19C60A57
AccurateRip v1 signature : AA03D283
AccurateRip v2 signature : 6CD77E16
->Track not present in AccurateRip database.
Statistics
Read error : 0
Jitter error (maybe fixed) : 0
Retry sector count : 0
Damaged sector count : 0

Track 13
Filename : /Users/Shared/rips/Various Artists - Kearney Barton: Architect of the Northwest Sound (Unknown Year) [MP3 V0]/13 Introducing A New Concept.mp3
/Users/Shared/rips/Various Artists - Kearney Barton: Architect of the Northwest Sound (Unknown Year) [MP3 320kbps]/13 Introducing A New Concept.mp3
/Users/Shared/rips/Various Artists - Kearney Barton: Architect of the Northwest Sound (Unknown Year) [FLAC]/13 Introducing A New Concept.flac

Track gain : -4.99 dB
Peak : 0.728973
CRC32 hash (test run) : 7D538812
CRC32 hash : 7D538812
CRC32 hash (skip zero) : 3C6C2328
AccurateRip v1 signature : 8B113640
AccurateRip v2 signature : 70412CF9
->Track not present in AccurateRip database.
Statistics
Read error : 0
Jitter error (maybe fixed) : 0
Retry sector count : 0
Damaged sector count : 0

Track 14
Filename : /Users/Shared/rips/Various Artists - Kearney Barton: Architect of the Northwest Sound (Unknown Year) [MP3 V0]/14 Hold To God's Unchanging Hand.mp3
/Users/Shared/rips/Various Artists - Kearney Barton: Architect of the Northwest Sound (Unknown Year) [MP3 320kbps]/14 Hold To God's Unchanging Hand.mp3
/Users/Shared/rips/Various Artists - Kearney Barton: Architect of the Northwest Sound (Unknown Year) [FLAC]/14 Hold To God's Unchanging Hand.flac

Track gain : -6.26 dB
Peak : 0.999786
CRC32 hash (test run) : 2070B4BA
CRC32 hash : 2070B4BA
CRC32 hash (skip zero) : 518CC212
AccurateRip v1 signature : 3B3B50CB
AccurateRip v2 signature : 04007BC3
->Track not present in AccurateRip database.
Statistics
Read error : 0
Jitter error (maybe fixed) : 0
Retry sector count : 0
Damaged sector count : 0

Track 15
Filename : /Users/Shared/rips/Various Artists - Kearney Barton: Architect of the Northwest Sound (Unknown Year) [MP3 V0]/15 Everybody Knows.mp3
/Users/Shared/rips/Various Artists - Kearney Barton: Architect of the Northwest Sound (Unknown Year) [MP3 320kbps]/15 Everybody Knows.mp3
/Users/Shared/rips/Various Artists - Kearney Barton: Architect of the Northwest Sound (Unknown Year) [FLAC]/15 Everybody Knows.flac

Track gain : -8.48 dB
Peak : 0.970520
CRC32 hash (test run) : 090FCEEF
CRC32 hash : 090FCEEF
CRC32 hash (skip zero) : B36C7896
AccurateRip v1 signature : 11A19CF8
AccurateRip v2 signature : 3939A3A0
->Track not present in AccurateRip database.
Statistics
Read error : 0
Jitter error (maybe fixed) : 0
Retry sector count : 0
Damaged sector count : 0

Track 16
Filename : /Users/Shared/rips/Various Artists - Kearney Barton: Architect of the Northwest Sound (Unknown Year) [MP3 V0]/16 Wrong Age.mp3
/Users/Shared/rips/Various Artists - Kearney Barton: Architect of the Northwest Sound (Unknown Year) [MP3 320kbps]/16 Wrong Age.mp3
/Users/Shared/rips/Various Artists - Kearney Barton: Architect of the Northwest Sound (Unknown Year) [FLAC]/16 Wrong Age.flac

Track gain : -8.34 dB
Peak : 0.975098
CRC32 hash (test run) : 825CFEDA
CRC32 hash : 825CFEDA
CRC32 hash (skip zero) : BBE4EE42
AccurateRip v1 signature : 1943D7A4
AccurateRip v2 signature : 2C495909
->Track not present in AccurateRip database.
Statistics
Read error : 0
Jitter error (maybe fixed) : 0
Retry sector count : 0
Damaged sector count : 0

Track 17
Filename : /Users/Shared/rips/Various Artists - Kearney Barton: Architect of the Northwest Sound (Unknown Year) [MP3 V0]/17 With Five Types of Music.mp3
/Users/Shared/rips/Various Artists - Kearney Barton: Architect of the Northwest Sound (Unknown Year) [MP3 320kbps]/17 With Five Types of Music.mp3
/Users/Shared/rips/Various Artists - Kearney Barton: Architect of the Northwest Sound (Unknown Year) [FLAC]/17 With Five Types of Music.flac

Track gain : -2.57 dB
Peak : 0.668182
CRC32 hash (test run) : 31A99EDB
CRC32 hash : 31A99EDB
CRC32 hash (skip zero) : F08021E2
AccurateRip v1 signature : 1E1143CD
AccurateRip v2 signature : A7DD10A1
->Track not present in AccurateRip database.
Statistics
Read error : 0
Jitter error (maybe fixed) : 0
Retry sector count : 0
Damaged sector count : 0

Track 18
Filename : /Users/Shared/rips/Various Artists - Kearney Barton: Architect of the Northwest Sound (Unknown Year) [MP3 V0]/18 Qui El Petit.mp3
/Users/Shared/rips/Various Artists - Kearney Barton: Architect of the Northwest Sound (Unknown Year) [MP3 320kbps]/18 Qui El Petit.mp3
/Users/Shared/rips/Various Artists - Kearney Barton: Architect of the Northwest Sound (Unknown Year) [FLAC]/18 Qui El Petit.flac

Track gain : -3.55 dB
Peak : 0.971039
CRC32 hash (test run) : 5458D8EC
CRC32 hash : 5458D8EC
CRC32 hash (skip zero) : DFBA0270
AccurateRip v1 signature : 9082E377
AccurateRip v2 signature : F21E853E
->Track not present in AccurateRip database.
Statistics
Read error : 0
Jitter error (maybe fixed) : 0
Retry sector count : 0
Damaged sector count : 0

Track 19
Filename : /Users/Shared/rips/Various Artists - Kearney Barton: Architect of the Northwest Sound (Unknown Year) [MP3 V0]/19 Gold + Mellow.mp3
/Users/Shared/rips/Various Artists - Kearney Barton: Architect of the Northwest Sound (Unknown Year) [MP3 320kbps]/19 Gold + Mellow.mp3
/Users/Shared/rips/Various Artists - Kearney Barton: Architect of the Northwest Sound (Unknown Year) [FLAC]/19 Gold + Mellow.flac

Track gain : -6.10 dB
Peak : 0.999969
CRC32 hash (test run) : 90C51656
CRC32 hash : 90C51656
CRC32 hash (skip zero) : C2E3E9E0
AccurateRip v1 signature : F76133D3
AccurateRip v2 signature : DCB98E61
->Track not present in AccurateRip database.
Statistics
Read error : 0
Jitter error (maybe fixed) : 0
Retry sector count : 0
Damaged sector count : 0

Track 20
Filename : /Users/Shared/rips/Various Artists - Kearney Barton: Architect of the Northwest Sound (Unknown Year) [MP3 V0]/20 Sunshine Morning.mp3
/Users/Shared/rips/Various Artists - Kearney Barton: Architect of the Northwest Sound (Unknown Year) [MP3 320kbps]/20 Sunshine Morning.mp3
/Users/Shared/rips/Various Artists - Kearney Barton: Architect of the Northwest Sound (Unknown Year) [FLAC]/20 Sunshine Morning.flac

Track gain : -7.44 dB
Peak : 0.897614
CRC32 hash (test run) : 586735FA
CRC32 hash : 586735FA
CRC32 hash (skip zero) : 4E4FCC3F
AccurateRip v1 signature : 6748F1F0
AccurateRip v2 signature : 8A02BE6E
->Track not present in AccurateRip database.
Statistics
Read error : 0
Jitter error (maybe fixed) : 0
Retry sector count : 0
Damaged sector count : 0

Track 21
Filename : /Users/Shared/rips/Various Artists - Kearney Barton: Architect of the Northwest Sound (Unknown Year) [MP3 V0]/21 Bossa Nada.mp3
/Users/Shared/rips/Various Artists - Kearney Barton: Architect of the Northwest Sound (Unknown Year) [MP3 320kbps]/21 Bossa Nada.mp3
/Users/Shared/rips/Various Artists - Kearney Barton: Architect of the Northwest Sound (Unknown Year) [FLAC]/21 Bossa Nada.flac

Track gain : -5.85 dB
Peak : 0.971741
CRC32 hash (test run) : 76828BE1
CRC32 hash : 76828BE1
CRC32 hash (skip zero) : B644102D
AccurateRip v1 signature : B29D001B
AccurateRip v2 signature : 39FCFB53
->Track not present in AccurateRip database.
Statistics
Read error : 0
Jitter error (maybe fixed) : 0
Retry sector count : 0
Damaged sector count : 0

Track 22
Filename : /Users/Shared/rips/Various Artists - Kearney Barton: Architect of the Northwest Sound (Unknown Year) [MP3 V0]/22 For All We Know.mp3
/Users/Shared/rips/Various Artists - Kearney Barton: Architect of the Northwest Sound (Unknown Year) [MP3 320kbps]/22 For All We Know.mp3
/Users/Shared/rips/Various Artists - Kearney Barton: Architect of the Northwest Sound (Unknown Year) [FLAC]/22 For All We Know.flac

Track gain : -4.64 dB
Peak : 0.971405
CRC32 hash (test run) : A0F74229
CRC32 hash : A0F74229
CRC32 hash (skip zero) : 71CE1891
AccurateRip v1 signature : A680554A
AccurateRip v2 signature : 0E37312C
->Track not present in AccurateRip database.
Statistics
Read error : 0
Jitter error (maybe fixed) : 0
Retry sector count : 0
Damaged sector count : 0

Track 23
Filename : /Users/Shared/rips/Various Artists - Kearney Barton: Architect of the Northwest Sound (Unknown Year) [MP3 V0]/23 MMM MMM MMM.mp3
/Users/Shared/rips/Various Artists - Kearney Barton: Architect of the Northwest Sound (Unknown Year) [MP3 320kbps]/23 MMM MMM MMM.mp3
/Users/Shared/rips/Various Artists - Kearney Barton: Architect of the Northwest Sound (Unknown Year) [FLAC]/23 MMM MMM MMM.flac

Track gain : -6.63 dB
Peak : 0.972870
CRC32 hash (test run) : C3016093
CRC32 hash : C3016093
CRC32 hash (skip zero) : 8A51FECF
AccurateRip v1 signature : 9B20B804
AccurateRip v2 signature : AB8EA322
->Track not present in AccurateRip database.
Statistics
Read error : 0
Jitter error (maybe fixed) : 0
Retry sector count : 0
Damaged sector count : 0

Track 24
Filename : /Users/Shared/rips/Various Artists - Kearney Barton: Architect of the Northwest Sound (Unknown Year) [MP3 V0]/24 Don't Ask Me.mp3
/Users/Shared/rips/Various Artists - Kearney Barton: Architect of the Northwest Sound (Unknown Year) [MP3 320kbps]/24 Don't Ask Me.mp3
/Users/Shared/rips/Various Artists - Kearney Barton: Architect of the Northwest Sound (Unknown Year) [FLAC]/24 Don't Ask Me.flac

Track gain : -6.52 dB
Peak : 0.971375
CRC32 hash (test run) : 9E6BCB10
CRC32 hash : 9E6BCB10
CRC32 hash (skip zero) : 860C137D
AccurateRip v1 signature : 06BA7DCA
AccurateRip v2 signature : D6CEC0B6
->Track not present in AccurateRip database.
Statistics
Read error : 0
Jitter error (maybe fixed) : 0
Retry sector count : 0
Damaged sector count : 0

Track 25
Filename : /Users/Shared/rips/Various Artists - Kearney Barton: Architect of the Northwest Sound (Unknown Year) [MP3 V0]/25 He's Waitin'.mp3
/Users/Shared/rips/Various Artists - Kearney Barton: Architect of the Northwest Sound (Unknown Year) [MP3 320kbps]/25 He's Waitin'.mp3
/Users/Shared/rips/Various Artists - Kearney Barton: Architect of the Northwest Sound (Unknown Year) [FLAC]/25 He's Waitin'.flac

Track gain : -9.04 dB
Peak : 0.972504
CRC32 hash (test run) : 42246CF4
CRC32 hash : 42246CF4
CRC32 hash (skip zero) : 1F8BF895
AccurateRip v1 signature : 13BD9CE0
AccurateRip v2 signature : 4AC373B4
->Track not present in AccurateRip database.
Statistics
Read error : 0
Jitter error (maybe fixed) : 0
Retry sector count : 0
Damaged sector count : 0

Track 26
Filename : /Users/Shared/rips/Various Artists - Kearney Barton: Architect of the Northwest Sound (Unknown Year) [MP3 V0]/26 High Flyer.mp3
/Users/Shared/rips/Various Artists - Kearney Barton: Architect of the Northwest Sound (Unknown Year) [MP3 320kbps]/26 High Flyer.mp3
/Users/Shared/rips/Various Artists - Kearney Barton: Architect of the Northwest Sound (Unknown Year) [FLAC]/26 High Flyer.flac

Track gain : -8.38 dB
Peak : 0.999969
CRC32 hash (test run) : 0765E669
CRC32 hash : 0765E669
CRC32 hash (skip zero) : AB1C9683
AccurateRip v1 signature : 0CC3048E
AccurateRip v2 signature : B9815EE7
->Track not present in AccurateRip database.
Statistics
Read error : 0
Jitter error (maybe fixed) : 0
Retry sector count : 0
Damaged sector count : 0

Track 27
Filename : /Users/Shared/rips/Various Artists - Kearney Barton: Architect of the Northwest Sound (Unknown Year) [MP3 V0]/27 Blind Love.mp3
/Users/Shared/rips/Various Artists - Kearney Barton: Architect of the Northwest Sound (Unknown Year) [MP3 320kbps]/27 Blind Love.mp3
/Users/Shared/rips/Various Artists - Kearney Barton: Architect of the Northwest Sound (Unknown Year) [FLAC]/27 Blind Love.flac

Track gain : -4.17 dB
Peak : 0.953949
CRC32 hash (test run) : 05A39A28
CRC32 hash : 05A39A28
CRC32 hash (skip zero) : 3C99FE25
AccurateRip v1 signature : 1A95D4A3
AccurateRip v2 signature : F410927F
->Track not present in AccurateRip database.
Statistics
Read error : 0
Jitter error (maybe fixed) : 0
Retry sector count : 0
Damaged sector count : 0

Track 28
Filename : /Users/Shared/rips/Various Artists - Kearney Barton: Architect of the Northwest Sound (Unknown Year) [MP3 V0]/28 All My Nights, All My Days.mp3
/Users/Shared/rips/Various Artists - Kearney Barton: Architect of the Northwest Sound (Unknown Year) [MP3 320kbps]/28 All My Nights, All My Days.mp3
/Users/Shared/rips/Various Artists - Kearney Barton: Architect of the Northwest Sound (Unknown Year) [FLAC]/28 All My Nights, All My Days.flac

Track gain : -5.22 dB
Peak : 0.932251
CRC32 hash (test run) : 1EC41419
CRC32 hash : 1EC41419
CRC32 hash (skip zero) : 6CEE98FF
AccurateRip v1 signature : B689C4F4
AccurateRip v2 signature : BCC57E0A
->Track not present in AccurateRip database.
Statistics
Read error : 0
Jitter error (maybe fixed) : 0
Retry sector count : 0
Damaged sector count : 0

Track 29
Filename : /Users/Shared/rips/Various Artists - Kearney Barton: Architect of the Northwest Sound (Unknown Year) [MP3 V0]/29 Mr. Blue.mp3
/Users/Shared/rips/Various Artists - Kearney Barton: Architect of the Northwest Sound (Unknown Year) [MP3 320kbps]/29 Mr. Blue.mp3
/Users/Shared/rips/Various Artists - Kearney Barton: Architect of the Northwest Sound (Unknown Year) [FLAC]/29 Mr. Blue.flac

Track gain : -6.81 dB
Peak : 0.859192
CRC32 hash (test run) : 731293C7
CRC32 hash : 731293C7
CRC32 hash (skip zero) : B3F7FC8D
AccurateRip v1 signature : 666E117E
AccurateRip v2 signature : 9025C26D
->Track not present in AccurateRip database.
Statistics
Read error : 0
Jitter error (maybe fixed) : 0
Retry sector count : 0
Damaged sector count : 0

No errors occurred

End of status report

––-BEGIN XLD SIGNATURE––-
ki4GtX5RRbfHNeRC2W8Y5ArSuqwVZ0.ZLGr6ZAovXeOCk.JGoJi0Jo5awx_rMe.dsvHuWG2ifAYATrxrBocFUpEITvXuVN99PK8KB.0
––-END XLD SIGNATURE––-

Thanks to the Original ripper !