Subcategories

VA - MTV Rocks : Pop Punk vs The World (2018)

Posted By: delpotro
VA - MTV Rocks : Pop Punk vs The World (2018)

VA - MTV Rocks : Pop Punk vs The World (2018)
EAC Rip | FLAC (tracks+log+.cue) | 03:12:25 | 1,4 Gb
Alterntive Rock, Alternative Metal, Pop Punk | Label: Universal Music

“MTV Rocks”, a new album from UMOD set to be released on January 19th, brings rock fans a collection of 54 of the biggest Pop Punk hits, from iconic artists and bands like Blink 182, Good Charlotte, Fall Out Boy, My Chemical Romance, Crazy Town, Evanescence, Finch, Ash, 3 Doors Down, Seether and more.
Tracklist:
Disc #1
01. The Offspring - Pretty Fly (For a White Guy) (3:09)
02. blink?182 - All the Small Things (2:51)
03. My Chemical Romance - Welcome to the Black Parade (5:11)
04. Fall Out Boy - Sugar, We're Goin Down (3:51)
05. Papa Roach - Last Resort (3:21)
06. Good Charlotte - Lifestyles of the Rich and Famous (3:09)
07. Alien Ant Farm - Smooth Criminal (3:30)
08. Crazy Town - Butterfly (3:36)
09. OPM - Heaven Is a Halfpipe (4:08)
10. Sum 41 - Fat Lip (3:00)
11. Bowling for Soup - Girl All the Bad Guys Want (3:19)
12. Bloodhound Gang - The Bad Touch (4:21)
13. Fountains of Wayne - Stacy's Mom (3:17)
14. Puddle of Mudd - Blurry (radio edit) (4:19)
15. Feeder - Buck Rogers (3:13)
16. Queens of the Stone Age - No One Knows (4:16)
17. Soundgarden - Black Hole Sun (edit) (4:32)
18. A - Nothing (3:42)

Disc #2
01. Evanescence - Bring Me to Life (3:57)
02. The Mighty Mighty Bosstones - The Impression That I Get (3:14)
03. Sum 41 - In Too Deep (radio edit) (3:27)
04. Weezer - Buddy Holly (2:40)
05. Puddle of Mudd - She Hates Me (3:38)
06. Hole - Celebrity Skin (2:44)
07. Andrew W.K. - Party Hard (3:07)
08. Thirty Seconds to Mars - The Kill (Bury Me) (3:53)
09. New Found Glory - My Friends Over You (3:42)
10. American Hi-Fi - Flavor of the Weak (3:09)
11. Drowning Pool - Bodies (3:23)
12. Finch - Letters to You (3:21)
13. Box Car Racer - There Is (3:17)
14. +44 - When Your Heart Stops Beating (3:14)
15. The Ataris - The Boys of Summer (4:18)
16. Less Than Jake - All My Best Friends Are Metalheads (3:33)
17. Yellowcard - Ocean Avenue (3:17)
18. We the Kings - Check Yes, Juliet (3:40)

Disc #3
01. Fall Out Boy - This Ain't a Scene, It's an Arms Race (3:32)
02. Ash - Burn Baby Burn (3:29)
03. The Offspring - The Kids Aren't Alright (3:01)
04. blink?182 - The Rock Show (2:50)
05. Lit - My Own Worst Enemy (2:51)
06. 3 Doors Down - Kryptonite (3:55)
07. Korn - Freak on a Leash (4:27)
08. You Me at Six - Underdog (2:25)
09. Seether - Remedy (3:28)
10. The Red Jumpsuit Apparatus - Face Down (No Scream) (3:11)
11. Angels & Airwaves - Everything's Magic (3:53)
12. Hoobastank - The Reason (3:53)
13. Staind - Outside (4:51)
14. Thrice - The color=#000000 in the Ambulance (3:41)
15. Alexisonfire - This Could Be Anywhere in the World (4:04)
16. Anberlin - Feel Good Drag (3:08)
17. Goldfinger - 99 Red Balloons (3:49)
18. Deftones - My Own Summer (Shove It) (3:37)

Exact Audio Copy V1.1 from 23. June 2015

EAC extraction logfile from 27. February 2018, 23:30

Various Artists / MTV Rocks

Used drive : PIONEER BD-RW BDR-206 Adapter: 1 ID: 0

Read mode : Secure
Utilize accurate stream : Yes
Defeat audio cache : Yes
Make use of C2 pointers : No

Read offset correction : 667
Overread into Lead-In and Lead-Out : No
Fill up missing offset samples with silence : Yes
Delete leading and trailing silent blocks : No
Null samples used in CRC calculations : Yes
Used interface : Native Win32 interface for Win NT & 2000
Gap handling : Appended to previous track

Used output format : User Defined Encoder
Selected bitrate : 896 kBit/s
Quality : High
Add ID3 tag : No
Command line compressor : C:\Program Files (x86)\Exact Audio Copy\Flac\flac.exe
Additional command line options : -8 -V -T "TITLE=%title%" -T "ARTIST=%artist%" -T "ALBUMARTIST=%albumartist%" -T "ALBUM=%albumtitle%" -T "DATE=%year%" -T "TRACKNUMBER=%tracknr%" -T "TRACKTOTAL=%numtracks%" -T "GENRE=%genre%" -T "COMMENT=%comment%" -T "PERFORMER=%albuminterpret%" -T "COMPOSER=%composer%" %source% -o %dest%


TOC of the extracted CD

Track | Start | Length | Start sector | End sector
––––––––––––––––––––––––––––-
1 | 0:00.00 | 3:09.06 | 0 | 14180
2 | 3:09.06 | 2:51.10 | 14181 | 27015
3 | 6:00.16 | 5:11.04 | 27016 | 50344
4 | 11:11.20 | 3:50.56 | 50345 | 67650
5 | 15:02.01 | 3:20.59 | 67651 | 82709
6 | 18:22.60 | 3:09.20 | 82710 | 96904
7 | 21:32.05 | 3:29.58 | 96905 | 112637
8 | 25:01.63 | 3:36.31 | 112638 | 128868
9 | 28:38.19 | 4:08.13 | 128869 | 147481
10 | 32:46.32 | 2:59.58 | 147482 | 160964
11 | 35:46.15 | 3:18.62 | 160965 | 175876
12 | 39:05.02 | 4:21.22 | 175877 | 195473
13 | 43:26.24 | 3:17.30 | 195474 | 210278
14 | 46:43.54 | 4:19.13 | 210279 | 229716
15 | 51:02.67 | 3:12.65 | 229717 | 244181
16 | 54:15.57 | 4:15.47 | 244182 | 263353
17 | 58:31.29 | 4:32.27 | 263354 | 283780
18 | 63:03.56 | 3:42.33 | 283781 | 300463


Track 1

Filename D:\EAC rips\VA - MTV Rocks (2018) [Flac+.cue]\01. The Offspring - Pretty Fly (For a White Guy).wav

Pre-gap length 0:00:02.00

Peak level 98.8 %
Extraction speed 4.5 X
Track quality 100.0 %
Test CRC 3E5966D3
Copy CRC 3E5966D3
Track not present in AccurateRip database
Copy OK

Track 2

Filename D:\EAC rips\VA - MTV Rocks (2018) [Flac+.cue]\02. blink‐182 - All the Small Things.wav

Peak level 98.8 %
Extraction speed 4.8 X
Track quality 100.0 %
Test CRC 31EFBED5
Copy CRC 31EFBED5
Track not present in AccurateRip database
Copy OK

Track 3

Filename D:\EAC rips\VA - MTV Rocks (2018) [Flac+.cue]\03. My Chemical Romance - Welcome to the Black Parade.wav

Peak level 98.8 %
Extraction speed 5.1 X
Track quality 99.9 %
Test CRC ED237BC4
Copy CRC ED237BC4
Track not present in AccurateRip database
Copy OK

Track 4

Filename D:\EAC rips\VA - MTV Rocks (2018) [Flac+.cue]\04. Fall Out Boy - Sugar, We're Goin Down.wav

Peak level 98.8 %
Extraction speed 5.1 X
Track quality 99.9 %
Test CRC 1F5100D5
Copy CRC 1F5100D5
Track not present in AccurateRip database
Copy OK

Track 5

Filename D:\EAC rips\VA - MTV Rocks (2018) [Flac+.cue]\05. Papa Roach - Last Resort.wav

Peak level 98.8 %
Extraction speed 6.0 X
Track quality 100.0 %
Test CRC 53F6616B
Copy CRC 53F6616B
Track not present in AccurateRip database
Copy OK

Track 6

Filename D:\EAC rips\VA - MTV Rocks (2018) [Flac+.cue]\06. Good Charlotte - Lifestyles of the Rich and Famous.wav

Peak level 98.8 %
Extraction speed 6.1 X
Track quality 100.0 %
Test CRC D68EC622
Copy CRC D68EC622
Track not present in AccurateRip database
Copy OK

Track 7

Filename D:\EAC rips\VA - MTV Rocks (2018) [Flac+.cue]\07. Alien Ant Farm - Smooth Criminal.wav

Peak level 98.8 %
Extraction speed 6.5 X
Track quality 100.0 %
Test CRC B35E1E86
Copy CRC B35E1E86
Track not present in AccurateRip database
Copy OK

Track 8

Filename D:\EAC rips\VA - MTV Rocks (2018) [Flac+.cue]\08. Crazy Town - Butterfly.wav

Peak level 98.8 %
Extraction speed 6.8 X
Track quality 100.0 %
Test CRC 808E4B6E
Copy CRC 808E4B6E
Track not present in AccurateRip database
Copy OK

Track 9

Filename D:\EAC rips\VA - MTV Rocks (2018) [Flac+.cue]\09. OPM - Heaven Is a Halfpipe.wav

Peak level 98.8 %
Extraction speed 7.1 X
Track quality 100.0 %
Test CRC E06B3C03
Copy CRC E06B3C03
Track not present in AccurateRip database
Copy OK

Track 10

Filename D:\EAC rips\VA - MTV Rocks (2018) [Flac+.cue]\10. Sum 41 - Fat Lip.wav

Peak level 98.8 %
Extraction speed 7.0 X
Track quality 100.0 %
Test CRC EE5AE2DB
Copy CRC EE5AE2DB
Track not present in AccurateRip database
Copy OK

Track 11

Filename D:\EAC rips\VA - MTV Rocks (2018) [Flac+.cue]\11. Bowling for Soup - Girl All the Bad Guys Want.wav

Peak level 98.8 %
Extraction speed 7.3 X
Track quality 100.0 %
Test CRC E473C59E
Copy CRC E473C59E
Track not present in AccurateRip database
Copy OK

Track 12

Filename D:\EAC rips\VA - MTV Rocks (2018) [Flac+.cue]\12. Bloodhound Gang - The Bad Touch.wav

Peak level 98.8 %
Extraction speed 6.8 X
Track quality 99.9 %
Test CRC FFC1E633
Copy CRC FFC1E633
Track not present in AccurateRip database
Copy OK

Track 13

Filename D:\EAC rips\VA - MTV Rocks (2018) [Flac+.cue]\13. Fountains of Wayne - Stacy's Mom.wav

Peak level 98.8 %
Extraction speed 7.6 X
Track quality 100.0 %
Test CRC 9AD09F74
Copy CRC 9AD09F74
Track not present in AccurateRip database
Copy OK

Track 14

Filename D:\EAC rips\VA - MTV Rocks (2018) [Flac+.cue]\14. Puddle of Mudd - Blurry (radio edit).wav

Peak level 98.8 %
Extraction speed 8.2 X
Track quality 100.0 %
Test CRC 2BA292A1
Copy CRC 2BA292A1
Track not present in AccurateRip database
Copy OK

Track 15

Filename D:\EAC rips\VA - MTV Rocks (2018) [Flac+.cue]\15. Feeder - Buck Rogers.wav

Peak level 98.8 %
Extraction speed 6.9 X
Track quality 99.9 %
Test CRC D8CE5DDA
Copy CRC D8CE5DDA
Track not present in AccurateRip database
Copy OK

Track 16

Filename D:\EAC rips\VA - MTV Rocks (2018) [Flac+.cue]\16. Queens of the Stone Age - No One Knows.wav

Peak level 98.8 %
Extraction speed 7.5 X
Track quality 99.9 %
Test CRC 073CED41
Copy CRC 073CED41
Track not present in AccurateRip database
Copy OK

Track 17

Filename D:\EAC rips\VA - MTV Rocks (2018) [Flac+.cue]\17. Soundgarden - Black Hole Sun (edit).wav

Peak level 98.8 %
Extraction speed 8.8 X
Track quality 100.0 %
Test CRC D2B824EF
Copy CRC D2B824EF
Track not present in AccurateRip database
Copy OK

Track 18

Filename D:\EAC rips\VA - MTV Rocks (2018) [Flac+.cue]\18. A - Nothing.wav

Peak level 87.7 %
Extraction speed 7.6 X
Track quality 99.9 %
Test CRC D4AB3585
Copy CRC D4AB3585
Track not present in AccurateRip database
Copy OK


None of the tracks are present in the AccurateRip database

No errors occurred

End of status report

–– CUETools DB Plugin V2.1.6

[CTDB TOCID: 1h_bZnDmWCWtnKvZDBw4Vp.NqiA-] found
Submit result: 1h_bZnDmWCWtnKvZDBw4Vp.NqiA- has been confirmed
Track | CTDB Status
1 | (9/9) Accurately ripped
2 | (9/9) Accurately ripped
3 | (9/9) Accurately ripped
4 | (9/9) Accurately ripped
5 | (9/9) Accurately ripped
6 | (9/9) Accurately ripped
7 | (9/9) Accurately ripped
8 | (9/9) Accurately ripped
9 | (9/9) Accurately ripped
10 | (9/9) Accurately ripped
11 | (9/9) Accurately ripped
12 | (9/9) Accurately ripped
13 | (9/9) Accurately ripped
14 | (9/9) Accurately ripped
15 | (9/9) Accurately ripped
16 | (9/9) Accurately ripped
17 | (9/9) Accurately ripped
18 | (9/9) Accurately ripped


==== Log checksum EF97FB79A03FF698E4826F9FB12A5666143B121AF3A5421FEDF8176B7E2EE3FA ====

Exact Audio Copy V1.1 from 23. June 2015

EAC extraction logfile from 27. February 2018, 23:56

Various Artists / MTV Rocks CD2

Used drive : PIONEER BD-RW BDR-206 Adapter: 1 ID: 0

Read mode : Secure
Utilize accurate stream : Yes
Defeat audio cache : Yes
Make use of C2 pointers : No

Read offset correction : 667
Overread into Lead-In and Lead-Out : No
Fill up missing offset samples with silence : Yes
Delete leading and trailing silent blocks : No
Null samples used in CRC calculations : Yes
Used interface : Native Win32 interface for Win NT & 2000
Gap handling : Appended to previous track

Used output format : User Defined Encoder
Selected bitrate : 896 kBit/s
Quality : High
Add ID3 tag : No
Command line compressor : C:\Program Files (x86)\Exact Audio Copy\Flac\flac.exe
Additional command line options : -8 -V -T "TITLE=%title%" -T "ARTIST=%artist%" -T "ALBUMARTIST=%albumartist%" -T "ALBUM=%albumtitle%" -T "DATE=%year%" -T "TRACKNUMBER=%tracknr%" -T "TRACKTOTAL=%numtracks%" -T "GENRE=%genre%" -T "COMMENT=%comment%" -T "PERFORMER=%albuminterpret%" -T "COMPOSER=%composer%" %source% -o %dest%


TOC of the extracted CD

Track | Start | Length | Start sector | End sector
––––––––––––––––––––––––––––-
1 | 0:00.00 | 3:56.73 | 0 | 17772
2 | 3:56.73 | 3:14.05 | 17773 | 32327
3 | 7:11.03 | 3:27.10 | 32328 | 47862
4 | 10:38.13 | 2:40.34 | 47863 | 59896
5 | 13:18.47 | 3:37.61 | 59897 | 76232
6 | 16:56.33 | 2:43.50 | 76233 | 88507
7 | 19:40.08 | 3:06.50 | 88508 | 102507
8 | 22:46.58 | 3:52.70 | 102508 | 119977
9 | 26:39.53 | 3:41.60 | 119978 | 136612
10 | 30:21.38 | 3:09.37 | 136613 | 150824
11 | 33:31.00 | 3:23.27 | 150825 | 166076
12 | 36:54.27 | 3:21.00 | 166077 | 181151
13 | 40:15.27 | 3:16.58 | 181152 | 195909
14 | 43:32.10 | 3:14.29 | 195910 | 210488
15 | 46:46.39 | 4:18.00 | 210489 | 229838
16 | 51:04.39 | 3:32.61 | 229839 | 245799
17 | 54:37.25 | 3:17.04 | 245800 | 260578
18 | 57:54.29 | 3:40.05 | 260579 | 277083


Track 1

Filename D:\EAC rips\VA - MTV Rocks CD2 (2018) [Flac+.cue]\01. Evanescence - Bring Me to Life.wav

Pre-gap length 0:00:02.00

Peak level 91.4 %
Extraction speed 4.4 X
Track quality 100.0 %
Test CRC 86700B3D
Copy CRC 86700B3D
Track not present in AccurateRip database
Copy OK

Track 2

Filename D:\EAC rips\VA - MTV Rocks CD2 (2018) [Flac+.cue]\02. The Mighty Mighty Bosstones - The Impression That I Get.wav

Peak level 98.8 %
Extraction speed 4.7 X
Track quality 100.0 %
Test CRC E48BF67D
Copy CRC E48BF67D
Track not present in AccurateRip database
Copy OK

Track 3

Filename D:\EAC rips\VA - MTV Rocks CD2 (2018) [Flac+.cue]\03. Sum 41 - In Too Deep (radio edit).wav

Peak level 98.8 %
Extraction speed 4.4 X
Track quality 99.9 %
Test CRC D69E5229
Copy CRC D69E5229
Track not present in AccurateRip database
Copy OK

Track 4

Filename D:\EAC rips\VA - MTV Rocks CD2 (2018) [Flac+.cue]\04. Weezer - Buddy Holly.wav

Peak level 98.8 %
Extraction speed 5.1 X
Track quality 100.0 %
Test CRC 671D6535
Copy CRC 671D6535
Track not present in AccurateRip database
Copy OK

Track 5

Filename D:\EAC rips\VA - MTV Rocks CD2 (2018) [Flac+.cue]\05. Puddle of Mudd - She Hates Me.wav

Peak level 98.8 %
Extraction speed 4.9 X
Track quality 99.9 %
Test CRC 48ADC283
Copy CRC 48ADC283
Track not present in AccurateRip database
Copy OK

Track 6

Filename D:\EAC rips\VA - MTV Rocks CD2 (2018) [Flac+.cue]\06. Hole - Celebrity Skin.wav

Peak level 98.8 %
Extraction speed 4.8 X
Track quality 99.9 %
Test CRC BC8A929B
Copy CRC BC8A929B
Track not present in AccurateRip database
Copy OK

Track 7

Filename D:\EAC rips\VA - MTV Rocks CD2 (2018) [Flac+.cue]\07. Andrew W.K. - Party Hard.wav

Peak level 98.8 %
Extraction speed 5.9 X
Track quality 100.0 %
Test CRC FD7D2BE9
Copy CRC FD7D2BE9
Track not present in AccurateRip database
Copy OK

Track 8

Filename D:\EAC rips\VA - MTV Rocks CD2 (2018) [Flac+.cue]\08. Thirty Seconds to Mars - The Kill (Bury Me).wav

Peak level 94.8 %
Extraction speed 6.5 X
Track quality 100.0 %
Test CRC B53B749D
Copy CRC B53B749D
Track not present in AccurateRip database
Copy OK

Track 9

Filename D:\EAC rips\VA - MTV Rocks CD2 (2018) [Flac+.cue]\09. New Found Glory - My Friends Over You.wav

Peak level 98.8 %
Extraction speed 6.5 X
Track quality 100.0 %
Test CRC 35BB4535
Copy CRC 35BB4535
Track not present in AccurateRip database
Copy OK

Track 10

Filename D:\EAC rips\VA - MTV Rocks CD2 (2018) [Flac+.cue]\10. American Hi-Fi - Flavor of the Weak.wav

Peak level 98.8 %
Extraction speed 6.6 X
Track quality 100.0 %
Test CRC 797C25C4
Copy CRC 797C25C4
Track not present in AccurateRip database
Copy OK

Track 11

Filename D:\EAC rips\VA - MTV Rocks CD2 (2018) [Flac+.cue]\11. Drowning Pool - Bodies.wav

Peak level 92.6 %
Extraction speed 6.9 X
Track quality 100.0 %
Test CRC 411BC910
Copy CRC 411BC910
Track not present in AccurateRip database
Copy OK

Track 12

Filename D:\EAC rips\VA - MTV Rocks CD2 (2018) [Flac+.cue]\12. Finch - Letters to You.wav

Peak level 88.9 %
Extraction speed 7.2 X
Track quality 100.0 %
Test CRC FF1C0EEA
Copy CRC FF1C0EEA
Track not present in AccurateRip database
Copy OK

Track 13

Filename D:\EAC rips\VA - MTV Rocks CD2 (2018) [Flac+.cue]\13. Box Car Racer - There Is.wav

Peak level 98.8 %
Extraction speed 7.2 X
Track quality 100.0 %
Test CRC 1802515A
Copy CRC 1802515A
Track not present in AccurateRip database
Copy OK

Track 14

Filename D:\EAC rips\VA - MTV Rocks CD2 (2018) [Flac+.cue]\14. +44 - When Your Heart Stops Beating.wav

Peak level 87.4 %
Extraction speed 7.3 X
Track quality 100.0 %
Test CRC 83A17289
Copy CRC 83A17289
Track not present in AccurateRip database
Copy OK

Track 15

Filename D:\EAC rips\VA - MTV Rocks CD2 (2018) [Flac+.cue]\15. The Ataris - The Boys of Summer.wav

Peak level 99.9 %
Extraction speed 7.7 X
Track quality 100.0 %
Test CRC FBB47CA1
Copy CRC FBB47CA1
Track not present in AccurateRip database
Copy OK

Track 16

Filename D:\EAC rips\VA - MTV Rocks CD2 (2018) [Flac+.cue]\16. Less Than Jake - All My Best Friends Are Metalheads.wav

Peak level 98.8 %
Extraction speed 6.8 X
Track quality 99.9 %
Test CRC 7E7F58FB
Copy CRC 7E7F58FB
Track not present in AccurateRip database
Copy OK

Track 17

Filename D:\EAC rips\VA - MTV Rocks CD2 (2018) [Flac+.cue]\17. Yellowcard - Ocean Avenue.wav

Peak level 92.7 %
Extraction speed 7.8 X
Track quality 100.0 %
Test CRC A126A9A3
Copy CRC A126A9A3
Track not present in AccurateRip database
Copy OK

Track 18

Filename D:\EAC rips\VA - MTV Rocks CD2 (2018) [Flac+.cue]\18. We the Kings - Check Yes, Juliet.wav

Peak level 98.8 %
Extraction speed 8.1 X
Track quality 100.0 %
Test CRC 8FC858BB
Copy CRC 8FC858BB
Track not present in AccurateRip database
Copy OK


None of the tracks are present in the AccurateRip database

No errors occurred

End of status report

–– CUETools DB Plugin V2.1.6

[CTDB TOCID: hzauoOJV6P5K4mJeCN5CWOHKikQ-] found
Submit result: hzauoOJV6P5K4mJeCN5CWOHKikQ- has been confirmed
Track | CTDB Status
1 | (9/9) Accurately ripped
2 | (9/9) Accurately ripped
3 | (9/9) Accurately ripped
4 | (9/9) Accurately ripped
5 | (9/9) Accurately ripped
6 | (9/9) Accurately ripped
7 | (9/9) Accurately ripped
8 | (9/9) Accurately ripped
9 | (9/9) Accurately ripped
10 | (9/9) Accurately ripped
11 | (9/9) Accurately ripped
12 | (9/9) Accurately ripped
13 | (9/9) Accurately ripped
14 | (9/9) Accurately ripped
15 | (9/9) Accurately ripped
16 | (9/9) Accurately ripped
17 | (9/9) Accurately ripped
18 | (9/9) Accurately ripped


==== Log checksum 0D08C99F8D76B7C9AA1B2BA7BB05EE2798743AEF1BEFD77009C419969FEF9AFB ====

Exact Audio Copy V1.1 from 23. June 2015

EAC extraction logfile from 1. March 2018, 0:10

Various Artists / MTV Rocks CD3

Used drive : PIONEER BD-RW BDR-206 Adapter: 1 ID: 0

Read mode : Secure
Utilize accurate stream : Yes
Defeat audio cache : Yes
Make use of C2 pointers : No

Read offset correction : 667
Overread into Lead-In and Lead-Out : No
Fill up missing offset samples with silence : Yes
Delete leading and trailing silent blocks : No
Null samples used in CRC calculations : Yes
Used interface : Native Win32 interface for Win NT & 2000
Gap handling : Appended to previous track

Used output format : User Defined Encoder
Selected bitrate : 896 kBit/s
Quality : High
Add ID3 tag : No
Command line compressor : C:\Program Files (x86)\Exact Audio Copy\Flac\flac.exe
Additional command line options : -8 -V -T "TITLE=%title%" -T "ARTIST=%artist%" -T "ALBUMARTIST=%albumartist%" -T "ALBUM=%albumtitle%" -T "DATE=%year%" -T "TRACKNUMBER=%tracknr%" -T "TRACKTOTAL=%numtracks%" -T "GENRE=%genre%" -T "COMMENT=%comment%" -T "PERFORMER=%albuminterpret%" -T "COMPOSER=%composer%" %source% -o %dest%


TOC of the extracted CD

Track | Start | Length | Start sector | End sector
––––––––––––––––––––––––––––-
1 | 0:00.00 | 3:32.10 | 0 | 15909
2 | 3:32.10 | 3:29.22 | 15910 | 31606
3 | 7:01.32 | 3:00.57 | 31607 | 45163
4 | 10:02.14 | 2:49.42 | 45164 | 57880
5 | 12:51.56 | 2:50.51 | 57881 | 70681
6 | 15:42.32 | 3:55.14 | 70682 | 88320
7 | 19:37.46 | 4:26.71 | 88321 | 108341
8 | 24:04.42 | 2:24.65 | 108342 | 119206
9 | 26:29.32 | 3:28.10 | 119207 | 134816
10 | 29:57.42 | 3:11.06 | 134817 | 149147
11 | 33:08.48 | 3:52.49 | 149148 | 166596
12 | 37:01.22 | 3:52.61 | 166597 | 184057
13 | 40:54.08 | 4:51.20 | 184058 | 205902
14 | 45:45.28 | 3:40.62 | 205903 | 222464
15 | 49:26.15 | 4:04.05 | 222465 | 240769
16 | 53:30.20 | 3:08.28 | 240770 | 254897
17 | 56:38.48 | 3:49.31 | 254898 | 272103
18 | 60:28.04 | 3:36.61 | 272104 | 288364


Track 1

Filename D:\EAC rips\VA - MTV Rocks CD3 (2018) [Flac+.cue]\01. Fall Out Boy - This Ain't a Scene, It's an Arms Race.wav

Pre-gap length 0:00:02.00

Peak level 98.8 %
Extraction speed 4.0 X
Track quality 99.9 %
Test CRC 5900EE0C
Copy CRC 5900EE0C
Track not present in AccurateRip database
Copy OK

Track 2

Filename D:\EAC rips\VA - MTV Rocks CD3 (2018) [Flac+.cue]\02. Ash - Burn Baby Burn.wav

Peak level 94.0 %
Extraction speed 4.9 X
Track quality 100.0 %
Test CRC EE171EFB
Copy CRC EE171EFB
Track not present in AccurateRip database
Copy OK

Track 3

Filename D:\EAC rips\VA - MTV Rocks CD3 (2018) [Flac+.cue]\03. The Offspring - The Kids Aren't Alright.wav

Peak level 98.8 %
Extraction speed 5.1 X
Track quality 100.0 %
Test CRC 0C7BE0D2
Copy CRC 0C7BE0D2
Track not present in AccurateRip database
Copy OK

Track 4

Filename D:\EAC rips\VA - MTV Rocks CD3 (2018) [Flac+.cue]\04. blink‐182 - The Rock Show.wav

Peak level 94.6 %
Extraction speed 5.3 X
Track quality 100.0 %
Test CRC 640D2D67
Copy CRC 640D2D67
Track not present in AccurateRip database
Copy OK

Track 5

Filename D:\EAC rips\VA - MTV Rocks CD3 (2018) [Flac+.cue]\05. Lit - My Own Worst Enemy.wav

Peak level 98.8 %
Extraction speed 5.5 X
Track quality 100.0 %
Test CRC 85A9406D
Copy CRC 85A9406D
Track not present in AccurateRip database
Copy OK

Track 6

Filename D:\EAC rips\VA - MTV Rocks CD3 (2018) [Flac+.cue]\06. 3 Doors Down - Kryptonite.wav

Peak level 98.8 %
Extraction speed 6.1 X
Track quality 100.0 %
Test CRC E441153D
Copy CRC E441153D
Track not present in AccurateRip database
Copy OK

Track 7

Filename D:\EAC rips\VA - MTV Rocks CD3 (2018) [Flac+.cue]\07. Korn - Freak on a Leash.wav

Peak level 98.8 %
Extraction speed 6.5 X
Track quality 100.0 %
Test CRC 09890001
Copy CRC 09890001
Track not present in AccurateRip database
Copy OK

Track 8

Filename D:\EAC rips\VA - MTV Rocks CD3 (2018) [Flac+.cue]\08. You Me at Six - Underdog.wav

Peak level 98.8 %
Extraction speed 6.2 X
Track quality 100.0 %
Test CRC BCC0BE29
Copy CRC BCC0BE29
Track not present in AccurateRip database
Copy OK

Track 9

Filename D:\EAC rips\VA - MTV Rocks CD3 (2018) [Flac+.cue]\09. Seether - Remedy.wav

Peak level 98.0 %
Extraction speed 5.9 X
Track quality 99.9 %
Test CRC C5B93D2E
Copy CRC C5B93D2E
Track not present in AccurateRip database
Copy OK

Track 10

Filename D:\EAC rips\VA - MTV Rocks CD3 (2018) [Flac+.cue]\10. The Red Jumpsuit Apparatus - Face Down (No Scream).wav

Peak level 98.8 %
Extraction speed 6.9 X
Track quality 100.0 %
Test CRC 742C150E
Copy CRC 742C150E
Track not present in AccurateRip database
Copy OK

Track 11

Filename D:\EAC rips\VA - MTV Rocks CD3 (2018) [Flac+.cue]\11. Angels & Airwaves - Everything's Magic.wav

Peak level 98.8 %
Extraction speed 7.4 X
Track quality 100.0 %
Test CRC E208AA67
Copy CRC E208AA67
Track not present in AccurateRip database
Copy OK

Track 12

Filename D:\EAC rips\VA - MTV Rocks CD3 (2018) [Flac+.cue]\12. Hoobastank - The Reason.wav

Peak level 98.8 %
Extraction speed 7.5 X
Track quality 100.0 %
Test CRC 4DD1E932
Copy CRC 4DD1E932
Track not present in AccurateRip database
Copy OK

Track 13

Filename D:\EAC rips\VA - MTV Rocks CD3 (2018) [Flac+.cue]\13. Staind - Outside.wav

Peak level 93.8 %
Extraction speed 8.0 X
Track quality 100.0 %
Test CRC F62E2F69
Copy CRC F62E2F69
Track not present in AccurateRip database
Copy OK

Track 14

Filename D:\EAC rips\VA - MTV Rocks CD3 (2018) [Flac+.cue]\14. Thrice - The Artist in the Ambulance.wav

Peak level 98.8 %
Extraction speed 7.8 X
Track quality 100.0 %
Test CRC 1EAB1878
Copy CRC 1EAB1878
Track not present in AccurateRip database
Copy OK

Track 15

Filename D:\EAC rips\VA - MTV Rocks CD3 (2018) [Flac+.cue]\15. Alexisonfire - This Could Be Anywhere in the World.wav

Peak level 98.8 %
Extraction speed 8.2 X
Track quality 100.0 %
Test CRC E8022FCB
Copy CRC E8022FCB
Track not present in AccurateRip database
Copy OK

Track 16

Filename D:\EAC rips\VA - MTV Rocks CD3 (2018) [Flac+.cue]\16. Anberlin - Feel Good Drag.wav

Peak level 98.8 %
Extraction speed 8.0 X
Track quality 100.0 %
Test CRC 3EC55CF0
Copy CRC 3EC55CF0
Track not present in AccurateRip database
Copy OK

Track 17

Filename D:\EAC rips\VA - MTV Rocks CD3 (2018) [Flac+.cue]\17. Goldfinger - 99 Red Balloons.wav

Peak level 98.8 %
Extraction speed 7.4 X
Track quality 99.9 %
Test CRC CBD5B9AF
Copy CRC CBD5B9AF
Track not present in AccurateRip database
Copy OK

Track 18

Filename D:\EAC rips\VA - MTV Rocks CD3 (2018) [Flac+.cue]\18. Deftones - My Own Summer (Shove It).wav

Peak level 98.8 %
Extraction speed 7.5 X
Track quality 99.9 %
Test CRC 619F6F61
Copy CRC 619F6F61
Track not present in AccurateRip database
Copy OK


None of the tracks are present in the AccurateRip database

No errors occurred

End of status report

–– CUETools DB Plugin V2.1.6

[CTDB TOCID: XZGhLEsNBYjTWXaaWJP0_knOSQ4-] found
Submit result: XZGhLEsNBYjTWXaaWJP0_knOSQ4- has been confirmed
Track | CTDB Status
1 | (9/9) Accurately ripped
2 | (9/9) Accurately ripped
3 | (9/9) Accurately ripped
4 | (9/9) Accurately ripped
5 | (9/9) Accurately ripped
6 | (9/9) Accurately ripped
7 | (9/9) Accurately ripped
8 | (9/9) Accurately ripped
9 | (9/9) Accurately ripped
10 | (9/9) Accurately ripped
11 | (9/9) Accurately ripped
12 | (9/9) Accurately ripped
13 | (9/9) Accurately ripped
14 | (9/9) Accurately ripped
15 | (9/9) Accurately ripped
16 | (9/9) Accurately ripped
17 | (9/9) Accurately ripped
18 | (9/9) Accurately ripped


==== Log checksum 7A44845A133DC2903EBA33EEF7B5BAE1F17916375758C17B38E584EB20848716 ====

Thanks to the Original ripper lagerlout !