Tags
Language
Tags

VA - Right Back Where We Started From: Female Pop And Soul In Seventies Britain (2020)

Posted By: delpotro
VA - Right Back Where We Started From: Female Pop And Soul In Seventies Britain (2020)

VA - Right Back Where We Started From: Female Pop And Soul In Seventies Britain (2020)
EAC Rip | FLAC (tracks+log+.cue) - 1,4 Gb | MP3 CBR 320 kbps - 532 Mb | Covers - 110 Mb | 03:52:26
Pop, Disco, Soul, Female Vocal | Label: RPM Records, Cherry Red Records

Back in 1975, Maxine Nightingale became an overnight sensation in the UK when her latest single, ‘Right Back Where We Started From’, stormed into the Top 10. Thereafter, the track’s catchy appeal spread like wildfire across the globe, topping the charts in Canada and the US and was a massive hit in most other countries.

Right Back Where We Started From” reflected a style of UK pop/soul, inspired by the Northern Soul scene in the North of England and revival of that classic 60s Motown sound. This 3-CD collection, the last to be released on legendary reissue label RPM, takes that classic hit as the catalyst to document a decade’s worth of British pop and soul from female singers.

Picking up where RPM’s “60s Girls” collection from 2017, Am I Dreaming?, left off, this 77-track collection spans the entire decade of the 1970s, with a mix of classics and obscurities, household names and total unknowns, chart hits and bona fide collectables.

Famous/hit artists include Dusty Springfield, Tina Charles, Petula Clark, Linda Lewis, Madeline Bell, Helen Shapiro, Eartha Kitt, Dana Gillespie, Yvonne Elliman, a young Hazel Dean, Jackie Trent (as Jackie & The Majestics), Lesley Duncan, Katie Kissoon, Billie Davis and Twinkle. Also included are visiting American soul singers Doris Troy and Doris Duke, as well as The Avengers actress Linda Thorson.

Some tracks, such as Disc 3 opener ‘Fever’, a cover of the Peggy Lee classic by Margie Miller, are now £100+ rarities in collector’s circles. Also included are numerous tracks new to CD on independent labels such as Chapter One, Route and Santa Ponsa.
Tracklist:
Disc 1 (01:17:36)
1. Maxine Nightingale – Right Back Where We Started From (03:15)
2. Val McKenna – Love Feeling (02:42)
3. Tina Harvey – Nowhere To Run (02:34)
4. The Notations – Need Your Love (02:58)
5. Etta Thomas – Ninety Nine Ways (02:33)
6. The Playthings – Stop What You're Doing (02:39)
7. Ruth Swann – Tainted Love (02:11)
8. Helen Shapiro – That's The Reason I Love You (02:54)
9. Linda Rothwell – Tell Me (04:13)
10. Honeyend – Heartbreaker (02:30)
11. The Flirtations – Little Darling (I Need You) (02:56)
12. Maria Morgan – Tell The World (02:55)
13. Hazel Dean – Our Day Will Come (03:14)
14. B.J. Arnau – I Want To Go Back There Again (02:46)
15. The Angelettes – I Surrender (03:01)
16. Polly Niles – If I Let You (02:29)
17. Birds Of A Feather – Leaving The Ghetto (02:23)
18. Diana Foster – I'm Gonna Share It With You (03:23)
19. Mother Trucker – Explosion In My Soul (02:42)
20. Paula Knight – It's The Same Old Song (03:03)
21. Penny Lane – Rock Me In The Cradle (Of Your Lovin' Arms) (03:13)
22. Romey Carr – These Things Will Keep Me Loving You (03:00)
23. Salena Jones – Baby, Don't Ya Get Crazy (02:45)
24. Diane Jones – My Man's A Sweet Man (02:38)
25. Wilma Reading – Two Can Have A Party (02:12)
26. Samantha Jones – Stop (02:39)
27. Carol Woods – I Wonder What Will Happen (03:48)

Disc 2 (01:17:21)
1. Madeline Bell – That's What Friends Are For (03:47)
2. Linda Lewis – Rock A Doodle Doo (03:24)
3. Doris Troy – Stretchin' Out (03:53)
4. The Big Spenders – Why Don't Cha Tend To Your Business (02:24)
5. Doris Duke – A Little Bit Of Lovin' (03:06)
6. Tommi – Let Your Love Fall Down (02:42)
7. Tina Charles – I Can't Dance To That Music You're Playin' (02:44)
8. The Chanter Sisters – Na Na Hey Hey (Kiss Him Goodbye) (04:14)
9. Barry St. John – My Man (03:24)
10. Cissy Stone – Gone But Not Forgotten (03:57)
11. Ann Christy – Secret Love (03:54)
12. Eleanor Keenan – Born To Be Loved (By You) (03:17)
13. Emmaline Jones – What Good Is I Love You (02:47)
14. Petula Clark – Right On (02:55)
15. Billie Davis – I've Been Loving Someone Else (02:40)
16. Chrissy Roberts – Something Good (02:20)
17. Linda Cable – It's Gonna Happen To You (02:45)
18. Lisa Collings – I'm Getting Hungry For Your Lovin' (02:20)
19. Janine Dexter – I Love Making Love To You (02:56)
20. Patti And The Patettes – Summer Heartbreak (03:13)
21. Sweetcorn – Catch Me, Catch Me (03:17)
22. Flirts – Give Him A Great Big Kiss (02:46)
23. Jo Ann Love – Everything I Need (02:55)
24. Lesley Duncan – The Magic's Fine (03:18)
25. Milly Scott – Sunshine In My Rainy Day Mind (02:23)

Disc 3 (01:17:30)
1. Margie Miller – Fever (03:07)
2. Dusty Springfield – Spooky (02:45)
3. Eartha Kitt – Hurdy Gurdy Man (02:37)
4. Julie Rogers – Baby Don't You Leave Me (02:44)
5. Linda Kendrick – Music Brings Us Joy (04:08)
6. Carol Hunter – Dr. Pepper (01:10)
7. Bridget St. John – Some Kind Of Beautiful (03:13)
8. Delsey McKay – Cast Your Spell On Me (03:18)
9. Dana Gillespie – All Cut Up On You (04:20)
10. Polly Perkins – The Bad Girl (02:47)
11. Jackie And The Majestics – Can't Give It Up No More (03:55)
12. Millicent Martin – Every Home Should Have One (02:31)
13. Samantha Sinclair – On A 'Plane To Nowhere (02:51)
14. Adrienne Posta – Express Yourself (02:57)
15. Linda Thorson – You Will Want Me (02:42)
16. Leonie Hawthorn – Everything I See (03:01)
17. Katie Kissoon – If Not For Your Love (03:33)
18. Grazina – It's My Party (02:56)
19. Twinkle Ripley – Caroline (03:30)
20. The Surprise Sisters – Born To Move (02:28)
21. Tiger Sue – When You Walked In The Room (02:46)
22. Bee – Tired Of Waiting (02:33)
23. Yvonne Elliman – I Can't Explain (03:13)
24. Blonde On Blonde – Whole Lotta Love (03:59)
25. Julie Sullivan – Fly, Little White Dove, Fly (04:26)

Exact Audio Copy V1.3 from 2. September 2016

EAC extraction logfile from 17. December 2020, 18:49

Various Artists / Right Back Where We Started From

Used drive : PLEXTOR PX-891SAF Adapter: 1 ID: 0

Read mode : Secure
Utilize accurate stream : Yes
Defeat audio cache : Yes
Make use of C2 pointers : No

Read offset correction : 6
Overread into Lead-In and Lead-Out : No
Fill up missing offset samples with silence : Yes
Delete leading and trailing silent blocks : No
Null samples used in CRC calculations : Yes
Used interface : Native Win32 interface for Win NT & 2000
Gap handling : Appended to previous track

Used output format : User Defined Encoder
Selected bitrate : 1024 kBit/s
Quality : High
Add ID3 tag : No
Command line compressor : C:\Program Files (x86)\Exact Audio Copy\Flac\flac.exe
Additional command line options : -8 -V -T "ARTIST=%artist%" -T "TITLE=%title%" -T "ALBUM=%albumtitle%" -T "DATE=%year%" -T "TRACKNUMBER=%tracknr%" -T "GENRE=%genre%" -T "PERFORMER=%albuminterpret%" -T "COMPOSER=%composer%" %haslyrics%–tag-from-file=LYRICS="%lyricsfile%"%haslyrics% -T "ALBUMARTIST=%albumartist%" -T "DISCNUMBER=%cdnumber%" -T "TOTALDISCS=%totalcds%" -T "TOTALTRACKS=%numtracks%" -T "COMMENT=%comment%" %source% -o %dest%


TOC of the extracted CD

Track | Start | Length | Start sector | End sector
––––––––––––––––––––––––––––-
1 | 0:00.00 | 3:14.55 | 0 | 14604
2 | 3:14.55 | 2:42.12 | 14605 | 26766
3 | 5:56.67 | 2:33.60 | 26767 | 38301
4 | 8:30.52 | 2:58.26 | 38302 | 51677
5 | 11:29.03 | 2:33.25 | 51678 | 63177
6 | 14:02.28 | 2:39.28 | 63178 | 75130
7 | 16:41.56 | 2:11.00 | 75131 | 84955
8 | 18:52.56 | 2:54.05 | 84956 | 98010
9 | 21:46.61 | 4:12.41 | 98011 | 116951
10 | 25:59.27 | 2:29.53 | 116952 | 128179
11 | 28:29.05 | 2:55.47 | 128180 | 141351
12 | 31:24.52 | 2:54.63 | 141352 | 154464
13 | 34:19.40 | 3:14.06 | 154465 | 169020
14 | 37:33.46 | 2:45.48 | 169021 | 181443
15 | 40:19.19 | 3:00.63 | 181444 | 195006
16 | 43:20.07 | 2:29.37 | 195007 | 206218
17 | 45:49.44 | 2:22.40 | 206219 | 216908
18 | 48:12.09 | 3:22.73 | 216909 | 232131
19 | 51:35.07 | 2:42.05 | 232132 | 244286
20 | 54:17.12 | 3:03.10 | 244287 | 258021
21 | 57:20.22 | 3:12.51 | 258022 | 272472
22 | 60:32.73 | 2:59.57 | 272473 | 285954
23 | 63:32.55 | 2:45.30 | 285955 | 298359
24 | 66:18.10 | 2:37.42 | 298360 | 310176
25 | 68:55.52 | 2:11.58 | 310177 | 320059
26 | 71:07.35 | 2:38.42 | 320060 | 331951
27 | 73:46.02 | 3:47.38 | 331952 | 349014


Track 1

Filename F:\#EAC wav+flac\#New\VA - Right Back Where We Started From\cd 1\01. Maxine Nightingale - Right Back Where We Started From.wav

Pre-gap length 0:00:02.00

Peak level 96.6 %
Extraction speed 5.4 X
Track quality 100.0 %
Test CRC 4A1B6557
Copy CRC 4A1B6557
Track not present in AccurateRip database
Copy OK

Track 2

Filename F:\#EAC wav+flac\#New\VA - Right Back Where We Started From\cd 1\02. Val McKenna - Love Feeling.wav

Pre-gap length 0:00:02.00

Peak level 96.6 %
Extraction speed 5.6 X
Track quality 100.0 %
Test CRC 341B6D97
Copy CRC 341B6D97
Track not present in AccurateRip database
Copy OK

Track 3

Filename F:\#EAC wav+flac\#New\VA - Right Back Where We Started From\cd 1\03. Tina Harvey - Nowhere To Run.wav

Pre-gap length 0:00:02.00

Peak level 96.6 %
Extraction speed 5.8 X
Track quality 100.0 %
Test CRC A3F912E4
Copy CRC A3F912E4
Track not present in AccurateRip database
Copy OK

Track 4

Filename F:\#EAC wav+flac\#New\VA - Right Back Where We Started From\cd 1\04. The Notations - Need Your Love.wav

Pre-gap length 0:00:02.00

Peak level 96.6 %
Extraction speed 6.3 X
Track quality 100.0 %
Test CRC 96E507C6
Copy CRC 96E507C6
Track not present in AccurateRip database
Copy OK

Track 5

Filename F:\#EAC wav+flac\#New\VA - Right Back Where We Started From\cd 1\05. Etta Thomas - Ninety Nine Ways.wav

Pre-gap length 0:00:02.00

Peak level 96.6 %
Extraction speed 4.9 X
Track quality 99.9 %
Test CRC 0502E40E
Copy CRC 0502E40E
Track not present in AccurateRip database
Copy OK

Track 6

Filename F:\#EAC wav+flac\#New\VA - Right Back Where We Started From\cd 1\06. The Playthings - Stop What You're Doing.wav

Pre-gap length 0:00:02.00

Peak level 96.6 %
Extraction speed 5.1 X
Track quality 99.9 %
Test CRC E09D7E17
Copy CRC E09D7E17
Track not present in AccurateRip database
Copy OK

Track 7

Filename F:\#EAC wav+flac\#New\VA - Right Back Where We Started From\cd 1\07. Ruth Swann - Tainted Love.wav

Pre-gap length 0:00:02.00

Peak level 96.6 %
Extraction speed 6.6 X
Track quality 100.0 %
Test CRC EACE46CF
Copy CRC EACE46CF
Track not present in AccurateRip database
Copy OK

Track 8

Filename F:\#EAC wav+flac\#New\VA - Right Back Where We Started From\cd 1\08. Helen Shapiro - That's The Reason I Love You.wav

Pre-gap length 0:00:02.00

Peak level 96.6 %
Extraction speed 7.2 X
Track quality 100.0 %
Test CRC F5A4EB6D
Copy CRC F5A4EB6D
Track not present in AccurateRip database
Copy OK

Track 9

Filename F:\#EAC wav+flac\#New\VA - Right Back Where We Started From\cd 1\09. Linda Rothwell - Tell Me.wav

Pre-gap length 0:00:02.00

Peak level 96.6 %
Extraction speed 7.9 X
Track quality 100.0 %
Test CRC E7D2132E
Copy CRC E7D2132E
Track not present in AccurateRip database
Copy OK

Track 10

Filename F:\#EAC wav+flac\#New\VA - Right Back Where We Started From\cd 1\10. Honeyend - Heartbreaker.wav

Pre-gap length 0:00:02.00

Peak level 96.6 %
Extraction speed 5.8 X
Track quality 99.9 %
Test CRC 68D0F9B3
Copy CRC 68D0F9B3
Track not present in AccurateRip database
Copy OK

Track 11

Filename F:\#EAC wav+flac\#New\VA - Right Back Where We Started From\cd 1\11. The Flirtations - Little Darling (I Need You).wav

Pre-gap length 0:00:02.00

Peak level 96.6 %
Extraction speed 6.4 X
Track quality 99.9 %
Test CRC AE45D117
Copy CRC AE45D117
Track not present in AccurateRip database
Copy OK

Track 12

Filename F:\#EAC wav+flac\#New\VA - Right Back Where We Started From\cd 1\12. Maria Morgan - Tell The World.wav

Pre-gap length 0:00:02.00

Peak level 96.6 %
Extraction speed 8.1 X
Track quality 100.0 %
Test CRC 0D2595E6
Copy CRC 0D2595E6
Track not present in AccurateRip database
Copy OK

Track 13

Filename F:\#EAC wav+flac\#New\VA - Right Back Where We Started From\cd 1\13. Hazel Dean - Our Day Will Come.wav

Pre-gap length 0:00:02.00

Peak level 96.6 %
Extraction speed 8.5 X
Track quality 100.0 %
Test CRC 0937EBE1
Copy CRC 0937EBE1
Track not present in AccurateRip database
Copy OK

Track 14

Filename F:\#EAC wav+flac\#New\VA - Right Back Where We Started From\cd 1\14. B.J. Arnau - I Want To Go Back There Again.wav

Pre-gap length 0:00:02.00

Peak level 96.6 %
Extraction speed 6.6 X
Track quality 99.9 %
Test CRC C6124627
Copy CRC C6124627
Track not present in AccurateRip database
Copy OK

Track 15

Filename F:\#EAC wav+flac\#New\VA - Right Back Where We Started From\cd 1\15. The Angelettes - I Surrender.wav

Pre-gap length 0:00:02.00

Peak level 96.6 %
Extraction speed 8.8 X
Track quality 100.0 %
Test CRC F433D2FA
Copy CRC F433D2FA
Track not present in AccurateRip database
Copy OK

Track 16

Filename F:\#EAC wav+flac\#New\VA - Right Back Where We Started From\cd 1\16. Polly Niles - If I Let You.wav

Pre-gap length 0:00:02.00

Peak level 96.6 %
Extraction speed 8.6 X
Track quality 100.0 %
Test CRC 8DA010FB
Copy CRC 8DA010FB
Track not present in AccurateRip database
Copy OK

Track 17

Filename F:\#EAC wav+flac\#New\VA - Right Back Where We Started From\cd 1\17. Birds Of A Feather - Leaving The Ghetto.wav

Pre-gap length 0:00:02.00

Peak level 96.6 %
Extraction speed 8.8 X
Track quality 100.0 %
Test CRC EE4B9BB6
Copy CRC EE4B9BB6
Track not present in AccurateRip database
Copy OK

Track 18

Filename F:\#EAC wav+flac\#New\VA - Right Back Where We Started From\cd 1\18. Diana Foster - I'm Gonna Share It With You.wav

Pre-gap length 0:00:02.00

Peak level 96.6 %
Extraction speed 9.5 X
Track quality 100.0 %
Test CRC E069C08E
Copy CRC E069C08E
Track not present in AccurateRip database
Copy OK

Track 19

Filename F:\#EAC wav+flac\#New\VA - Right Back Where We Started From\cd 1\19. Mother Trucker - Explosion In My Soul.wav

Pre-gap length 0:00:02.00

Peak level 96.6 %
Extraction speed 9.4 X
Track quality 100.0 %
Test CRC 5C9E3518
Copy CRC 5C9E3518
Track not present in AccurateRip database
Copy OK

Track 20

Filename F:\#EAC wav+flac\#New\VA - Right Back Where We Started From\cd 1\20. Paula Knight - It's The Same Old Song.wav

Pre-gap length 0:00:02.00

Peak level 96.6 %
Extraction speed 9.9 X
Track quality 100.0 %
Test CRC 43560EAD
Copy CRC 43560EAD
Track not present in AccurateRip database
Copy OK

Track 21

Filename F:\#EAC wav+flac\#New\VA - Right Back Where We Started From\cd 1\21. Penny Lane - Rock Me In The Cradle (Of Your Lovin' Arms).wav

Pre-gap length 0:00:02.00

Peak level 96.6 %
Extraction speed 10.1 X
Track quality 100.0 %
Test CRC CF5C9125
Copy CRC CF5C9125
Track not present in AccurateRip database
Copy OK

Track 22

Filename F:\#EAC wav+flac\#New\VA - Right Back Where We Started From\cd 1\22. Romey Carr - These Things Will Keep Me Loving You.wav

Pre-gap length 0:00:02.00

Peak level 96.6 %
Extraction speed 10.1 X
Track quality 100.0 %
Test CRC 232A1F74
Copy CRC 232A1F74
Track not present in AccurateRip database
Copy OK

Track 23

Filename F:\#EAC wav+flac\#New\VA - Right Back Where We Started From\cd 1\23. Salena Jones - Baby, Don't Ya Get Crazy.wav

Pre-gap length 0:00:02.00

Peak level 96.6 %
Extraction speed 10.2 X
Track quality 100.0 %
Test CRC 009CAD08
Copy CRC 009CAD08
Track not present in AccurateRip database
Copy OK

Track 24

Filename F:\#EAC wav+flac\#New\VA - Right Back Where We Started From\cd 1\24. Diane Jones - My Man's A Sweet Man.wav

Pre-gap length 0:00:02.00

Peak level 96.6 %
Extraction speed 10.1 X
Track quality 100.0 %
Test CRC FBEECAFC
Copy CRC FBEECAFC
Track not present in AccurateRip database
Copy OK

Track 25

Filename F:\#EAC wav+flac\#New\VA - Right Back Where We Started From\cd 1\25. Wilma Reading - Two Can Have A Party.wav

Pre-gap length 0:00:02.00

Peak level 96.6 %
Extraction speed 7.4 X
Track quality 99.9 %
Test CRC 7E195975
Copy CRC 7E195975
Track not present in AccurateRip database
Copy OK

Track 26

Filename F:\#EAC wav+flac\#New\VA - Right Back Where We Started From\cd 1\26. Samantha Jones - Stop.wav

Pre-gap length 0:00:02.00

Peak level 88.1 %
Extraction speed 10.5 X
Track quality 100.0 %
Test CRC D3928649
Copy CRC D3928649
Track not present in AccurateRip database
Copy OK

Track 27

Filename F:\#EAC wav+flac\#New\VA - Right Back Where We Started From\cd 1\27. Carol Woods - I Wonder What Will Happen.wav

Pre-gap length 0:00:02.00

Peak level 96.6 %
Extraction speed 11.1 X
Track quality 100.0 %
Test CRC EBEA76FE
Copy CRC EBEA76FE
Track not present in AccurateRip database
Copy OK


None of the tracks are present in the AccurateRip database

No errors occurred

End of status report

–– CUETools DB Plugin V2.1.6

[CTDB TOCID: pFZdSkMrJGUruwSfl5wmmfrT6lA-] found
Submit result: pFZdSkMrJGUruwSfl5wmmfrT6lA- has been confirmed
Track | CTDB Status
1 | (2/2) Accurately ripped
2 | (2/2) Accurately ripped
3 | (2/2) Accurately ripped
4 | (2/2) Accurately ripped
5 | (2/2) Accurately ripped
6 | (2/2) Accurately ripped
7 | (2/2) Accurately ripped
8 | (2/2) Accurately ripped
9 | (2/2) Accurately ripped
10 | (2/2) Accurately ripped
11 | (2/2) Accurately ripped
12 | (2/2) Accurately ripped
13 | (2/2) Accurately ripped
14 | (2/2) Accurately ripped
15 | (2/2) Accurately ripped
16 | (2/2) Accurately ripped
17 | (2/2) Accurately ripped
18 | (2/2) Accurately ripped
19 | (2/2) Accurately ripped
20 | (2/2) Accurately ripped
21 | (2/2) Accurately ripped
22 | (2/2) Accurately ripped
23 | (2/2) Accurately ripped
24 | (2/2) Accurately ripped
25 | (2/2) Accurately ripped
26 | (2/2) Accurately ripped
27 | (2/2) Accurately ripped


==== Log checksum 347DC36E1CF4C2308F1A51F0365CFD6D0CA76704BC5B5E892797C38F35D2238C ====

––––––––––––––––––––––––––––––

Exact Audio Copy V1.3 from 2. September 2016

EAC extraction logfile from 17. December 2020, 18:49

Various Artists / Right Back Where We Started From

Used drive : PLEXTOR PX-891SAF Adapter: 1 ID: 0

Read mode : Secure
Utilize accurate stream : Yes
Defeat audio cache : Yes
Make use of C2 pointers : No

Read offset correction : 6
Overread into Lead-In and Lead-Out : No
Fill up missing offset samples with silence : Yes
Delete leading and trailing silent blocks : No
Null samples used in CRC calculations : Yes
Used interface : Native Win32 interface for Win NT & 2000
Gap handling : Appended to previous track

Used output format : User Defined Encoder
Selected bitrate : 1024 kBit/s
Quality : High
Add ID3 tag : No
Command line compressor : C:\Program Files (x86)\Exact Audio Copy\Flac\flac.exe
Additional command line options : -8 -V -T "ARTIST=%artist%" -T "TITLE=%title%" -T "ALBUM=%albumtitle%" -T "DATE=%year%" -T "TRACKNUMBER=%tracknr%" -T "GENRE=%genre%" -T "PERFORMER=%albuminterpret%" -T "COMPOSER=%composer%" %haslyrics%–tag-from-file=LYRICS="%lyricsfile%"%haslyrics% -T "ALBUMARTIST=%albumartist%" -T "DISCNUMBER=%cdnumber%" -T "TOTALDISCS=%totalcds%" -T "TOTALTRACKS=%numtracks%" -T "COMMENT=%comment%" %source% -o %dest%


TOC of the extracted CD

Track | Start | Length | Start sector | End sector
––––––––––––––––––––––––––––-
1 | 0:00.00 | 3:14.55 | 0 | 14604
2 | 3:14.55 | 2:42.12 | 14605 | 26766
3 | 5:56.67 | 2:33.60 | 26767 | 38301
4 | 8:30.52 | 2:58.26 | 38302 | 51677
5 | 11:29.03 | 2:33.25 | 51678 | 63177
6 | 14:02.28 | 2:39.28 | 63178 | 75130
7 | 16:41.56 | 2:11.00 | 75131 | 84955
8 | 18:52.56 | 2:54.05 | 84956 | 98010
9 | 21:46.61 | 4:12.41 | 98011 | 116951
10 | 25:59.27 | 2:29.53 | 116952 | 128179
11 | 28:29.05 | 2:55.47 | 128180 | 141351
12 | 31:24.52 | 2:54.63 | 141352 | 154464
13 | 34:19.40 | 3:14.06 | 154465 | 169020
14 | 37:33.46 | 2:45.48 | 169021 | 181443
15 | 40:19.19 | 3:00.63 | 181444 | 195006
16 | 43:20.07 | 2:29.37 | 195007 | 206218
17 | 45:49.44 | 2:22.40 | 206219 | 216908
18 | 48:12.09 | 3:22.73 | 216909 | 232131
19 | 51:35.07 | 2:42.05 | 232132 | 244286
20 | 54:17.12 | 3:03.10 | 244287 | 258021
21 | 57:20.22 | 3:12.51 | 258022 | 272472
22 | 60:32.73 | 2:59.57 | 272473 | 285954
23 | 63:32.55 | 2:45.30 | 285955 | 298359
24 | 66:18.10 | 2:37.42 | 298360 | 310176
25 | 68:55.52 | 2:11.58 | 310177 | 320059
26 | 71:07.35 | 2:38.42 | 320060 | 331951
27 | 73:46.02 | 3:47.38 | 331952 | 349014


Track 1

Filename F:\#EAC wav+flac\#New\VA - Right Back Where We Started From\cd 1\01. Maxine Nightingale - Right Back Where We Started From.wav

Pre-gap length 0:00:02.00

Peak level 96.6 %
Extraction speed 5.4 X
Track quality 100.0 %
Test CRC 4A1B6557
Copy CRC 4A1B6557
Track not present in AccurateRip database
Copy OK

Track 2

Filename F:\#EAC wav+flac\#New\VA - Right Back Where We Started From\cd 1\02. Val McKenna - Love Feeling.wav

Pre-gap length 0:00:02.00

Peak level 96.6 %
Extraction speed 5.6 X
Track quality 100.0 %
Test CRC 341B6D97
Copy CRC 341B6D97
Track not present in AccurateRip database
Copy OK

Track 3

Filename F:\#EAC wav+flac\#New\VA - Right Back Where We Started From\cd 1\03. Tina Harvey - Nowhere To Run.wav

Pre-gap length 0:00:02.00

Peak level 96.6 %
Extraction speed 5.8 X
Track quality 100.0 %
Test CRC A3F912E4
Copy CRC A3F912E4
Track not present in AccurateRip database
Copy OK

Track 4

Filename F:\#EAC wav+flac\#New\VA - Right Back Where We Started From\cd 1\04. The Notations - Need Your Love.wav

Pre-gap length 0:00:02.00

Peak level 96.6 %
Extraction speed 6.3 X
Track quality 100.0 %
Test CRC 96E507C6
Copy CRC 96E507C6
Track not present in AccurateRip database
Copy OK

Track 5

Filename F:\#EAC wav+flac\#New\VA - Right Back Where We Started From\cd 1\05. Etta Thomas - Ninety Nine Ways.wav

Pre-gap length 0:00:02.00

Peak level 96.6 %
Extraction speed 4.9 X
Track quality 99.9 %
Test CRC 0502E40E
Copy CRC 0502E40E
Track not present in AccurateRip database
Copy OK

Track 6

Filename F:\#EAC wav+flac\#New\VA - Right Back Where We Started From\cd 1\06. The Playthings - Stop What You're Doing.wav

Pre-gap length 0:00:02.00

Peak level 96.6 %
Extraction speed 5.1 X
Track quality 99.9 %
Test CRC E09D7E17
Copy CRC E09D7E17
Track not present in AccurateRip database
Copy OK

Track 7

Filename F:\#EAC wav+flac\#New\VA - Right Back Where We Started From\cd 1\07. Ruth Swann - Tainted Love.wav

Pre-gap length 0:00:02.00

Peak level 96.6 %
Extraction speed 6.6 X
Track quality 100.0 %
Test CRC EACE46CF
Copy CRC EACE46CF
Track not present in AccurateRip database
Copy OK

Track 8

Filename F:\#EAC wav+flac\#New\VA - Right Back Where We Started From\cd 1\08. Helen Shapiro - That's The Reason I Love You.wav

Pre-gap length 0:00:02.00

Peak level 96.6 %
Extraction speed 7.2 X
Track quality 100.0 %
Test CRC F5A4EB6D
Copy CRC F5A4EB6D
Track not present in AccurateRip database
Copy OK

Track 9

Filename F:\#EAC wav+flac\#New\VA - Right Back Where We Started From\cd 1\09. Linda Rothwell - Tell Me.wav

Pre-gap length 0:00:02.00

Peak level 96.6 %
Extraction speed 7.9 X
Track quality 100.0 %
Test CRC E7D2132E
Copy CRC E7D2132E
Track not present in AccurateRip database
Copy OK

Track 10

Filename F:\#EAC wav+flac\#New\VA - Right Back Where We Started From\cd 1\10. Honeyend - Heartbreaker.wav

Pre-gap length 0:00:02.00

Peak level 96.6 %
Extraction speed 5.8 X
Track quality 99.9 %
Test CRC 68D0F9B3
Copy CRC 68D0F9B3
Track not present in AccurateRip database
Copy OK

Track 11

Filename F:\#EAC wav+flac\#New\VA - Right Back Where We Started From\cd 1\11. The Flirtations - Little Darling (I Need You).wav

Pre-gap length 0:00:02.00

Peak level 96.6 %
Extraction speed 6.4 X
Track quality 99.9 %
Test CRC AE45D117
Copy CRC AE45D117
Track not present in AccurateRip database
Copy OK

Track 12

Filename F:\#EAC wav+flac\#New\VA - Right Back Where We Started From\cd 1\12. Maria Morgan - Tell The World.wav

Pre-gap length 0:00:02.00

Peak level 96.6 %
Extraction speed 8.1 X
Track quality 100.0 %
Test CRC 0D2595E6
Copy CRC 0D2595E6
Track not present in AccurateRip database
Copy OK

Track 13

Filename F:\#EAC wav+flac\#New\VA - Right Back Where We Started From\cd 1\13. Hazel Dean - Our Day Will Come.wav

Pre-gap length 0:00:02.00

Peak level 96.6 %
Extraction speed 8.5 X
Track quality 100.0 %
Test CRC 0937EBE1
Copy CRC 0937EBE1
Track not present in AccurateRip database
Copy OK

Track 14

Filename F:\#EAC wav+flac\#New\VA - Right Back Where We Started From\cd 1\14. B.J. Arnau - I Want To Go Back There Again.wav

Pre-gap length 0:00:02.00

Peak level 96.6 %
Extraction speed 6.6 X
Track quality 99.9 %
Test CRC C6124627
Copy CRC C6124627
Track not present in AccurateRip database
Copy OK

Track 15

Filename F:\#EAC wav+flac\#New\VA - Right Back Where We Started From\cd 1\15. The Angelettes - I Surrender.wav

Pre-gap length 0:00:02.00

Peak level 96.6 %
Extraction speed 8.8 X
Track quality 100.0 %
Test CRC F433D2FA
Copy CRC F433D2FA
Track not present in AccurateRip database
Copy OK

Track 16

Filename F:\#EAC wav+flac\#New\VA - Right Back Where We Started From\cd 1\16. Polly Niles - If I Let You.wav

Pre-gap length 0:00:02.00

Peak level 96.6 %
Extraction speed 8.6 X
Track quality 100.0 %
Test CRC 8DA010FB
Copy CRC 8DA010FB
Track not present in AccurateRip database
Copy OK

Track 17

Filename F:\#EAC wav+flac\#New\VA - Right Back Where We Started From\cd 1\17. Birds Of A Feather - Leaving The Ghetto.wav

Pre-gap length 0:00:02.00

Peak level 96.6 %
Extraction speed 8.8 X
Track quality 100.0 %
Test CRC EE4B9BB6
Copy CRC EE4B9BB6
Track not present in AccurateRip database
Copy OK

Track 18

Filename F:\#EAC wav+flac\#New\VA - Right Back Where We Started From\cd 1\18. Diana Foster - I'm Gonna Share It With You.wav

Pre-gap length 0:00:02.00

Peak level 96.6 %
Extraction speed 9.5 X
Track quality 100.0 %
Test CRC E069C08E
Copy CRC E069C08E
Track not present in AccurateRip database
Copy OK

Track 19

Filename F:\#EAC wav+flac\#New\VA - Right Back Where We Started From\cd 1\19. Mother Trucker - Explosion In My Soul.wav

Pre-gap length 0:00:02.00

Peak level 96.6 %
Extraction speed 9.4 X
Track quality 100.0 %
Test CRC 5C9E3518
Copy CRC 5C9E3518
Track not present in AccurateRip database
Copy OK

Track 20

Filename F:\#EAC wav+flac\#New\VA - Right Back Where We Started From\cd 1\20. Paula Knight - It's The Same Old Song.wav

Pre-gap length 0:00:02.00

Peak level 96.6 %
Extraction speed 9.9 X
Track quality 100.0 %
Test CRC 43560EAD
Copy CRC 43560EAD
Track not present in AccurateRip database
Copy OK

Track 21

Filename F:\#EAC wav+flac\#New\VA - Right Back Where We Started From\cd 1\21. Penny Lane - Rock Me In The Cradle (Of Your Lovin' Arms).wav

Pre-gap length 0:00:02.00

Peak level 96.6 %
Extraction speed 10.1 X
Track quality 100.0 %
Test CRC CF5C9125
Copy CRC CF5C9125
Track not present in AccurateRip database
Copy OK

Track 22

Filename F:\#EAC wav+flac\#New\VA - Right Back Where We Started From\cd 1\22. Romey Carr - These Things Will Keep Me Loving You.wav

Pre-gap length 0:00:02.00

Peak level 96.6 %
Extraction speed 10.1 X
Track quality 100.0 %
Test CRC 232A1F74
Copy CRC 232A1F74
Track not present in AccurateRip database
Copy OK

Track 23

Filename F:\#EAC wav+flac\#New\VA - Right Back Where We Started From\cd 1\23. Salena Jones - Baby, Don't Ya Get Crazy.wav

Pre-gap length 0:00:02.00

Peak level 96.6 %
Extraction speed 10.2 X
Track quality 100.0 %
Test CRC 009CAD08
Copy CRC 009CAD08
Track not present in AccurateRip database
Copy OK

Track 24

Filename F:\#EAC wav+flac\#New\VA - Right Back Where We Started From\cd 1\24. Diane Jones - My Man's A Sweet Man.wav

Pre-gap length 0:00:02.00

Peak level 96.6 %
Extraction speed 10.1 X
Track quality 100.0 %
Test CRC FBEECAFC
Copy CRC FBEECAFC
Track not present in AccurateRip database
Copy OK

Track 25

Filename F:\#EAC wav+flac\#New\VA - Right Back Where We Started From\cd 1\25. Wilma Reading - Two Can Have A Party.wav

Pre-gap length 0:00:02.00

Peak level 96.6 %
Extraction speed 7.4 X
Track quality 99.9 %
Test CRC 7E195975
Copy CRC 7E195975
Track not present in AccurateRip database
Copy OK

Track 26

Filename F:\#EAC wav+flac\#New\VA - Right Back Where We Started From\cd 1\26. Samantha Jones - Stop.wav

Pre-gap length 0:00:02.00

Peak level 88.1 %
Extraction speed 10.5 X
Track quality 100.0 %
Test CRC D3928649
Copy CRC D3928649
Track not present in AccurateRip database
Copy OK

Track 27

Filename F:\#EAC wav+flac\#New\VA - Right Back Where We Started From\cd 1\27. Carol Woods - I Wonder What Will Happen.wav

Pre-gap length 0:00:02.00

Peak level 96.6 %
Extraction speed 11.1 X
Track quality 100.0 %
Test CRC EBEA76FE
Copy CRC EBEA76FE
Track not present in AccurateRip database
Copy OK


None of the tracks are present in the AccurateRip database

No errors occurred

End of status report

–– CUETools DB Plugin V2.1.6

[CTDB TOCID: pFZdSkMrJGUruwSfl5wmmfrT6lA-] found
Submit result: pFZdSkMrJGUruwSfl5wmmfrT6lA- has been confirmed
Track | CTDB Status
1 | (2/2) Accurately ripped
2 | (2/2) Accurately ripped
3 | (2/2) Accurately ripped
4 | (2/2) Accurately ripped
5 | (2/2) Accurately ripped
6 | (2/2) Accurately ripped
7 | (2/2) Accurately ripped
8 | (2/2) Accurately ripped
9 | (2/2) Accurately ripped
10 | (2/2) Accurately ripped
11 | (2/2) Accurately ripped
12 | (2/2) Accurately ripped
13 | (2/2) Accurately ripped
14 | (2/2) Accurately ripped
15 | (2/2) Accurately ripped
16 | (2/2) Accurately ripped
17 | (2/2) Accurately ripped
18 | (2/2) Accurately ripped
19 | (2/2) Accurately ripped
20 | (2/2) Accurately ripped
21 | (2/2) Accurately ripped
22 | (2/2) Accurately ripped
23 | (2/2) Accurately ripped
24 | (2/2) Accurately ripped
25 | (2/2) Accurately ripped
26 | (2/2) Accurately ripped
27 | (2/2) Accurately ripped


==== Log checksum 347DC36E1CF4C2308F1A51F0365CFD6D0CA76704BC5B5E892797C38F35D2238C ====
Exact Audio Copy V1.3 from 2. September 2016

EAC extraction logfile from 17. December 2020, 19:30

Various Artists / Right Back Where We Started From

Used drive : PLEXTOR PX-891SAF Adapter: 1 ID: 0

Read mode : Secure
Utilize accurate stream : Yes
Defeat audio cache : Yes
Make use of C2 pointers : No

Read offset correction : 6
Overread into Lead-In and Lead-Out : No
Fill up missing offset samples with silence : Yes
Delete leading and trailing silent blocks : No
Null samples used in CRC calculations : Yes
Used interface : Native Win32 interface for Win NT & 2000
Gap handling : Appended to previous track

Used output format : User Defined Encoder
Selected bitrate : 1024 kBit/s
Quality : High
Add ID3 tag : No
Command line compressor : C:\Program Files (x86)\Exact Audio Copy\Flac\flac.exe
Additional command line options : -8 -V -T "ARTIST=%artist%" -T "TITLE=%title%" -T "ALBUM=%albumtitle%" -T "DATE=%year%" -T "TRACKNUMBER=%tracknr%" -T "GENRE=%genre%" -T "PERFORMER=%albuminterpret%" -T "COMPOSER=%composer%" %haslyrics%–tag-from-file=LYRICS="%lyricsfile%"%haslyrics% -T "ALBUMARTIST=%albumartist%" -T "DISCNUMBER=%cdnumber%" -T "TOTALDISCS=%totalcds%" -T "TOTALTRACKS=%numtracks%" -T "COMMENT=%comment%" %source% -o %dest%


TOC of the extracted CD

Track | Start | Length | Start sector | End sector
––––––––––––––––––––––––––––-
1 | 0:00.00 | 3:47.10 | 0 | 17034
2 | 3:47.10 | 3:24.25 | 17035 | 32359
3 | 7:11.35 | 3:52.61 | 32360 | 49820
4 | 11:04.21 | 2:24.36 | 49821 | 60656
5 | 13:28.57 | 3:06.31 | 60657 | 74637
6 | 16:35.13 | 2:41.63 | 74638 | 86775
7 | 19:17.01 | 2:43.49 | 86776 | 99049
8 | 22:00.50 | 4:14.01 | 99050 | 118100
9 | 26:14.51 | 3:24.25 | 118101 | 133425
10 | 29:39.01 | 3:56.61 | 133426 | 151186
11 | 33:35.62 | 3:54.33 | 151187 | 168769
12 | 37:30.20 | 3:16.41 | 168770 | 183510
13 | 40:46.61 | 2:46.40 | 183511 | 196000
14 | 43:33.26 | 2:55.13 | 196001 | 209138
15 | 46:28.39 | 2:40.29 | 209139 | 221167
16 | 49:08.68 | 2:19.39 | 221168 | 231631
17 | 51:28.32 | 2:44.56 | 231632 | 243987
18 | 54:13.13 | 2:19.72 | 243988 | 254484
19 | 56:33.10 | 2:56.24 | 254485 | 267708
20 | 59:29.34 | 3:12.60 | 267709 | 282168
21 | 62:42.19 | 3:17.06 | 282169 | 296949
22 | 65:59.25 | 2:45.50 | 296950 | 309374
23 | 68:45.00 | 2:54.45 | 309375 | 322469
24 | 71:39.45 | 3:18.08 | 322470 | 337327
25 | 74:57.53 | 2:22.65 | 337328 | 348042


Track 1

Filename F:\#EAC wav+flac\#New\VA - Right Back Where We Started From\cd 2\01. Madeline Bell - That's What Friends Are For.wav

Pre-gap length 0:00:02.00

Peak level 96.6 %
Extraction speed 2.9 X
Track quality 100.0 %
Test CRC C7A70402
Copy CRC C7A70402
Track not present in AccurateRip database
Copy OK

Track 2

Filename F:\#EAC wav+flac\#New\VA - Right Back Where We Started From\cd 2\02. Linda Lewis - Rock A Doodle Doo.wav

Pre-gap length 0:00:02.00

Peak level 96.6 %
Extraction speed 3.1 X
Track quality 100.0 %
Test CRC F91ADC2C
Copy CRC F91ADC2C
Track not present in AccurateRip database
Copy OK

Track 3

Filename F:\#EAC wav+flac\#New\VA - Right Back Where We Started From\cd 2\03. Doris Troy - Stretchin' Out.wav

Pre-gap length 0:00:02.00

Peak level 87.3 %
Extraction speed 3.3 X
Track quality 100.0 %
Test CRC 4C24521F
Copy CRC 4C24521F
Track not present in AccurateRip database
Copy OK

Track 4

Filename F:\#EAC wav+flac\#New\VA - Right Back Where We Started From\cd 2\04. The Big Spenders - Why Don't Cha Tend To Your Business.wav

Pre-gap length 0:00:02.00

Peak level 96.6 %
Extraction speed 3.2 X
Track quality 100.0 %
Test CRC E97AB30B
Copy CRC E97AB30B
Track not present in AccurateRip database
Copy OK

Track 5

Filename F:\#EAC wav+flac\#New\VA - Right Back Where We Started From\cd 2\05. Doris Duke - A Little Bit Of Lovin'.wav

Pre-gap length 0:00:02.00

Peak level 96.6 %
Extraction speed 3.5 X
Track quality 100.0 %
Test CRC 9CEDBBB4
Copy CRC 9CEDBBB4
Track not present in AccurateRip database
Copy OK

Track 6

Filename F:\#EAC wav+flac\#New\VA - Right Back Where We Started From\cd 2\06. Tommi - Let Your Love Fall Down.wav

Pre-gap length 0:00:02.00

Peak level 96.6 %
Extraction speed 3.6 X
Track quality 100.0 %
Test CRC 47DBB753
Copy CRC 47DBB753
Track not present in AccurateRip database
Copy OK

Track 7

Filename F:\#EAC wav+flac\#New\VA - Right Back Where We Started From\cd 2\07. Tina Charles - I Can't Dance To That Music You're Playin'.wav

Pre-gap length 0:00:02.00

Peak level 96.6 %
Extraction speed 2.7 X
Track quality 99.9 %
Test CRC AA66710E
Copy CRC AA66710E
Track not present in AccurateRip database
Copy OK

Track 8

Filename F:\#EAC wav+flac\#New\VA - Right Back Where We Started From\cd 2\08. The Chanter Sisters - Na Na Hey Hey (Kiss Him Goodbye).wav

Pre-gap length 0:00:02.00

Peak level 96.6 %
Extraction speed 4.2 X
Track quality 100.0 %
Test CRC B85CA526
Copy CRC B85CA526
Track not present in AccurateRip database
Copy OK

Track 9

Filename F:\#EAC wav+flac\#New\VA - Right Back Where We Started From\cd 2\09. Barry St. John - My Man.wav

Pre-gap length 0:00:02.00

Peak level 96.6 %
Extraction speed 4.2 X
Track quality 100.0 %
Test CRC 694B24F1
Copy CRC 694B24F1
Track not present in AccurateRip database
Copy OK

Track 10

Filename F:\#EAC wav+flac\#New\VA - Right Back Where We Started From\cd 2\10. Cissy Stone - Gone But Not Forgotten.wav

Pre-gap length 0:00:02.00

Peak level 96.6 %
Extraction speed 4.5 X
Track quality 100.0 %
Test CRC 5EBEAA91
Copy CRC 5EBEAA91
Track not present in AccurateRip database
Copy OK

Track 11

Filename F:\#EAC wav+flac\#New\VA - Right Back Where We Started From\cd 2\11. Ann Christy - Secret Love.wav

Pre-gap length 0:00:01.94

Peak level 96.6 %
Extraction speed 4.6 X
Track quality 100.0 %
Test CRC C30C44C3
Copy CRC C30C44C3
Track not present in AccurateRip database
Copy OK

Track 12

Filename F:\#EAC wav+flac\#New\VA - Right Back Where We Started From\cd 2\12. Eleanor Keenan - Born To Be Loved (By You).wav

Pre-gap length 0:00:01.98

Peak level 96.6 %
Extraction speed 3.6 X
Track quality 99.9 %
Test CRC FF242493
Copy CRC FF242493
Track not present in AccurateRip database
Copy OK

Track 13

Filename F:\#EAC wav+flac\#New\VA - Right Back Where We Started From\cd 2\13. Emmaline Jones - What Good Is I Love You.wav

Pre-gap length 0:00:01.98

Peak level 96.6 %
Extraction speed 4.6 X
Track quality 100.0 %
Test CRC C95EE622
Copy CRC C95EE622
Track not present in AccurateRip database
Copy OK

Track 14

Filename F:\#EAC wav+flac\#New\VA - Right Back Where We Started From\cd 2\14. Petula Clark - Right On.wav

Pre-gap length 0:00:01.98

Peak level 96.6 %
Extraction speed 4.8 X
Track quality 100.0 %
Test CRC 62D76889
Copy CRC 62D76889
Track not present in AccurateRip database
Copy OK

Track 15

Filename F:\#EAC wav+flac\#New\VA - Right Back Where We Started From\cd 2\15. Billie Davis - I've Been Loving Someone Else.wav

Pre-gap length 0:00:01.97

Peak level 96.6 %
Extraction speed 4.8 X
Track quality 100.0 %
Test CRC 5B8AEED4
Copy CRC 5B8AEED4
Track not present in AccurateRip database
Copy OK

Track 16

Filename F:\#EAC wav+flac\#New\VA - Right Back Where We Started From\cd 2\16. Chrissy Roberts - Something Good.wav

Pre-gap length 0:00:03.49

Peak level 96.6 %
Extraction speed 4.8 X
Track quality 100.0 %
Test CRC 752E0071
Copy CRC 752E0071
Track not present in AccurateRip database
Copy OK

Track 17

Filename F:\#EAC wav+flac\#New\VA - Right Back Where We Started From\cd 2\17. Linda Cable - It's Gonna Happen To You.wav

Pre-gap length 0:00:01.98

Peak level 96.6 %
Extraction speed 4.9 X
Track quality 100.0 %
Test CRC D3B1EFE1
Copy CRC D3B1EFE1
Track not present in AccurateRip database
Copy OK

Track 18

Filename F:\#EAC wav+flac\#New\VA - Right Back Where We Started From\cd 2\18. Lisa Collings - I'm Getting Hungry For Your Lovin'.wav

Pre-gap length 0:00:01.06

Peak level 96.6 %
Extraction speed 4.9 X
Track quality 100.0 %
Test CRC AE50EDCA
Copy CRC AE50EDCA
Track not present in AccurateRip database
Copy OK

Track 19

Filename F:\#EAC wav+flac\#New\VA - Right Back Where We Started From\cd 2\19. Janine Dexter - I Love Making Love To You.wav

Pre-gap length 0:00:01.98

Peak level 96.6 %
Extraction speed 5.1 X
Track quality 100.0 %
Test CRC A356D0EA
Copy CRC A356D0EA
Track not present in AccurateRip database
Copy OK

Track 20

Filename F:\#EAC wav+flac\#New\VA - Right Back Where We Started From\cd 2\20. Patti And The Patettes - Summer Heartbreak.wav

Pre-gap length 0:00:01.97

Peak level 96.6 %
Extraction speed 5.5 X
Track quality 100.0 %
Test CRC 8F84FC08
Copy CRC 8F84FC08
Track not present in AccurateRip database
Copy OK

Track 21

Filename F:\#EAC wav+flac\#New\VA - Right Back Where We Started From\cd 2\21. Sweetcorn - Catch Me, Catch Me.wav

Pre-gap length 0:00:01.98

Peak level 96.6 %
Extraction speed 5.5 X
Track quality 100.0 %
Test CRC B7A97AE5
Copy CRC B7A97AE5
Track not present in AccurateRip database
Copy OK

Track 22

Filename F:\#EAC wav+flac\#New\VA - Right Back Where We Started From\cd 2\22. Flirts - Give Him A Great Big Kiss.wav

Pre-gap length 0:00:01.98

Peak level 96.6 %
Extraction speed 4.1 X
Track quality 99.9 %
Test CRC ED342E85
Copy CRC ED342E85
Track not present in AccurateRip database
Copy OK

Track 23

Filename F:\#EAC wav+flac\#New\VA - Right Back Where We Started From\cd 2\23. Jo Ann Love - Everything I Need.wav

Pre-gap length 0:00:01.98

Peak level 96.6 %
Extraction speed 4.1 X
Track quality 99.9 %
Test CRC 40582339
Copy CRC 40582339
Track not present in AccurateRip database
Copy OK

Track 24

Filename F:\#EAC wav+flac\#New\VA - Right Back Where We Started From\cd 2\24. Lesley Duncan - The Magic's Fine.wav

Pre-gap length 0:00:01.98

Peak level 96.6 %
Extraction speed 5.7 X
Track quality 100.0 %
Test CRC 1D1AB9A8
Copy CRC 1D1AB9A8
Track not present in AccurateRip database
Copy OK

Track 25

Filename F:\#EAC wav+flac\#New\VA - Right Back Where We Started From\cd 2\25. Milly Scott - Sunshine In My Rainy Day Mind.wav

Pre-gap length 0:00:01.98

Peak level 96.6 %
Extraction speed 5.5 X
Track quality 100.0 %
Test CRC 4E88B40E
Copy CRC 4E88B40E
Track not present in AccurateRip database
Copy OK


None of the tracks are present in the AccurateRip database

No errors occurred

End of status report

–– CUETools DB Plugin V2.1.6

[CTDB TOCID: SjwjZ7pyO8lwcNYygHTleScKOiE-] found
Submit result: SjwjZ7pyO8lwcNYygHTleScKOiE- has been confirmed
Track | CTDB Status
1 | (2/2) Accurately ripped
2 | (2/2) Accurately ripped
3 | (2/2) Accurately ripped
4 | (2/2) Accurately ripped
5 | (2/2) Accurately ripped
6 | (2/2) Accurately ripped
7 | (2/2) Accurately ripped
8 | (2/2) Accurately ripped
9 | (2/2) Accurately ripped
10 | (2/2) Accurately ripped
11 | (2/2) Accurately ripped
12 | (2/2) Accurately ripped
13 | (2/2) Accurately ripped
14 | (2/2) Accurately ripped
15 | (2/2) Accurately ripped
16 | (2/2) Accurately ripped
17 | (2/2) Accurately ripped
18 | (2/2) Accurately ripped
19 | (2/2) Accurately ripped
20 | (1/2) Accurately ripped
21 | (1/2) Accurately ripped
22 | (1/2) Accurately ripped
23 | (1/2) Accurately ripped
24 | (1/2) Accurately ripped
25 | (1/2) Accurately ripped


==== Log checksum 9A3F1697F8569ADD0DF85EDE8C4E61E348B3925973FB51C42D271C43BD735968 ====

––––––––––––––––––––––––––––––

Exact Audio Copy V1.3 from 2. September 2016

EAC extraction logfile from 17. December 2020, 19:30

Various Artists / Right Back Where We Started From

Used drive : PLEXTOR PX-891SAF Adapter: 1 ID: 0

Read mode : Secure
Utilize accurate stream : Yes
Defeat audio cache : Yes
Make use of C2 pointers : No

Read offset correction : 6
Overread into Lead-In and Lead-Out : No
Fill up missing offset samples with silence : Yes
Delete leading and trailing silent blocks : No
Null samples used in CRC calculations : Yes
Used interface : Native Win32 interface for Win NT & 2000
Gap handling : Appended to previous track

Used output format : User Defined Encoder
Selected bitrate : 1024 kBit/s
Quality : High
Add ID3 tag : No
Command line compressor : C:\Program Files (x86)\Exact Audio Copy\Flac\flac.exe
Additional command line options : -8 -V -T "ARTIST=%artist%" -T "TITLE=%title%" -T "ALBUM=%albumtitle%" -T "DATE=%year%" -T "TRACKNUMBER=%tracknr%" -T "GENRE=%genre%" -T "PERFORMER=%albuminterpret%" -T "COMPOSER=%composer%" %haslyrics%–tag-from-file=LYRICS="%lyricsfile%"%haslyrics% -T "ALBUMARTIST=%albumartist%" -T "DISCNUMBER=%cdnumber%" -T "TOTALDISCS=%totalcds%" -T "TOTALTRACKS=%numtracks%" -T "COMMENT=%comment%" %source% -o %dest%


TOC of the extracted CD

Track | Start | Length | Start sector | End sector
––––––––––––––––––––––––––––-
1 | 0:00.00 | 3:47.10 | 0 | 17034
2 | 3:47.10 | 3:24.25 | 17035 | 32359
3 | 7:11.35 | 3:52.61 | 32360 | 49820
4 | 11:04.21 | 2:24.36 | 49821 | 60656
5 | 13:28.57 | 3:06.31 | 60657 | 74637
6 | 16:35.13 | 2:41.63 | 74638 | 86775
7 | 19:17.01 | 2:43.49 | 86776 | 99049
8 | 22:00.50 | 4:14.01 | 99050 | 118100
9 | 26:14.51 | 3:24.25 | 118101 | 133425
10 | 29:39.01 | 3:56.61 | 133426 | 151186
11 | 33:35.62 | 3:54.33 | 151187 | 168769
12 | 37:30.20 | 3:16.41 | 168770 | 183510
13 | 40:46.61 | 2:46.40 | 183511 | 196000
14 | 43:33.26 | 2:55.13 | 196001 | 209138
15 | 46:28.39 | 2:40.29 | 209139 | 221167
16 | 49:08.68 | 2:19.39 | 221168 | 231631
17 | 51:28.32 | 2:44.56 | 231632 | 243987
18 | 54:13.13 | 2:19.72 | 243988 | 254484
19 | 56:33.10 | 2:56.24 | 254485 | 267708
20 | 59:29.34 | 3:12.60 | 267709 | 282168
21 | 62:42.19 | 3:17.06 | 282169 | 296949
22 | 65:59.25 | 2:45.50 | 296950 | 309374
23 | 68:45.00 | 2:54.45 | 309375 | 322469
24 | 71:39.45 | 3:18.08 | 322470 | 337327
25 | 74:57.53 | 2:22.65 | 337328 | 348042


Track 1

Filename F:\#EAC wav+flac\#New\VA - Right Back Where We Started From\cd 2\01. Madeline Bell - That's What Friends Are For.wav

Pre-gap length 0:00:02.00

Peak level 96.6 %
Extraction speed 2.9 X
Track quality 100.0 %
Test CRC C7A70402
Copy CRC C7A70402
Track not present in AccurateRip database
Copy OK

Track 2

Filename F:\#EAC wav+flac\#New\VA - Right Back Where We Started From\cd 2\02. Linda Lewis - Rock A Doodle Doo.wav

Pre-gap length 0:00:02.00

Peak level 96.6 %
Extraction speed 3.1 X
Track quality 100.0 %
Test CRC F91ADC2C
Copy CRC F91ADC2C
Track not present in AccurateRip database
Copy OK

Track 3

Filename F:\#EAC wav+flac\#New\VA - Right Back Where We Started From\cd 2\03. Doris Troy - Stretchin' Out.wav

Pre-gap length 0:00:02.00

Peak level 87.3 %
Extraction speed 3.3 X
Track quality 100.0 %
Test CRC 4C24521F
Copy CRC 4C24521F
Track not present in AccurateRip database
Copy OK

Track 4

Filename F:\#EAC wav+flac\#New\VA - Right Back Where We Started From\cd 2\04. The Big Spenders - Why Don't Cha Tend To Your Business.wav

Pre-gap length 0:00:02.00

Peak level 96.6 %
Extraction speed 3.2 X
Track quality 100.0 %
Test CRC E97AB30B
Copy CRC E97AB30B
Track not present in AccurateRip database
Copy OK

Track 5

Filename F:\#EAC wav+flac\#New\VA - Right Back Where We Started From\cd 2\05. Doris Duke - A Little Bit Of Lovin'.wav

Pre-gap length 0:00:02.00

Peak level 96.6 %
Extraction speed 3.5 X
Track quality 100.0 %
Test CRC 9CEDBBB4
Copy CRC 9CEDBBB4
Track not present in AccurateRip database
Copy OK

Track 6

Filename F:\#EAC wav+flac\#New\VA - Right Back Where We Started From\cd 2\06. Tommi - Let Your Love Fall Down.wav

Pre-gap length 0:00:02.00

Peak level 96.6 %
Extraction speed 3.6 X
Track quality 100.0 %
Test CRC 47DBB753
Copy CRC 47DBB753
Track not present in AccurateRip database
Copy OK

Track 7

Filename F:\#EAC wav+flac\#New\VA - Right Back Where We Started From\cd 2\07. Tina Charles - I Can't Dance To That Music You're Playin'.wav

Pre-gap length 0:00:02.00

Peak level 96.6 %
Extraction speed 2.7 X
Track quality 99.9 %
Test CRC AA66710E
Copy CRC AA66710E
Track not present in AccurateRip database
Copy OK

Track 8

Filename F:\#EAC wav+flac\#New\VA - Right Back Where We Started From\cd 2\08. The Chanter Sisters - Na Na Hey Hey (Kiss Him Goodbye).wav

Pre-gap length 0:00:02.00

Peak level 96.6 %
Extraction speed 4.2 X
Track quality 100.0 %
Test CRC B85CA526
Copy CRC B85CA526
Track not present in AccurateRip database
Copy OK

Track 9

Filename F:\#EAC wav+flac\#New\VA - Right Back Where We Started From\cd 2\09. Barry St. John - My Man.wav

Pre-gap length 0:00:02.00

Peak level 96.6 %
Extraction speed 4.2 X
Track quality 100.0 %
Test CRC 694B24F1
Copy CRC 694B24F1
Track not present in AccurateRip database
Copy OK

Track 10

Filename F:\#EAC wav+flac\#New\VA - Right Back Where We Started From\cd 2\10. Cissy Stone - Gone But Not Forgotten.wav

Pre-gap length 0:00:02.00

Peak level 96.6 %
Extraction speed 4.5 X
Track quality 100.0 %
Test CRC 5EBEAA91
Copy CRC 5EBEAA91
Track not present in AccurateRip database
Copy OK

Track 11

Filename F:\#EAC wav+flac\#New\VA - Right Back Where We Started From\cd 2\11. Ann Christy - Secret Love.wav

Pre-gap length 0:00:01.94

Peak level 96.6 %
Extraction speed 4.6 X
Track quality 100.0 %
Test CRC C30C44C3
Copy CRC C30C44C3
Track not present in AccurateRip database
Copy OK

Track 12

Filename F:\#EAC wav+flac\#New\VA - Right Back Where We Started From\cd 2\12. Eleanor Keenan - Born To Be Loved (By You).wav

Pre-gap length 0:00:01.98

Peak level 96.6 %
Extraction speed 3.6 X
Track quality 99.9 %
Test CRC FF242493
Copy CRC FF242493
Track not present in AccurateRip database
Copy OK

Track 13

Filename F:\#EAC wav+flac\#New\VA - Right Back Where We Started From\cd 2\13. Emmaline Jones - What Good Is I Love You.wav

Pre-gap length 0:00:01.98

Peak level 96.6 %
Extraction speed 4.6 X
Track quality 100.0 %
Test CRC C95EE622
Copy CRC C95EE622
Track not present in AccurateRip database
Copy OK

Track 14

Filename F:\#EAC wav+flac\#New\VA - Right Back Where We Started From\cd 2\14. Petula Clark - Right On.wav

Pre-gap length 0:00:01.98

Peak level 96.6 %
Extraction speed 4.8 X
Track quality 100.0 %
Test CRC 62D76889
Copy CRC 62D76889
Track not present in AccurateRip database
Copy OK

Track 15

Filename F:\#EAC wav+flac\#New\VA - Right Back Where We Started From\cd 2\15. Billie Davis - I've Been Loving Someone Else.wav

Pre-gap length 0:00:01.97

Peak level 96.6 %
Extraction speed 4.8 X
Track quality 100.0 %
Test CRC 5B8AEED4
Copy CRC 5B8AEED4
Track not present in AccurateRip database
Copy OK

Track 16

Filename F:\#EAC wav+flac\#New\VA - Right Back Where We Started From\cd 2\16. Chrissy Roberts - Something Good.wav

Pre-gap length 0:00:03.49

Peak level 96.6 %
Extraction speed 4.8 X
Track quality 100.0 %
Test CRC 752E0071
Copy CRC 752E0071
Track not present in AccurateRip database
Copy OK

Track 17

Filename F:\#EAC wav+flac\#New\VA - Right Back Where We Started From\cd 2\17. Linda Cable - It's Gonna Happen To You.wav

Pre-gap length 0:00:01.98

Peak level 96.6 %
Extraction speed 4.9 X
Track quality 100.0 %
Test CRC D3B1EFE1
Copy CRC D3B1EFE1
Track not present in AccurateRip database
Copy OK

Track 18

Filename F:\#EAC wav+flac\#New\VA - Right Back Where We Started From\cd 2\18. Lisa Collings - I'm Getting Hungry For Your Lovin'.wav

Pre-gap length 0:00:01.06

Peak level 96.6 %
Extraction speed 4.9 X
Track quality 100.0 %
Test CRC AE50EDCA
Copy CRC AE50EDCA
Track not present in AccurateRip database
Copy OK

Track 19

Filename F:\#EAC wav+flac\#New\VA - Right Back Where We Started From\cd 2\19. Janine Dexter - I Love Making Love To You.wav

Pre-gap length 0:00:01.98

Peak level 96.6 %
Extraction speed 5.1 X
Track quality 100.0 %
Test CRC A356D0EA
Copy CRC A356D0EA
Track not present in AccurateRip database
Copy OK

Track 20

Filename F:\#EAC wav+flac\#New\VA - Right Back Where We Started From\cd 2\20. Patti And The Patettes - Summer Heartbreak.wav

Pre-gap length 0:00:01.97

Peak level 96.6 %
Extraction speed 5.5 X
Track quality 100.0 %
Test CRC 8F84FC08
Copy CRC 8F84FC08
Track not present in AccurateRip database
Copy OK

Track 21

Filename F:\#EAC wav+flac\#New\VA - Right Back Where We Started From\cd 2\21. Sweetcorn - Catch Me, Catch Me.wav

Pre-gap length 0:00:01.98

Peak level 96.6 %
Extraction speed 5.5 X
Track quality 100.0 %
Test CRC B7A97AE5
Copy CRC B7A97AE5
Track not present in AccurateRip database
Copy OK

Track 22

Filename F:\#EAC wav+flac\#New\VA - Right Back Where We Started From\cd 2\22. Flirts - Give Him A Great Big Kiss.wav

Pre-gap length 0:00:01.98

Peak level 96.6 %
Extraction speed 4.1 X
Track quality 99.9 %
Test CRC ED342E85
Copy CRC ED342E85
Track not present in AccurateRip database
Copy OK

Track 23

Filename F:\#EAC wav+flac\#New\VA - Right Back Where We Started From\cd 2\23. Jo Ann Love - Everything I Need.wav

Pre-gap length 0:00:01.98

Peak level 96.6 %
Extraction speed 4.1 X
Track quality 99.9 %
Test CRC 40582339
Copy CRC 40582339
Track not present in AccurateRip database
Copy OK

Track 24

Filename F:\#EAC wav+flac\#New\VA - Right Back Where We Started From\cd 2\24. Lesley Duncan - The Magic's Fine.wav

Pre-gap length 0:00:01.98

Peak level 96.6 %
Extraction speed 5.7 X
Track quality 100.0 %
Test CRC 1D1AB9A8
Copy CRC 1D1AB9A8
Track not present in AccurateRip database
Copy OK

Track 25

Filename F:\#EAC wav+flac\#New\VA - Right Back Where We Started From\cd 2\25. Milly Scott - Sunshine In My Rainy Day Mind.wav

Pre-gap length 0:00:01.98

Peak level 96.6 %
Extraction speed 5.5 X
Track quality 100.0 %
Test CRC 4E88B40E
Copy CRC 4E88B40E
Track not present in AccurateRip database
Copy OK


None of the tracks are present in the AccurateRip database

No errors occurred

End of status report

–– CUETools DB Plugin V2.1.6

[CTDB TOCID: SjwjZ7pyO8lwcNYygHTleScKOiE-] found
Submit result: SjwjZ7pyO8lwcNYygHTleScKOiE- has been confirmed
Track | CTDB Status
1 | (2/2) Accurately ripped
2 | (2/2) Accurately ripped
3 | (2/2) Accurately ripped
4 | (2/2) Accurately ripped
5 | (2/2) Accurately ripped
6 | (2/2) Accurately ripped
7 | (2/2) Accurately ripped
8 | (2/2) Accurately ripped
9 | (2/2) Accurately ripped
10 | (2/2) Accurately ripped
11 | (2/2) Accurately ripped
12 | (2/2) Accurately ripped
13 | (2/2) Accurately ripped
14 | (2/2) Accurately ripped
15 | (2/2) Accurately ripped
16 | (2/2) Accurately ripped
17 | (2/2) Accurately ripped
18 | (2/2) Accurately ripped
19 | (2/2) Accurately ripped
20 | (1/2) Accurately ripped
21 | (1/2) Accurately ripped
22 | (1/2) Accurately ripped
23 | (1/2) Accurately ripped
24 | (1/2) Accurately ripped
25 | (1/2) Accurately ripped


==== Log checksum 9A3F1697F8569ADD0DF85EDE8C4E61E348B3925973FB51C42D271C43BD735968 ====
Exact Audio Copy V1.3 from 2. September 2016

EAC extraction logfile from 17. December 2020, 19:55

Various Artists / Right Back Where We Started From

Used drive : PLEXTOR PX-891SAF Adapter: 1 ID: 0

Read mode : Secure
Utilize accurate stream : Yes
Defeat audio cache : Yes
Make use of C2 pointers : No

Read offset correction : 6
Overread into Lead-In and Lead-Out : No
Fill up missing offset samples with silence : Yes
Delete leading and trailing silent blocks : No
Null samples used in CRC calculations : Yes
Used interface : Native Win32 interface for Win NT & 2000
Gap handling : Appended to previous track

Used output format : User Defined Encoder
Selected bitrate : 1024 kBit/s
Quality : High
Add ID3 tag : No
Command line compressor : C:\Program Files (x86)\Exact Audio Copy\Flac\flac.exe
Additional command line options : -8 -V -T "ARTIST=%artist%" -T "TITLE=%title%" -T "ALBUM=%albumtitle%" -T "DATE=%year%" -T "TRACKNUMBER=%tracknr%" -T "GENRE=%genre%" -T "PERFORMER=%albuminterpret%" -T "COMPOSER=%composer%" %haslyrics%–tag-from-file=LYRICS="%lyricsfile%"%haslyrics% -T "ALBUMARTIST=%albumartist%" -T "DISCNUMBER=%cdnumber%" -T "TOTALDISCS=%totalcds%" -T "TOTALTRACKS=%numtracks%" -T "COMMENT=%comment%" %source% -o %dest%


TOC of the extracted CD

Track | Start | Length | Start sector | End sector
––––––––––––––––––––––––––––-
1 | 0:00.00 | 3:07.13 | 0 | 14037
2 | 3:07.13 | 2:45.25 | 14038 | 26437
3 | 5:52.38 | 2:37.24 | 26438 | 38236
4 | 8:29.62 | 2:44.10 | 38237 | 50546
5 | 11:13.72 | 4:08.31 | 50547 | 69177
6 | 15:22.28 | 1:09.54 | 69178 | 74406
7 | 16:32.07 | 3:13.36 | 74407 | 88917
8 | 19:45.43 | 3:18.23 | 88918 | 103790
9 | 23:03.66 | 4:20.19 | 103791 | 123309
10 | 27:24.10 | 2:46.40 | 123310 | 135799
11 | 30:10.50 | 3:54.64 | 135800 | 153413
12 | 34:05.39 | 2:30.67 | 153414 | 164730
13 | 36:36.31 | 2:51.05 | 164731 | 177560
14 | 39:27.36 | 2:57.19 | 177561 | 190854
15 | 42:24.55 | 2:41.62 | 190855 | 202991
16 | 45:06.42 | 3:01.22 | 202992 | 216588
17 | 48:07.64 | 3:32.55 | 216589 | 232543
18 | 51:40.44 | 2:55.72 | 232544 | 245740
19 | 54:36.41 | 3:30.25 | 245741 | 261515
20 | 58:06.66 | 2:28.16 | 261516 | 272631
21 | 60:35.07 | 2:45.67 | 272632 | 285073
22 | 63:20.74 | 2:33.24 | 285074 | 296572
23 | 65:54.23 | 3:12.69 | 296573 | 311041
24 | 69:07.17 | 3:59.00 | 311042 | 328966
25 | 73:06.17 | 4:26.32 | 328967 | 348948


Track 1

Filename F:\#EAC wav+flac\#New\VA - Right Back Where We Started From\cd 3\01. Margie Miller - Fever.wav

Pre-gap length 0:00:02.00

Peak level 96.6 %
Extraction speed 5.3 X
Track quality 100.0 %
Test CRC 89BED1E1
Copy CRC 89BED1E1
Track not present in AccurateRip database
Copy OK

Track 2

Filename F:\#EAC wav+flac\#New\VA - Right Back Where We Started From\cd 3\02. Dusty Springfield - Spooky.wav

Pre-gap length 0:00:02.00

Peak level 96.6 %
Extraction speed 4.4 X
Track quality 99.9 %
Test CRC 2463948E
Copy CRC 2463948E
Track not present in AccurateRip database
Copy OK

Track 3

Filename F:\#EAC wav+flac\#New\VA - Right Back Where We Started From\cd 3\03. Eartha Kitt - Hurdy Gurdy Man.wav

Pre-gap length 0:00:02.00

Peak level 96.6 %
Extraction speed 5.8 X
Track quality 100.0 %
Test CRC F2022663
Copy CRC F2022663
Track not present in AccurateRip database
Copy OK

Track 4

Filename F:\#EAC wav+flac\#New\VA - Right Back Where We Started From\cd 3\04. Julie Rogers - Baby Don't You Leave Me.wav

Pre-gap length 0:00:02.00

Peak level 96.6 %
Extraction speed 6.1 X
Track quality 100.0 %
Test CRC BEE38840
Copy CRC BEE38840
Track not present in AccurateRip database
Copy OK

Track 5

Filename F:\#EAC wav+flac\#New\VA - Right Back Where We Started From\cd 3\05. Linda Kendrick - Music Brings Us Joy.wav

Pre-gap length 0:00:02.00

Peak level 96.6 %
Extraction speed 6.9 X
Track quality 100.0 %
Test CRC AB564F12
Copy CRC AB564F12
Track not present in AccurateRip database
Copy OK

Track 6

Filename F:\#EAC wav+flac\#New\VA - Right Back Where We Started From\cd 3\06. Carol Hunter - Dr. Pepper.wav

Pre-gap length 0:00:02.00

Peak level 96.6 %
Extraction speed 3.6 X
Track quality 99.8 %
Test CRC 6527F464
Copy CRC 6527F464
Track not present in AccurateRip database
Copy OK

Track 7

Filename F:\#EAC wav+flac\#New\VA - Right Back Where We Started From\cd 3\07. Bridget St. John - Some Kind Of Beautiful.wav

Pre-gap length 0:00:02.00

Peak level 96.6 %
Extraction speed 7.1 X
Track quality 100.0 %
Test CRC 4E73E58C
Copy CRC 4E73E58C
Track not present in AccurateRip database
Copy OK

Track 8

Filename F:\#EAC wav+flac\#New\VA - Right Back Where We Started From\cd 3\08. Delsey McKay - Cast Your Spell On Me.wav

Pre-gap length 0:00:02.00

Peak level 96.6 %
Extraction speed 7.5 X
Track quality 100.0 %
Test CRC E863C6BA
Copy CRC E863C6BA
Track not present in AccurateRip database
Copy OK

Track 9

Filename F:\#EAC wav+flac\#New\VA - Right Back Where We Started From\cd 3\09. Dana Gillespie - All Cut Up On You.wav

Pre-gap length 0:00:02.00

Peak level 96.6 %
Extraction speed 6.8 X
Track quality 99.9 %
Test CRC D4BCCBBE
Copy CRC D4BCCBBE
Track not present in AccurateRip database
Copy OK

Track 10

Filename F:\#EAC wav+flac\#New\VA - Right Back Where We Started From\cd 3\10. Polly Perkins - The Bad Girl.wav

Pre-gap length 0:00:02.00

Peak level 96.6 %
Extraction speed 7.7 X
Track quality 100.0 %
Test CRC 762B9509
Copy CRC 762B9509
Track not present in AccurateRip database
Copy OK

Track 11

Filename F:\#EAC wav+flac\#New\VA - Right Back Where We Started From\cd 3\11. Jackie And The Majestics - Can't Give It Up No More.wav

Pre-gap length 0:00:02.00

Peak level 96.6 %
Extraction speed 8.5 X
Track quality 100.0 %
Test CRC CEE75F74
Copy CRC CEE75F74
Track not present in AccurateRip database
Copy OK

Track 12

Filename F:\#EAC wav+flac\#New\VA - Right Back Where We Started From\cd 3\12. Millicent Martin - Every Home Should Have One.wav

Pre-gap length 0:00:02.00

Peak level 96.6 %
Extraction speed 8.1 X
Track quality 100.0 %
Test CRC 9EF575FD
Copy CRC 9EF575FD
Track not present in AccurateRip database
Copy OK

Track 13

Filename F:\#EAC wav+flac\#New\VA - Right Back Where We Started From\cd 3\13. Samantha Sinclair - On A 'Plane To Nowhere.wav

Pre-gap length 0:00:02.00

Peak level 96.6 %
Extraction speed 8.4 X
Track quality 100.0 %
Test CRC 5C96615D
Copy CRC 5C96615D
Track not present in AccurateRip database
Copy OK

Track 14

Filename F:\#EAC wav+flac\#New\VA - Right Back Where We Started From\cd 3\14. Adrienne Posta - Express Yourself.wav

Pre-gap length 0:00:02.00

Peak level 96.6 %
Extraction speed 7.1 X
Track quality 99.9 %
Test CRC 0B690FBC
Copy CRC 0B690FBC
Track not present in AccurateRip database
Copy OK

Track 15

Filename F:\#EAC wav+flac\#New\VA - Right Back Where We Started From\cd 3\15. Linda Thorson - You Will Want Me.wav

Pre-gap length 0:00:02.00

Peak level 96.6 %
Extraction speed 8.7 X
Track quality 100.0 %
Test CRC 7660093C
Copy CRC 7660093C
Track not present in AccurateRip database
Copy OK

Track 16

Filename F:\#EAC wav+flac\#New\VA - Right Back Where We Started From\cd 3\16. Leonie Hawthorn - Everything I See.wav

Pre-gap length 0:00:02.00

Peak level 96.6 %
Extraction speed 9.0 X
Track quality 100.0 %
Test CRC 98E3D1F7
Copy CRC 98E3D1F7
Track not present in AccurateRip database
Copy OK

Track 17

Filename F:\#EAC wav+flac\#New\VA - Right Back Where We Started From\cd 3\17. Katie Kissoon - If Not For Your Love.wav

Pre-gap length 0:00:02.00

Peak level 96.6 %
Extraction speed 9.5 X
Track quality 100.0 %
Test CRC 3424D4D5
Copy CRC 3424D4D5
Track not present in AccurateRip database
Copy OK

Track 18

Filename F:\#EAC wav+flac\#New\VA - Right Back Where We Started From\cd 3\18. Grazina - It's My Party.wav

Pre-gap length 0:00:02.00

Peak level 96.6 %
Extraction speed 7.5 X
Track quality 99.9 %
Test CRC 5604047F
Copy CRC 5604047F
Track not present in AccurateRip database
Copy OK

Track 19

Filename F:\#EAC wav+flac\#New\VA - Right Back Where We Started From\cd 3\19. Twinkle Ripley - Caroline.wav

Pre-gap length 0:00:02.00

Peak level 96.6 %
Extraction speed 9.9 X
Track quality 100.0 %
Test CRC 2ACCABD4
Copy CRC 2ACCABD4
Track not present in AccurateRip database
Copy OK

Track 20

Filename F:\#EAC wav+flac\#New\VA - Right Back Where We Started From\cd 3\20. The Surprise Sisters - Born To Move.wav

Pre-gap length 0:00:02.00

Peak level 96.6 %
Extraction speed 9.5 X
Track quality 100.0 %
Test CRC 75D25515
Copy CRC 75D25515
Track not present in AccurateRip database
Copy OK

Track 21

Filename F:\#EAC wav+flac\#New\VA - Right Back Where We Started From\cd 3\21. Tiger Sue - When You Walked In The Room.wav

Pre-gap length 0:00:02.00

Peak level 96.6 %
Extraction speed 9.8 X
Track quality 100.0 %
Test CRC E577FC9F
Copy CRC E577FC9F
Track not present in AccurateRip database
Copy OK

Track 22

Filename F:\#EAC wav+flac\#New\VA - Right Back Where We Started From\cd 3\22. Bee - Tired Of Waiting.wav

Pre-gap length 0:00:02.00

Peak level 96.6 %
Extraction speed 7.7 X
Track quality 99.9 %
Test CRC D4CCF60C
Copy CRC D4CCF60C
Track not present in AccurateRip database
Copy OK

Track 23

Filename F:\#EAC wav+flac\#New\VA - Right Back Where We Started From\cd 3\23. Yvonne Elliman - I Can't Explain.wav

Pre-gap length 0:00:02.00

Peak level 86.4 %
Extraction speed 8.5 X
Track quality 99.9 %
Test CRC 62C616A8
Copy CRC 62C616A8
Track not present in AccurateRip database
Copy OK

Track 24

Filename F:\#EAC wav+flac\#New\VA - Right Back Where We Started From\cd 3\24. Blonde On Blonde - Whole Lotta Love.wav

Pre-gap length 0:00:02.00

Peak level 96.6 %
Extraction speed 10.2 X
Track quality 100.0 %
Test CRC 3FDD33FA
Copy CRC 3FDD33FA
Track not present in AccurateRip database
Copy OK

Track 25

Filename F:\#EAC wav+flac\#New\VA - Right Back Where We Started From\cd 3\25. Julie Sullivan - Fly, Little White Dove, Fly.wav

Pre-gap length 0:00:02.00

Peak level 96.6 %
Extraction speed 6.4 X
Track quality 99.8 %
Test CRC 90989080
Copy CRC 90989080
Track not present in AccurateRip database
Copy OK


None of the tracks are present in the AccurateRip database

No errors occurred

End of status report

–– CUETools DB Plugin V2.1.6

[CTDB TOCID: VDXvllYiSLRZ8HFhC7cwMGB2BLw-] found
Submit result: VDXvllYiSLRZ8HFhC7cwMGB2BLw- has been confirmed
Track | CTDB Status
1 | (2/2) Accurately ripped
2 | (2/2) Accurately ripped
3 | (2/2) Accurately ripped
4 | (2/2) Accurately ripped
5 | (2/2) Accurately ripped
6 | (2/2) Accurately ripped
7 | (2/2) Accurately ripped
8 | (2/2) Accurately ripped
9 | (2/2) Accurately ripped
10 | (2/2) Accurately ripped
11 | (2/2) Accurately ripped
12 | (2/2) Accurately ripped
13 | (2/2) Accurately ripped
14 | (2/2) Accurately ripped
15 | (2/2) Accurately ripped
16 | (2/2) Accurately ripped
17 | (2/2) Accurately ripped
18 | (2/2) Accurately ripped
19 | (2/2) Accurately ripped
20 | (2/2) Accurately ripped
21 | (2/2) Accurately ripped
22 | (2/2) Accurately ripped
23 | (2/2) Accurately ripped
24 | (2/2) Accurately ripped
25 | (2/2) Accurately ripped


==== Log checksum FCBF5728A5021A66E9EECEA3D06E075B250A7E8DF684476244A1CE7A4F0113A8 ====

Thanks to the Original ripper !