Tags
Language
Tags

5 Star - Luxury: The Definitive Anthology 1984-1991 (2018) [9CD + DVD Box Set]

Posted By:
5 Star - Luxury: The Definitive Anthology 1984-1991 (2018) [9CD + DVD Box Set]

5 Star - Luxury: The Definitive Anthology 1984-1991 (2018)
EAC | Flac(Image) + Cue + Log & MP3 CBR 320Kbps
Edsel Records, LUXURYBOX01 | ~ 4328 or 1881 Mb | Scans(jpg) -> 913 Mb
DVD9: NTSC 16:9 (720x480) VBR | LinearPCM, 2 ch -> 6.54 Gb
Pop / Electronic / Synth-Pop / Disco / Soul

Edsel is pleased to announce the release of a comprehensive Five Star box set, which has been personally curated by DENISE PEARSON. Five Star were managed by their Father, Buster Pearson who harboured the idea that his talented children could be the UK's 1980s version of an older Jackson 5. Following an appearance on BBC One's Pebble Mill in 1983, Five Star signed to RCA Records then spent 1984 honing their craft and performing at numerous club PAs around the country. They were rewarded in May 1985 with their debut hit 'All Fall Down', which reached #15 in the UK Singles Chart taken from the debut album 'Luxury Of Life', from which SEVEN singles were released. It was the final single from the album, 'System Addict', that charted the highest from the album and which started a run of nine consecutive Top 20 hits. This 9CD /1DVD set housed in a sumptuously packaged 12"x12" Deluxe Casebound Book, comprising the SIX studio albums from their international hit-laden recording periods with RCA Records and Epic Records. All six albums feature extra tracks, including non-album B-Sides, with the remaining three CDs containing 7" & 12" Alternate Versions and Remixes. The DVD features a number of Promotional Videos. RCA, Epic and Buster Pearson lined-up a stellar host of the most prolific Producers of the time to work with the Group. Nick Martinelli, Leon Sylvers III, Denis Lambert, Barry Blue, The Limit, Steve Harvey, Billy Livsey, Richard 'RAH Band' Hewson, Christopher Troy, Zack Harmon, Michael Jay, Wayne Braithwaite and Ian Prince, with Shep Pettibone, Morales & Munzibai and Paul Hardcastle mixing. There was no end of talent queuing up to work with Five Star. • The release features the original album tracklistings plus B-Sides, a multitude of alternate mixes, instrumental versions and more than 25 mixes previously unreleased on CD, bringing a two label collection together from the band's internationally successful career, for the very first time. • 'Luxury…' features all Twenty-One UK Top 75 singles, including the Top 10 hits 'System Addict' #3, 'Can't Wait Another Minute' #7, 'Find The Time' #7, 'Rain Or Shine' #2, 'Stay Out Of My Life' #9, 'The Slightest Touch' #4, as well as their other Top 30 hits 'All Fall Down', 'Let Me Be The One', 'Love Take Over', 'If I Say Yes', 'Whenever You're Ready', 'Strong As Steel', 'Somewhere Somebody', 'Another Weekend', 'Rock My World'. • This deluxe set features a 2,000 word recollection, with Denise Pearson interviewed by Record Collector Editor, Paul Lester.
5 Star - Luxury: The Definitive Anthology 1984-1991 (2018) [9CD + DVD Box Set]

5 Star - Luxury: The Definitive Anthology 1984-1991 (2018):

Tracklist CD1 - 1985 Luxury Of Life:

01 Love Take Over
02 All Fall Down
03 Let Me Be The One
04 System Addict
05 Hide And Seek
06 R.S.V.P.
07 Now I'm In Control
08 Say Goodbye
09 Crazy
10 Winning

Bonus Tracks
11 I'm Gonna Make This A Night You Will Never Forget
12 I Like The Way You Dance (Five Star Orchestra)
13 First Avenue (Five Star Orchestra)
14 Beat 47
15 Keep In Touch
16 Love Games
17 Pure Energy

Exact Audio Copy V1.3 from 2. September 2016

EAC extraction logfile from 26. July 2018, 17:53

Five Star / Luxury Of Life

Used drive : PLEXTOR BD-R PX-B950SA Adapter: 1 ID: 1

Read mode : Secure
Utilize accurate stream : Yes
Defeat audio cache : Yes
Make use of C2 pointers : No

Read offset correction : 6
Overread into Lead-In and Lead-Out : No
Fill up missing offset samples with silence : Yes
Delete leading and trailing silent blocks : No
Null samples used in CRC calculations : Yes
Used interface : Native Win32 interface for Win NT & 2000

Used output format : Internal WAV Routines
Sample format : 44.100 Hz; 16 Bit; Stereo


TOC of the extracted CD

Track | Start | Length | Start sector | End sector
––––––––––––––––––––––––––––-
1 | 0:00.00 | 3:59.62 | 0 | 17986
2 | 3:59.62 | 3:35.43 | 17987 | 34154
3 | 7:35.30 | 4:43.50 | 34155 | 55429
4 | 12:19.05 | 4:06.24 | 55430 | 73903
5 | 16:25.29 | 5:34.02 | 73904 | 98955
6 | 21:59.31 | 4:40.46 | 98956 | 120001
7 | 26:40.02 | 3:42.34 | 120002 | 136685
8 | 30:22.36 | 4:12.71 | 136686 | 155656
9 | 34:35.32 | 3:58.68 | 155657 | 173574
10 | 38:34.25 | 3:37.74 | 173575 | 189923
11 | 42:12.24 | 5:25.43 | 189924 | 214341
12 | 47:37.67 | 4:01.59 | 214342 | 232475
13 | 51:39.51 | 3:31.52 | 232476 | 248352
14 | 55:11.28 | 3:44.40 | 248353 | 265192
15 | 58:55.68 | 4:18.58 | 265193 | 284600
16 | 63:14.51 | 3:43.07 | 284601 | 301332
17 | 66:57.58 | 3:51.16 | 301333 | 318673


Range status and errors

Selected range

Filename C:\Users\Alex\Desktop\ALLexxess\Five Star\2018 Definitive Anthology 1984-1991 (10-Disc Box Set Edsel Records)\1985 Luxury Of Life\Five Star - Luxury Of Life.wav

Peak level 94.3 %
Extraction speed 6.4 X
Range quality 100.0 %
Test CRC D267A581
Copy CRC D267A581
Copy OK

No errors occurred


AccurateRip summary

Track 1 not present in database
Track 2 not present in database
Track 3 not present in database
Track 4 not present in database
Track 5 not present in database
Track 6 not present in database
Track 7 not present in database
Track 8 not present in database
Track 9 not present in database
Track 10 not present in database
Track 11 not present in database
Track 12 not present in database
Track 13 not present in database
Track 14 not present in database
Track 15 not present in database
Track 16 not present in database
Track 17 not present in database

None of the tracks are present in the AccurateRip database

End of status report

–– CUETools DB Plugin V2.1.6

[CTDB TOCID: GOXbJUw5ZhLYWdGzyAfzC7MQuO4-] found
Submit result: GOXbJUw5ZhLYWdGzyAfzC7MQuO4- has been confirmed
Track | CTDB Status
1 | (5/5) Accurately ripped
2 | (5/5) Accurately ripped
3 | (5/5) Accurately ripped
4 | (5/5) Accurately ripped
5 | (5/5) Accurately ripped
6 | (5/5) Accurately ripped
7 | (5/5) Accurately ripped
8 | (5/5) Accurately ripped
9 | (5/5) Accurately ripped
10 | (5/5) Accurately ripped
11 | (5/5) Accurately ripped
12 | (5/5) Accurately ripped
13 | (5/5) Accurately ripped
14 | (5/5) Accurately ripped
15 | (5/5) Accurately ripped
16 | (5/5) Accurately ripped
17 | (5/5) Accurately ripped


==== Log checksum 74ED92180AB51A80F6992DDCE8025E277150B5342A16E01C35BBAA2651A43405 ====


[CUETools log; Date: 26.07.2018 22:38:37; Version: 2.1.5]
[CTDB TOCID: GOXbJUw5ZhLYWdGzyAfzC7MQuO4-] found.
Track | CTDB Status
1 | (6/6) Accurately ripped
2 | (6/6) Accurately ripped
3 | (6/6) Accurately ripped
4 | (6/6) Accurately ripped
5 | (6/6) Accurately ripped
6 | (6/6) Accurately ripped
7 | (6/6) Accurately ripped
8 | (6/6) Accurately ripped
9 | (6/6) Accurately ripped
10 | (6/6) Accurately ripped
11 | (6/6) Accurately ripped
12 | (6/6) Accurately ripped
13 | (6/6) Accurately ripped
14 | (6/6) Accurately ripped
15 | (6/6) Accurately ripped
16 | (6/6) Accurately ripped
17 | (6/6) Accurately ripped
[AccurateRip ID: 002c9320-0233b99b-e6109811] disk not present in database.

Track Peak [ CRC32 ] [W/O NULL] [ LOG ]
– 94,3 [D267A581] [90F51D19] CRC32
01 94,3 [3BEACD89] [B4B82658]
02 94,3 [AC80E8EA] [3D3D9383]
03 94,3 [DD7543FF] [71DE8662]
04 94,3 [2831D464] [FC325960]
05 94,3 [B7D1B2D7] [2B32988F]
06 94,3 [B8D4C6AB] [F56D3E28]
07 94,3 [78D7FAF0] [3A21C7B5]
08 94,3 [939F7782] [6F82DC74]
09 94,3 [000F486A] [86DCDD28]
10 94,3 [56E574E0] [D2538514]
11 94,3 [1343A157] [6CB5A570]
12 94,3 [760A4942] [604C1E23]
13 94,3 [16155DE5] [85D1760F]
14 94,3 [AE574C8F] [92FB2664]
15 94,3 [B59C3DF8] [ADE23001]
16 94,3 [8E50E206] [F7BAF646]
17 85,1 [36540D0E] [D90D0F4C]


Tracklist CD2 - 1986 Silk & Steel:

01 Can't Wait Another Minute
02 Find The Time
03 Rain Or Shine
04 If I Say Yes
05 Please Don't Say Goodnight
06 Stay Out Of My Life
07 Show Me What You've Got For Me
08 Are You Man Enough?
09 The Slightest Touch
10 Don't You Know I Love It

Bonus Tracks
11 Sky
12 Summer Groove
13 (How Dare You) Stay Out Of My Life
14 Let Me Down Easy
15 Stone Court

Exact Audio Copy V1.3 from 2. September 2016

EAC extraction logfile from 24. July 2018, 19:41

Five Star / Silk & Steel

Used drive : PLEXTOR BD-R PX-B950SA Adapter: 1 ID: 1

Read mode : Secure
Utilize accurate stream : Yes
Defeat audio cache : Yes
Make use of C2 pointers : No

Read offset correction : 6
Overread into Lead-In and Lead-Out : No
Fill up missing offset samples with silence : Yes
Delete leading and trailing silent blocks : No
Null samples used in CRC calculations : Yes
Used interface : Native Win32 interface for Win NT & 2000

Used output format : Internal WAV Routines
Sample format : 44.100 Hz; 16 Bit; Stereo


TOC of the extracted CD

Track | Start | Length | Start sector | End sector
––––––––––––––––––––––––––––-
1 | 0:00.00 | 4:41.23 | 0 | 21097
2 | 4:41.23 | 4:31.15 | 21098 | 41437
3 | 9:12.38 | 4:00.07 | 41438 | 59444
4 | 13:12.45 | 4:05.35 | 59445 | 77854
5 | 17:18.05 | 4:43.65 | 77855 | 99144
6 | 22:01.70 | 4:01.12 | 99145 | 117231
7 | 26:03.07 | 3:58.05 | 117232 | 135086
8 | 30:01.12 | 4:38.70 | 135087 | 156006
9 | 34:40.07 | 4:30.55 | 156007 | 176311
10 | 39:10.62 | 3:59.34 | 176312 | 194270
11 | 43:10.21 | 4:20.14 | 194271 | 213784
12 | 47:30.35 | 5:26.61 | 213785 | 238295
13 | 52:57.21 | 4:31.34 | 238296 | 258654
14 | 57:28.55 | 4:25.58 | 258655 | 278587
15 | 61:54.38 | 3:48.34 | 278588 | 295721


Range status and errors

Selected range

Filename C:\Users\Alex\Desktop\ALLexxess\Five Star\2018 Definitive Anthology 1984-1991 (10-Disc Box Set Edsel Records)\1986 Silk & Steel\Five Star - Silk & Steel.wav

Peak level 94.3 %
Extraction speed 7.5 X
Range quality 100.0 %
Test CRC 93D36BB2
Copy CRC 93D36BB2
Copy OK

No errors occurred


AccurateRip summary

Track 1 not present in database
Track 2 not present in database
Track 3 not present in database
Track 4 not present in database
Track 5 not present in database
Track 6 not present in database
Track 7 not present in database
Track 8 not present in database
Track 9 not present in database
Track 10 not present in database
Track 11 not present in database
Track 12 not present in database
Track 13 not present in database
Track 14 not present in database
Track 15 not present in database

None of the tracks are present in the AccurateRip database

End of status report

–– CUETools DB Plugin V2.1.6

[CTDB TOCID: V9egpAlEjW5Wxyz1._MC42sTFf0-] found
Submit result: V9egpAlEjW5Wxyz1._MC42sTFf0- has been confirmed
Track | CTDB Status
1 | (5/5) Accurately ripped
2 | (5/5) Accurately ripped
3 | (5/5) Accurately ripped
4 | (5/5) Accurately ripped
5 | (5/5) Accurately ripped
6 | (5/5) Accurately ripped
7 | (5/5) Accurately ripped
8 | (5/5) Accurately ripped
9 | (5/5) Accurately ripped
10 | (5/5) Accurately ripped
11 | (5/5) Accurately ripped
12 | (5/5) Accurately ripped
13 | (5/5) Accurately ripped
14 | (5/5) Accurately ripped
15 | (5/5) Accurately ripped


==== Log checksum 0490F8FCEFCE8F8CF2C209835ABCC2288ADA7D2293CB393E3DAA3B51C4835456 ====


[CUETools log; Date: 26.07.2018 22:39:11; Version: 2.1.5]
[CTDB TOCID: V9egpAlEjW5Wxyz1._MC42sTFf0-] found.
Track | CTDB Status
1 | (6/6) Accurately ripped
2 | (6/6) Accurately ripped
3 | (6/6) Accurately ripped
4 | (6/6) Accurately ripped
5 | (6/6) Accurately ripped
6 | (6/6) Accurately ripped
7 | (6/6) Accurately ripped
8 | (6/6) Accurately ripped
9 | (6/6) Accurately ripped
10 | (6/6) Accurately ripped
11 | (6/6) Accurately ripped
12 | (6/6) Accurately ripped
13 | (6/6) Accurately ripped
14 | (6/6) Accurately ripped
15 | (6/6) Accurately ripped
[AccurateRip ID: 00240e38-0198c37a-c80f660f] disk not present in database.

Track Peak [ CRC32 ] [W/O NULL] [ LOG ]
– 94,3 [93D36BB2] [798DB591] CRC32
01 94,3 [9610774C] [327267D7]
02 94,3 [EB9C061C] [953ACDCC]
03 94,3 [CC14E8ED] [089EC47E]
04 94,3 [F077153F] [B220CACA]
05 94,3 [857CFEEA] [E6BDCE5C]
06 94,3 [1FEAFC83] [6BE6CF84]
07 94,3 [F6FF68CF] [30811AB1]
08 94,3 [C1CDA2DA] [DBEE8B81]
09 94,3 [C0077178] [9E59CEE1]
10 94,3 [125DE431] [34270A43]
11 94,3 [460BB37F] [E3F020A2]
12 94,3 [B16C3B04] [3B3CAF14]
13 94,3 [51FDD84B] [AAF53F86]
14 62,3 [F4AA2551] [5EEDCF80]
15 94,3 [5906426C] [D03DAB6E]


Tracklist CD3 - 1987 Between The Lines:

01 Somewhere Somebody
02 Whenever You're Ready
03 Strong As Steel
04 Read Between The Lines
05 Live Giving Love
06 Ain't Watcha Do
07 Made Out Of Love
08 You Should Have Waited
09 Knock Twice
10 Hard Race

Bonus Tracks
11 Forever Yours
12 The Man
13 Have A Good Time

Exact Audio Copy V1.3 from 2. September 2016

EAC extraction logfile from 23. July 2018, 20:06

Five Star / Between The Lines

Used drive : PLEXTOR BD-R PX-B950SA Adapter: 1 ID: 1

Read mode : Secure
Utilize accurate stream : Yes
Defeat audio cache : Yes
Make use of C2 pointers : No

Read offset correction : 6
Overread into Lead-In and Lead-Out : No
Fill up missing offset samples with silence : Yes
Delete leading and trailing silent blocks : No
Null samples used in CRC calculations : Yes
Used interface : Native Win32 interface for Win NT & 2000

Used output format : Internal WAV Routines
Sample format : 44.100 Hz; 16 Bit; Stereo


TOC of the extracted CD

Track | Start | Length | Start sector | End sector
––––––––––––––––––––––––––––-
1 | 0:00.00 | 4:13.54 | 0 | 19028
2 | 4:13.54 | 4:21.62 | 19029 | 38665
3 | 8:35.41 | 5:21.10 | 38666 | 62750
4 | 13:56.51 | 4:50.63 | 62751 | 84563
5 | 18:47.39 | 5:03.15 | 84564 | 107303
6 | 23:50.54 | 3:40.55 | 107304 | 123858
7 | 27:31.34 | 4:27.17 | 123859 | 143900
8 | 31:58.51 | 3:35.50 | 143901 | 160075
9 | 35:34.26 | 4:11.09 | 160076 | 178909
10 | 39:45.35 | 4:25.40 | 178910 | 198824
11 | 44:11.00 | 3:37.49 | 198825 | 215148
12 | 47:48.49 | 5:27.31 | 215149 | 239704
13 | 53:16.05 | 5:49.34 | 239705 | 265913


Range status and errors

Selected range

Filename C:\Users\Alex\Desktop\ALLexxess\Five Star\2018 Definitive Anthology 1984-1991 (10-Disc Box Set Edsel Records)\1987 Between The Lines\Five Star - Between The Lines.wav

Peak level 94.3 %
Extraction speed 6.1 X
Range quality 100.0 %
Test CRC 748EF255
Copy CRC 748EF255
Copy OK

No errors occurred


AccurateRip summary

Track 1 not present in database
Track 2 not present in database
Track 3 not present in database
Track 4 not present in database
Track 5 not present in database
Track 6 not present in database
Track 7 not present in database
Track 8 not present in database
Track 9 not present in database
Track 10 not present in database
Track 11 not present in database
Track 12 not present in database
Track 13 not present in database

None of the tracks are present in the AccurateRip database

End of status report

–– CUETools DB Plugin V2.1.6

[CTDB TOCID: EqlDgA2GZ3tHGyjplfnJk7QhH9Y-] found
Submit result: EqlDgA2GZ3tHGyjplfnJk7QhH9Y- has been confirmed
Track | CTDB Status
1 | (5/5) Accurately ripped
2 | (5/5) Accurately ripped
3 | (5/5) Accurately ripped
4 | (5/5) Accurately ripped
5 | (5/5) Accurately ripped
6 | (5/5) Accurately ripped
7 | (5/5) Accurately ripped
8 | (5/5) Accurately ripped
9 | (5/5) Accurately ripped
10 | (5/5) Accurately ripped
11 | (5/5) Accurately ripped
12 | (5/5) Accurately ripped
13 | (5/5) Accurately ripped


==== Log checksum B6443E45366471E32D3626395BA263FF6129690837559A263B61BC753080D582 ====


[CUETools log; Date: 26.07.2018 22:39:36; Version: 2.1.5]
[CTDB TOCID: EqlDgA2GZ3tHGyjplfnJk7QhH9Y-] found.
Track | CTDB Status
1 | (6/6) Accurately ripped
2 | (6/6) Accurately ripped
3 | (6/6) Accurately ripped
4 | (6/6) Accurately ripped
5 | (6/6) Accurately ripped
6 | (6/6) Accurately ripped
7 | (6/6) Accurately ripped
8 | (6/6) Accurately ripped
9 | (6/6) Accurately ripped
10 | (6/6) Accurately ripped
11 | (6/6) Accurately ripped
12 | (6/6) Accurately ripped
13 | (6/6) Accurately ripped
[AccurateRip ID: 001c0e3d-0117a7ee-b60dd90d] disk not present in database.

Track Peak [ CRC32 ] [W/O NULL] [ LOG ]
– 94,3 [748EF255] [9941F190] CRC32
01 94,3 [AAB884C7] [955E1AE4]
02 94,3 [9FFDDA26] [4505ADC1]
03 94,3 [3ABEB98F] [3AF32F90]
04 94,3 [48688C9F] [BDD3E9C9]
05 94,3 [4D3FD168] [4B1237E9]
06 94,3 [0A23640A] [1F099F22]
07 94,3 [378875A5] [14C77DFF]
08 94,3 [F080E44C] [7376452D]
09 94,3 [7D38E5A5] [C756D82D]
10 94,3 [9175BF32] [BB8A027A]
11 94,3 [20A65B86] [141DFFD7]
12 94,3 [74669B28] [DA5199D0]
13 94,3 [57A2B430] [BEDAEDDC]


Tracklist CD4 - 1988 Rock The World:

01 Another Weekend
02 Rock My World
03 Godsend
04 Are You Really The One
05 Let Me Be Yours
06 Free Time
07 Physical Attraction
08 Someone's In Love
09 There's A Brand New World
10 Rescue Me

Bonus Tracks
11 The Mews
12 Sweetest Innocence
13 U (12'' Version)
14 Rescue Me (Instrumental Version)
15 Rare Groove (12'' Version)
16 With Every Heartbeat (7'' Mix)
17 Sound Sweet
18 Something About My Baby

Exact Audio Copy V1.3 from 2. September 2016

EAC extraction logfile from 23. July 2018, 19:30

Five Star / Rock The World

Used drive : PLEXTOR BD-R PX-B950SA Adapter: 1 ID: 1

Read mode : Secure
Utilize accurate stream : Yes
Defeat audio cache : Yes
Make use of C2 pointers : No

Read offset correction : 6
Overread into Lead-In and Lead-Out : No
Fill up missing offset samples with silence : Yes
Delete leading and trailing silent blocks : No
Null samples used in CRC calculations : Yes
Used interface : Native Win32 interface for Win NT & 2000

Used output format : Internal WAV Routines
Sample format : 44.100 Hz; 16 Bit; Stereo


TOC of the extracted CD

Track | Start | Length | Start sector | End sector
––––––––––––––––––––––––––––-
1 | 0:00.00 | 5:20.59 | 0 | 24058
2 | 5:20.59 | 4:13.49 | 24059 | 43082
3 | 9:34.33 | 4:17.27 | 43083 | 62384
4 | 13:51.60 | 4:04.68 | 62385 | 80752
5 | 17:56.53 | 4:12.20 | 80753 | 99672
6 | 22:08.73 | 4:45.30 | 99673 | 121077
7 | 26:54.28 | 3:56.30 | 121078 | 138807
8 | 30:50.58 | 4:21.52 | 138808 | 158434
9 | 35:12.35 | 3:52.63 | 158435 | 175897
10 | 39:05.23 | 4:17.54 | 175898 | 195226
11 | 43:23.02 | 4:16.48 | 195227 | 214474
12 | 47:39.50 | 3:40.63 | 214475 | 231037
13 | 51:20.38 | 5:12.33 | 231038 | 254470
14 | 56:32.71 | 4:19.21 | 254471 | 273916
15 | 60:52.17 | 5:08.33 | 273917 | 297049
16 | 66:00.50 | 4:09.64 | 297050 | 315788
17 | 70:10.39 | 3:39.30 | 315789 | 332243
18 | 73:49.69 | 3:43.45 | 332244 | 349013


Range status and errors

Selected range

Filename C:\Users\Alex\Desktop\ALLexxess\Five Star\2018 Definitive Anthology 1984-1991 (10-Disc Box Set Edsel Records)\1988 Rock The World\Five Star - Rock The World.wav

Peak level 94.3 %
Extraction speed 7.0 X
Range quality 100.0 %
Test CRC 71D31BBC
Copy CRC 71D31BBC
Copy OK

No errors occurred


AccurateRip summary

Track 1 not present in database
Track 2 not present in database
Track 3 not present in database
Track 4 not present in database
Track 5 not present in database
Track 6 not present in database
Track 7 not present in database
Track 8 not present in database
Track 9 not present in database
Track 10 not present in database
Track 11 not present in database
Track 12 not present in database
Track 13 not present in database
Track 14 not present in database
Track 15 not present in database
Track 16 not present in database
Track 17 not present in database
Track 18 not present in database

None of the tracks are present in the AccurateRip database

End of status report

–– CUETools DB Plugin V2.1.6

[CTDB TOCID: 8LV27BomVJQTUF8tynksf8QKhp4-] found
Submit result: 8LV27BomVJQTUF8tynksf8QKhp4- has been confirmed
Track | CTDB Status
1 | (4/4) Accurately ripped
2 | (4/4) Accurately ripped
3 | (4/4) Accurately ripped
4 | (4/4) Accurately ripped
5 | (4/4) Accurately ripped
6 | (4/4) Accurately ripped
7 | (4/4) Accurately ripped
8 | (4/4) Accurately ripped
9 | (4/4) Accurately ripped
10 | (4/4) Accurately ripped
11 | (4/4) Accurately ripped
12 | (4/4) Accurately ripped
13 | (4/4) Accurately ripped
14 | (4/4) Accurately ripped
15 | (4/4) Accurately ripped
16 | (4/4) Accurately ripped
17 | (4/4) Accurately ripped
18 | (4/4) Accurately ripped


==== Log checksum 7061DAFACA71225097A9B1A8A87244CBEF8202C4BC515C178E8E7ED5D0B0D86E ====


[CUETools log; Date: 26.07.2018 22:40:14; Version: 2.1.5]
[CTDB TOCID: 8LV27BomVJQTUF8tynksf8QKhp4-] found.
Track | CTDB Status
1 | (5/5) Accurately ripped
2 | (5/5) Accurately ripped
3 | (5/5) Accurately ripped
4 | (5/5) Accurately ripped
5 | (5/5) Accurately ripped
6 | (5/5) Accurately ripped
7 | (5/5) Accurately ripped
8 | (5/5) Accurately ripped
9 | (5/5) Accurately ripped
10 | (5/5) Accurately ripped
11 | (5/5) Accurately ripped
12 | (5/5) Accurately ripped
13 | (5/5) Accurately ripped
14 | (5/5) Accurately ripped
15 | (5/5) Accurately ripped
16 | (5/5) Accurately ripped
17 | (5/5) Accurately ripped
18 | (5/5) Accurately ripped
[AccurateRip ID: 003361e5-02aa136f-ef122d12] disk not present in database.

Track Peak [ CRC32 ] [W/O NULL] [ LOG ]
– 94,3 [71D31BBC] [E56F0C0C] CRC32
01 94,3 [053D4CEE] [DC34BDBB]
02 94,3 [70BACE08] [7673EE86]
03 94,3 [87983DE4] [4F123D02]
04 94,3 [2035DB65] [9A44777E]
05 94,3 [82E3CAF9] [4306C108]
06 94,3 [E0983273] [00813025]
07 94,3 [E8F9F0DF] [064E7C2F]
08 94,3 [BECE37E7] [F18B4D22]
09 94,3 [7B8FDE76] [A10EA056]
10 94,3 [E90056FF] [F142964A]
11 94,3 [AA1C6C79] [B34A6B2A]
12 94,3 [100C7CB0] [1E4175E2]
13 94,3 [04B592EA] [2FF3191B]
14 94,3 [5BD812D4] [1E9CC153]
15 94,3 [E2776B77] [5C932701]
16 94,3 [92A1D1B2] [9461FE53]
17 94,3 [D13C3C2C] [8AE85E8F]
18 94,3 [2DAD6AC8] [566EBEFA]


Tracklist CD5 - 1990 Five Star:

01 Treat Me Like A Lady
02 Hot Love
03 I Can Show You Love
04 Feelings
05 Feel Much Better
06 I'm Still Waiting
07 That's The Way I Like It
08 Lost In You
09 Tienes Mi Amour
10 What About Me Baby?

Bonus Tracks
11 Don't Stop
12 Act One (7'' Version)
13 Treat Me Like A Lady (Tough Mix)
14 Hot Love (Extended Version)

Exact Audio Copy V1.3 from 2. September 2016

EAC extraction logfile from 22. July 2018, 16:06

Five Star / Five Star

Used drive : PLEXTOR BD-R PX-B950SA Adapter: 1 ID: 1

Read mode : Secure
Utilize accurate stream : Yes
Defeat audio cache : Yes
Make use of C2 pointers : No

Read offset correction : 6
Overread into Lead-In and Lead-Out : No
Fill up missing offset samples with silence : Yes
Delete leading and trailing silent blocks : No
Null samples used in CRC calculations : Yes
Used interface : Native Win32 interface for Win NT & 2000

Used output format : Internal WAV Routines
Sample format : 44.100 Hz; 16 Bit; Stereo


TOC of the extracted CD

Track | Start | Length | Start sector | End sector
––––––––––––––––––––––––––––-
1 | 0:00.00 | 4:19.04 | 0 | 19428
2 | 4:19.04 | 3:30.28 | 19429 | 35206
3 | 7:49.32 | 4:21.27 | 35207 | 54808
4 | 12:10.59 | 4:26.50 | 54809 | 74808
5 | 16:37.34 | 4:19.60 | 74809 | 94293
6 | 20:57.19 | 4:57.58 | 94294 | 116626
7 | 25:55.02 | 4:29.40 | 116627 | 136841
8 | 30:24.42 | 3:42.70 | 136842 | 153561
9 | 34:07.37 | 4:33.47 | 153562 | 174083
10 | 38:41.09 | 4:52.19 | 174084 | 196002
11 | 43:33.28 | 3:51.04 | 196003 | 213331
12 | 47:24.32 | 4:22.54 | 213332 | 233035
13 | 51:47.11 | 5:29.33 | 233036 | 257743
14 | 57:16.44 | 8:07.01 | 257744 | 294269


Range status and errors

Selected range

Filename C:\Users\Alex\Desktop\ALLexxess\Five Star\2018 Definitive Anthology 1984-1991 (10-Disc Box Set Edsel Records)\1990 Five Star\Five Star - Five Star.wav

Peak level 94.3 %
Extraction speed 7.5 X
Range quality 99.9 %
Test CRC A6134C7B
Copy CRC A6134C7B
Copy OK

No errors occurred


AccurateRip summary

Track 1 not present in database
Track 2 not present in database
Track 3 not present in database
Track 4 not present in database
Track 5 not present in database
Track 6 not present in database
Track 7 not present in database
Track 8 not present in database
Track 9 not present in database
Track 10 not present in database
Track 11 not present in database
Track 12 not present in database
Track 13 not present in database
Track 14 not present in database

None of the tracks are present in the AccurateRip database

End of status report

–– CUETools DB Plugin V2.1.6

[CTDB TOCID: _eQCZFoTho4t0nnI5.vCyxitl90-] found
Submit result: _eQCZFoTho4t0nnI5.vCyxitl90- has been confirmed
Track | CTDB Status
1 | (5/5) Accurately ripped
2 | (5/5) Accurately ripped
3 | (5/5) Accurately ripped
4 | (5/5) Accurately ripped
5 | (5/5) Accurately ripped
6 | (5/5) Accurately ripped
7 | (5/5) Accurately ripped
8 | (5/5) Accurately ripped
9 | (5/5) Accurately ripped
10 | (5/5) Accurately ripped
11 | (5/5) Accurately ripped
12 | (5/5) Accurately ripped
13 | (5/5) Accurately ripped
14 | (4/5) Accurately ripped


==== Log checksum 0D174B3B92B358BCEB1C83357E2A9A103F4986B13AF06608E32679EDA099527A ====


[CUETools log; Date: 26.07.2018 22:40:42; Version: 2.1.5]
[CTDB TOCID: _eQCZFoTho4t0nnI5.vCyxitl90-] found.
Track | CTDB Status
1 | (6/6) Accurately ripped
2 | (6/6) Accurately ripped
3 | (6/6) Accurately ripped
4 | (6/6) Accurately ripped
5 | (6/6) Accurately ripped
6 | (6/6) Accurately ripped
7 | (6/6) Accurately ripped
8 | (6/6) Accurately ripped
9 | (6/6) Accurately ripped
10 | (6/6) Accurately ripped
11 | (6/6) Accurately ripped
12 | (6/6) Accurately ripped
13 | (6/6) Accurately ripped
14 | (5/6) Accurately ripped
[AccurateRip ID: 001f57a0-01514d9b-cc0f530e] disk not present in database.

Track Peak [ CRC32 ] [W/O NULL] [ LOG ]
– 94,3 [A6134C7B] [589CAB61] CRC32
01 94,3 [5BAFD3C0] [83C3AC54]
02 94,3 [8809F0FB] [0A8672B5]
03 94,3 [AF1D5E3C] [7FFB901B]
04 94,3 [F189BDDC] [205181DE]
05 94,3 [377A91A0] [B4AADB88]
06 94,3 [07FCBAA7] [9B53F7B2]
07 94,3 [51FBCA96] [3C651C2A]
08 94,3 [62AFBC9F] [9DB67ECC]
09 94,3 [33E4C1B1] [BEA727F4]
10 94,3 [5C3D7BBC] [4FB8B596]
11 69,1 [8623D032] [3A72D50C]
12 69,1 [1E9B52FE] [BE0887DD]
13 71,6 [034C67D2] [2B17BBF7]
14 94,3 [875D486F] [2B4763DB]


Tracklist CD6 - 1991 Shine:

01 Shine
02 Come To Me (For Love)
03 Some Kind Of Magic
04 Love Can't Wait
05 The Love You Bring To Me
06 Right Over
07 The Start Of Forever
08 I Really Did It This Time
09 Sentimental
10 Save A Place (In Your Heart For Me)
Bonus Tracks
11 Shine (LP Edit)
12 Shine (New Jack Mix Edit)

Exact Audio Copy V1.3 from 2. September 2016

EAC extraction logfile from 22. July 2018, 15:34

Five Star / Shine

Used drive : PLEXTOR BD-R PX-B950SA Adapter: 1 ID: 1

Read mode : Secure
Utilize accurate stream : Yes
Defeat audio cache : Yes
Make use of C2 pointers : No

Read offset correction : 6
Overread into Lead-In and Lead-Out : No
Fill up missing offset samples with silence : Yes
Delete leading and trailing silent blocks : No
Null samples used in CRC calculations : Yes
Used interface : Native Win32 interface for Win NT & 2000

Used output format : Internal WAV Routines
Sample format : 44.100 Hz; 16 Bit; Stereo


TOC of the extracted CD

Track | Start | Length | Start sector | End sector
––––––––––––––––––––––––––––-
1 | 0:00.00 | 4:47.69 | 0 | 21593
2 | 4:47.69 | 4:41.20 | 21594 | 42688
3 | 9:29.14 | 4:51.72 | 42689 | 64585
4 | 14:21.11 | 4:55.45 | 64586 | 86755
5 | 19:16.56 | 3:47.08 | 86756 | 103788
6 | 23:03.64 | 4:39.59 | 103789 | 124772
7 | 27:43.48 | 4:16.19 | 124773 | 143991
8 | 31:59.67 | 4:18.18 | 143992 | 163359
9 | 36:18.10 | 4:21.74 | 163360 | 183008
10 | 40:40.09 | 4:00.20 | 183009 | 201028
11 | 44:40.29 | 4:14.15 | 201029 | 220093
12 | 48:54.44 | 4:07.55 | 220094 | 238673


Range status and errors

Selected range

Filename C:\Users\Alex\Desktop\ALLexxess\Five Star\2018 Definitive Anthology 1984-1991 (10-Disc Box Set Edsel Records)\1991 Shine\Five Star - Shine.wav

Peak level 99.9 %
Extraction speed 7.3 X
Range quality 100.0 %
Test CRC 53D8E85F
Copy CRC 53D8E85F
Copy OK

No errors occurred


AccurateRip summary

Track 1 not present in database
Track 2 not present in database
Track 3 not present in database
Track 4 not present in database
Track 5 not present in database
Track 6 not present in database
Track 7 not present in database
Track 8 not present in database
Track 9 not present in database
Track 10 not present in database
Track 11 not present in database
Track 12 not present in database

None of the tracks are present in the AccurateRip database

End of status report

–– CUETools DB Plugin V2.1.6

[CTDB TOCID: zKUOQ9jUj6GCHKzjLxi2VxibRkM-] found
Submit result: zKUOQ9jUj6GCHKzjLxi2VxibRkM- has been confirmed
Track | CTDB Status
1 | (5/5) Accurately ripped
2 | (5/5) Accurately ripped
3 | (5/5) Accurately ripped
4 | (5/5) Accurately ripped
5 | (5/5) Accurately ripped
6 | (5/5) Accurately ripped
7 | (5/5) Accurately ripped
8 | (5/5) Accurately ripped
9 | (5/5) Accurately ripped
10 | (5/5) Accurately ripped
11 | (5/5) Accurately ripped
12 | (5/5) Accurately ripped


==== Log checksum 3ACA3443404D78897D5E4572C1E66D3A7F6CCBD2AC998EF3FCB1DF0C1FAA2DCC ====


[CUETools log; Date: 26.07.2018 22:41:15; Version: 2.1.5]
[CTDB TOCID: zKUOQ9jUj6GCHKzjLxi2VxibRkM-] found.
Track | CTDB Status
1 | (6/6) Accurately ripped
2 | (6/6) Accurately ripped
3 | (6/6) Accurately ripped
4 | (6/6) Accurately ripped
5 | (6/6) Accurately ripped
6 | (6/6) Accurately ripped
7 | (6/6) Accurately ripped
8 | (6/6) Accurately ripped
9 | (6/6) Accurately ripped
10 | (6/6) Accurately ripped
11 | (6/6) Accurately ripped
12 | (6/6) Accurately ripped
[AccurateRip ID: 001853e9-00e15398-af0c6e0c] disk not present in database.

Track Peak [ CRC32 ] [W/O NULL] [ LOG ]
– 99,9 [53D8E85F] [C664FB7D] CRC32
01 91,1 [B8EBD023] [0E3E5E15]
02 94,3 [96401F1D] [840E689C]
03 94,3 [59CA2E88] [F8F95EFB]
04 94,3 [79760C1F] [0A2190D5]
05 89,1 [6D95C046] [88A9D76E]
06 94,3 [0BC5C485] [9DD98C71]
07 99,9 [BE410967] [FD7B4A8F]
08 94,3 [8AFE207C] [6E148626]
09 94,3 [38B96664] [D9D42AA1]
10 94,3 [B87CC8DB] [2BF3CA84]
11 94,3 [6DE66216] [BD161661]
12 94,3 [B9B56A19] [B73CA471]


Tracklist CD7 - 2018 7'' Mixes:

01 Hide And Seek (7'' Version)
02 Let Me Be The One (7'' Version)
03 R.S.V.P. (7'' Version)
04 Can't Wait Another Minute (The 7'' Remix Version)
05 Find The Time (7'' Version)
06 Rain Or Shine (7'' Version)
07 If I Say Yes (7'' Edit)
08 The Slightest Touch (Shep Pettibone 7'' Mix)
09 Are You Man Enough (Shep Pettibone Remix Edit)
10 Strong As Steel (7'' Version)
11 Somewhere, Somebody (7'' Version)
12 Another Weekend (US 7'' Version)
13 Someone's In Love (David Morales US 7'' Radio Mix)
14 There's A Brand New World (7'' Version)
15 Treat Me Like A Lady (Raw 7'' Version)

Exact Audio Copy V1.3 from 2. September 2016

EAC extraction logfile from 22. July 2018, 8:39

Five Star / 7'' Mixes

Used drive : PLEXTOR BD-R PX-B950SA Adapter: 1 ID: 1

Read mode : Secure
Utilize accurate stream : Yes
Defeat audio cache : Yes
Make use of C2 pointers : No

Read offset correction : 6
Overread into Lead-In and Lead-Out : No
Fill up missing offset samples with silence : Yes
Delete leading and trailing silent blocks : No
Null samples used in CRC calculations : Yes
Used interface : Native Win32 interface for Win NT & 2000

Used output format : Internal WAV Routines
Sample format : 44.100 Hz; 16 Bit; Stereo


TOC of the extracted CD

Track | Start | Length | Start sector | End sector
––––––––––––––––––––––––––––-
1 | 0:00.00 | 3:38.11 | 0 | 16360
2 | 3:38.11 | 3:38.74 | 16361 | 32784
3 | 7:17.10 | 3:27.13 | 32785 | 48322
4 | 10:44.23 | 4:07.64 | 48323 | 66911
5 | 14:52.12 | 3:57.31 | 66912 | 84717
6 | 18:49.43 | 3:57.72 | 84718 | 102564
7 | 22:47.40 | 3:42.23 | 102565 | 119237
8 | 26:29.63 | 4:19.32 | 119238 | 138694
9 | 30:49.20 | 4:20.24 | 138695 | 158218
10 | 35:09.44 | 4:26.66 | 158219 | 178234
11 | 39:36.35 | 4:05.66 | 178235 | 196675
12 | 43:42.26 | 4:09.20 | 196676 | 215370
13 | 47:51.46 | 4:09.42 | 215371 | 234087
14 | 52:01.13 | 4:09.33 | 234088 | 252795
15 | 56:10.46 | 4:12.26 | 252796 | 271721


Range status and errors

Selected range

Filename C:\Users\Alex\Desktop\ALLexxess\Five Star\2018 Definitive Anthology 1984-1991 (10-Disc Box Set Edsel Records)\2018 7'' Mixes\Five Star - 7'' Mixes.wav

Peak level 100.0 %
Extraction speed 6.1 X
Range quality 100.0 %
Test CRC D07BB0AF
Copy CRC D07BB0AF
Copy OK

No errors occurred


AccurateRip summary

Track 1 not present in database
Track 2 not present in database
Track 3 not present in database
Track 4 not present in database
Track 5 not present in database
Track 6 not present in database
Track 7 not present in database
Track 8 not present in database
Track 9 not present in database
Track 10 not present in database
Track 11 not present in database
Track 12 not present in database
Track 13 not present in database
Track 14 not present in database
Track 15 not present in database

None of the tracks are present in the AccurateRip database

End of status report

–– CUETools DB Plugin V2.1.6

[CTDB TOCID: M6scGmPjDOYfQ6J0KstDuV12EyA-] found
Submit result: M6scGmPjDOYfQ6J0KstDuV12EyA- has been confirmed
Track | CTDB Status
1 | (4/4) Accurately ripped
2 | (4/4) Accurately ripped
3 | (4/4) Accurately ripped
4 | (4/4) Accurately ripped
5 | (4/4) Accurately ripped
6 | (4/4) Accurately ripped
7 | (4/4) Accurately ripped
8 | (4/4) Accurately ripped
9 | (4/4) Accurately ripped
10 | (4/4) Accurately ripped
11 | (4/4) Accurately ripped
12 | (4/4) Accurately ripped
13 | (4/4) Accurately ripped
14 | (4/4) Accurately ripped
15 | (4/4) Accurately ripped


==== Log checksum C5787198F198601444246D6C986A18C74F1EEB1BFD6D05A6ED53ED5DA7362C04 ====


[CUETools log; Date: 26.07.2018 22:41:40; Version: 2.1.5]
[CTDB TOCID: M6scGmPjDOYfQ6J0KstDuV12EyA-] found.
Track | CTDB Status
1 | (6/6) Accurately ripped
2 | (6/6) Accurately ripped
3 | (6/6) Accurately ripped
4 | (6/6) Accurately ripped
5 | (6/6) Accurately ripped
6 | (6/6) Accurately ripped
7 | (6/6) Accurately ripped
8 | (6/6) Accurately ripped
9 | (6/6) Accurately ripped
10 | (6/6) Accurately ripped
11 | (6/6) Accurately ripped
12 | (6/6) Accurately ripped
13 | (6/6) Accurately ripped
14 | (6/6) Accurately ripped
15 | (6/6) Accurately ripped
[AccurateRip ID: 00204c60-01715dc2-c60e260f] disk not present in database.

Track Peak [ CRC32 ] [W/O NULL] [ LOG ]
– 100,0 [D07BB0AF] [FC828519] CRC32
01 70,7 [B6CF5F9E] [AFFE8363]
02 94,3 [0143A846] [98FF2930]
03 99,9 [DEBD0B24] [02A18404]
04 94,3 [47DD4EA1] [2051CC4F]
05 94,3 [CCB226A7] [05B46AD2]
06 94,3 [962B6A57] [7DABD1AC]
07 94,3 [76F8EEF0] [92B05397]
08 94,3 [09375F4A] [700E14CC]
09 100,0 [BB23A3D8] [E1998799]
10 94,3 [DF223D9F] [55950CBA]
11 94,3 [B6859B32] [A732EFDF]
12 94,3 [508C3620] [8A06F182]
13 94,3 [ED00F363] [B1931B68]
14 94,3 [ECD9BC74] [56D8A3E0]
15 69,1 [0D4C1FF8] [EBD9017B]


Tracklist CD8 - 2018 12'' Mixes # 1:

01 Hide And Seek (Dub Mix)
02 Crazy (Crazy Mix / Instrumental)
03 Let Me Be The One (Long Hot Soulful Summer Mix) / feat Grover Washington, Jr.
04 Love Take Over (Dub Take Over)
05 R.S.V.P. (Original Philly Mix)
06 Can't Wait Another Minute (The Street-Groove Mix Version)
07 Find The Time (Instrumental Mix)
08 Rain Or Shine (Dub)
09 Can't Wait Another MInute (Dub Mix)
10 If I Say Yes (Dub Mix)
11 The Slightest Touch (House Touch)
12 Are You Man Enough? (12'' Dub Remix)
13 Can't Wait Another Minute (Another Minute Of Breakdown)

Exact Audio Copy V1.3 from 2. September 2016

EAC extraction logfile from 22. July 2018, 7:59

Five Star / 12'' Mixes # 1

Used drive : PLEXTOR BD-R PX-B950SA Adapter: 1 ID: 1

Read mode : Secure
Utilize accurate stream : Yes
Defeat audio cache : Yes
Make use of C2 pointers : No

Read offset correction : 6
Overread into Lead-In and Lead-Out : No
Fill up missing offset samples with silence : Yes
Delete leading and trailing silent blocks : No
Null samples used in CRC calculations : Yes
Used interface : Native Win32 interface for Win NT & 2000

Used output format : Internal WAV Routines
Sample format : 44.100 Hz; 16 Bit; Stereo


TOC of the extracted CD

Track | Start | Length | Start sector | End sector
––––––––––––––––––––––––––––-
1 | 0:00.00 | 6:34.08 | 0 | 29557
2 | 6:34.08 | 6:00.28 | 29558 | 56585
3 | 12:34.36 | 5:51.28 | 56586 | 82938
4 | 18:25.64 | 7:08.16 | 82939 | 115054
5 | 25:34.05 | 5:28.54 | 115055 | 139708
6 | 31:02.59 | 5:21.69 | 139709 | 163852
7 | 36:24.53 | 4:48.10 | 163853 | 185462
8 | 41:12.63 | 4:36.42 | 185463 | 206204
9 | 45:49.30 | 4:55.71 | 206205 | 228400
10 | 50:45.26 | 6:08.16 | 228401 | 256016
11 | 56:53.42 | 6:30.16 | 256017 | 285282
12 | 63:23.58 | 5:35.33 | 285283 | 310440
13 | 68:59.16 | 1:49.74 | 310441 | 318689


Range status and errors

Selected range

Filename C:\Users\Alex\Desktop\ALLexxess\Five Star\2018 Definitive Anthology 1984-1991 (10-Disc Box Set Edsel Records)\2018 12'' Mixes # 1\Five Star - 12'' Mixes # 1.wav

Peak level 100.0 %
Extraction speed 6.4 X
Range quality 100.0 %
Test CRC CFA249C9
Copy CRC CFA249C9
Copy OK

No errors occurred


AccurateRip summary

Track 1 not present in database
Track 2 not present in database
Track 3 not present in database
Track 4 not present in database
Track 5 not present in database
Track 6 not present in database
Track 7 not present in database
Track 8 not present in database
Track 9 not present in database
Track 10 not present in database
Track 11 not present in database
Track 12 not present in database
Track 13 not present in database

None of the tracks are present in the AccurateRip database

End of status report

–– CUETools DB Plugin V2.1.6

[CTDB TOCID: LWKpUUXM5GSPe96JiQ.BX0PlX7s-] found
Submit result: LWKpUUXM5GSPe96JiQ.BX0PlX7s- has been confirmed
Track | CTDB Status
1 | (4/4) Accurately ripped
2 | (4/4) Accurately ripped
3 | (4/4) Accurately ripped
4 | (4/4) Accurately ripped
5 | (4/4) Accurately ripped
6 | (4/4) Accurately ripped
7 | (4/4) Accurately ripped
8 | (4/4) Accurately ripped
9 | (4/4) Accurately ripped
10 | (4/4) Accurately ripped
11 | (4/4) Accurately ripped
12 | (4/4) Accurately ripped
13 | (4/4) Accurately ripped


==== Log checksum 4F5AFC9C89609AA37FEDA0C45969712EAFFBAA7E168B7C611E7D3A1898A0CCB8 ====


[CUETools log; Date: 26.07.2018 22:42:12; Version: 2.1.5]
[CTDB TOCID: LWKpUUXM5GSPe96JiQ.BX0PlX7s-] found.
Track | CTDB Status
1 | (6/6) Accurately ripped
2 | (6/6) Accurately ripped
3 | (6/6) Accurately ripped
4 | (6/6) Accurately ripped
5 | (6/6) Accurately ripped
6 | (6/6) Accurately ripped
7 | (6/6) Accurately ripped
8 | (6/6) Accurately ripped
9 | (6/6) Accurately ripped
10 | (6/6) Accurately ripped
11 | (6/6) Accurately ripped
12 | (6/6) Accurately ripped
13 | (6/6) Accurately ripped
[AccurateRip ID: 002449d8-01664d42-b710990d] disk not present in database.

Track Peak [ CRC32 ] [W/O NULL] [ LOG ]
– 100,0 [CFA249C9] [752D0263] CRC32
01 100,0 [846BFC04] [8DA31C9A]
02 94,3 [822FA3CA] [401D181E]
03 94,3 [326539C3] [C1082F49]
04 94,2 [D6D150F4] [F72784B8]
05 94,3 [5C91E452] [AFA25DE5]
06 94,3 [7CED084A] [763A2808]
07 100,0 [FE72D196] [0098FBB8]
08 100,0 [60853E69] [3C538CED]
09 94,3 [B4673BA1] [2580384E]
10 94,3 [6857BAD8] [EC634D0F]
11 94,3 [CE1AF5FF] [B8B745C5]
12 94,3 [2E7294BF] [7937C89E]
13 94,3 [D103431D] [F82534AC]


Tracklist CD9 - 2018 12'' Mixes # 2:

01 All Fall Down (M&M Dub Mix)
02 Let Me Be The One (Philadelphia Mix Edit) / feat Grover Washington, Jr.
03 Love Take Over (The Limit Edition Mix Edit)
04 Can't Wait Another Minute (The M-Groove Mix Version)
05 Find The Time (Dub Mix)
06 Whenever You’re Ready (Crazy Dub Jammy)
07 Somewhere Somebody (The Pettibone Remix)
08 Another Weekend (Friday Night Mix)
09 Rock My World (Extra-Terrestrial Mix)
10 Someone's In Love (Some Dub Mix)
11 With Every Heartbeat (Dub)
12 Somewhere Somebody (Dub Beats)
13 Someone's In Love (LP Remix)
14 Are You Man Enough? (Acapella Groove)





Tracklist DVD - Promotional Videos:

01 Hide And Seek
02 Crazy
03 All Fall Down
04 Let Me Be The One
05 Love Take Over
06 R.S.V.P.
07 System Addict
08 Can't Wait Another Minute
09 Find The Time
10 Rain Or Shine
11 If I Say Yes
12 Stay Out Of My Life
13 The Slightest Touch
14 Whenever You're Ready
15 Strong As Steel
16 Somewhere, Somebody
17 Another Weekend
18 Rock My World
19 There's A Brand New World
20 Let Me Be Yours
21 With Every Heartbeat
22 Treat Me Like A Lady
23 Hot Love
24 Shine
25 Another Weekend (12'' Version)
26 Treat Me Like A Lady (12'' Version)
27 Treat Me Like A Lady (US Version)

Title: DVD
Size: 6.08 Gb ( 6 378 040,00 KBytes ) - DVD-9
Enabled regions: 1, 2, 3, 4, 5, 6, 7, 8

VTS_01 :
Play Length: 00:03:31+00:04:05+00:03:28+00:03:37+00:03:49+00:03:24+00:04:02+01:53:00+{00:04:29}+{00:04:05}+{00:03:59}+{00:04:01}+{00:04:00}+{00:04:09}+{00:04:16}+{00:05:17}+{00:04:04}+{00:04:09}+{00:04:17}+{00:04:04}+{00:04:06}+{00:04:06}+{00:04:16}+{00:03:36}+{00:04:04}+{00:06:18}+{00:05:30}+{00:04:16}+00:00:09
Video: NTSC 16:9 (720x480) VBR, Auto Letterboxed
Audio:
English (LinearPCM, 2 ch)

VTS_02 :
Play Length: 00:00:00
Video: NTSC 16:9 (720x480) VBR, Auto Letterboxed


5 Star - Luxury: The Definitive Anthology 1984-1991 (2018) [9CD + DVD Box Set]

5 Star - Luxury: The Definitive Anthology 1984-1991 (2018) [9CD + DVD Box Set]

5 Star - Luxury: The Definitive Anthology 1984-1991 (2018) [9CD + DVD Box Set]

5 Star - Luxury: The Definitive Anthology 1984-1991 (2018) [9CD + DVD Box Set]

5 Star - Luxury: The Definitive Anthology 1984-1991 (2018) [9CD + DVD Box Set]

All thanks go to ALLexxess

Download 5 Star - Luxury: The Definitive Anthology 1984-1991 (2018):