Tags
Language
Tags
January 2023
Su Mo Tu We Th Fr Sa
1 2 3 4 5 6 7
8 9 10 11 12 13 14
15 16 17 18 19 20 21
22 23 24 25 26 27 28
29 30 31 1 2 3 4

Allan Taylor - All Is One (2013) {SACD, Audio CD Layer}

Posted By: popsakov
Allan Taylor - All Is One (2013) {SACD, Audio CD Layer}

Allan Taylor - All Is One (2013) {SACD, Audio CD Layer}
EAC Rip | FLAC (Img) + Cue + Log ~ 295 Mb | MP3 CBR320 ~ 126 Mb
Full Scans ~ 105 Mb | 00:52:03 | RAR 5% Recovery
Folk, Acoustic | Stockfisch Records #SFR 357.4078.2

For 40 years Allan Taylor, has been considered as the consummate performer, a writer of literary gracefulness whose troubadour chronicles encapsulate the realism of otherwise unsung heroes, otherwise uncharted lives. On previous albums Allan Taylor sang songs about the road, about all the different countries and all the hotel rooms. All Is One goes deeper - into time and ultimately to the recognition that All Is One. A powerful philosophical statement delivered with virtuoso lightness. Someone who is approaching 70 and calls his album All Is One obviously has something to say. Taylor plays his favorite Martin guitars with the same sensitivity for body, expression and autonomy which one finds in his vocal performance - always moving, and never merely vague. In the last song Allan Taylor summarizes: ''I may not be the perfect man, I guess I'll do the best I can'' - and ends the album with the bemused lightness of a simple D-major chord.
Allan Taylor - All Is One (2013) {SACD, Audio CD Layer}


***************

Allan Taylor - All Is One (2013) {SACD, Audio CD Layer}

Track List:

01. Endless Highway [04:50]
02. Let The Music Flow [05:30]
03. All Is One [07:32]
04. We Stood As One [05:35]
05. I Followed Her Into The West [04:32]
06. One Last Smile [05:01]
07. Plenty For The Few [04:37]
08. The Sky [08:40]
09. Like A Cloud (Canzone Del Ripensamento) [03:27]
10. The Best I Can [02:23]

Exact Audio Copy V1.0 beta 3 from 29. August 2011

Отчёт EAC об извлечении, выполненном 18. марта 2014, 15:39

Allan Taylor / All Is One

Дисковод: SlimtypeDVD A DS8A8SH Adapter: 0 ID: 1

Режим чтения : Достоверность
Использование точного потока : Да
Отключение кэша аудио : Да
Использование указателей C2 : Нет

Коррекция смещения при чтении : 6
Способность читать области Lead-in и Lead-out : Нет
Заполнение пропущенных сэмплов тишиной : Да
Удаление блоков с тишиной в начале и конце : Нет
При вычислениях CRC использовались нулевые сэмплы : Да
Интерфейс : Встроенный Win32-интерфейс для Win NT/2000

Выходной формат : Пользовательский кодировщик
Выбранный битрейт : 768 kBit/s
Качество : Высокий
Добавление ID3-тега : Нет
Утилита сжатия : C:\Program Files (x86)\Exact Audio Copy\Flac\flac.exe
Дополнительные параметры : -V -8 -T "Date=%year%" -T "Genre=%genre%" %source%


TOC извлечённого CD

Трек | Старт | Длительность | Начальный сектор | Конечный сектор
––––––––––––––––––––––––––––––––––-
1 | 0:00.00 | 4:49.59 | 0 | 21733
2 | 4:49.59 | 5:29.16 | 21734 | 46424
3 | 10:19.00 | 7:31.26 | 46425 | 80275
4 | 17:50.26 | 5:34.66 | 80276 | 105391
5 | 23:25.17 | 4:31.53 | 105392 | 125769
6 | 27:56.70 | 5:00.53 | 125770 | 148322
7 | 32:57.48 | 4:36.09 | 148323 | 169031
8 | 37:33.57 | 8:39.62 | 169032 | 208018
9 | 46:13.44 | 3:26.12 | 208019 | 223480
10 | 49:39.56 | 2:22.51 | 223481 | 234181


Характеристики диапазона извлечения и сообщения об ошибках

Выбранный диапазон

Имя файла D:\Music\Allan Taylor\FLAC\2013 - All is One\Allan Taylor - All Is One.wav

Пиковый уровень 94.4 %
Скорость извлечения 4.9 X
Качество диапазона 99.9 %
CRC теста 07F75698
CRC копии 07F75698
Копирование… OK

Ошибок не произошло


AccurateRip: сводка

Трек 1 : извлечено точно (доверие 22) [733A37C1] (AR v2)
Трек 2 : извлечено точно (доверие 22) [D4DE8ACE] (AR v2)
Трек 3 : извлечено точно (доверие 22) [8B01D247] (AR v2)
Трек 4 : извлечено точно (доверие 22) [6A32133E] (AR v2)
Трек 5 : извлечено точно (доверие 21) [AC7F11EC] (AR v2)
Трек 6 : извлечено точно (доверие 22) [42D88C97] (AR v2)
Трек 7 : извлечено точно (доверие 22) [AAD7CCD6] (AR v2)
Трек 8 : извлечено точно (доверие 22) [41324E28] (AR v2)
Трек 9 : извлечено точно (доверие 22) [26C15414] (AR v2)
Трек 10 : извлечено точно (доверие 21) [206DB48D] (AR v2)

Все треки извлечены точно

Конец отчёта

==== Контрольная сумма отчёта AB588A2CFC5407CCC7AEA99282B36501EC78F54C20F318A54655482F7179E7CB ====

[CUETools log; Date: 26.10.2019 18:34:22; Version: 2.1.6]
[CTDB TOCID: us4OLtDt9eBXDtvYFu_Lm_d.btY-] found.
Track | CTDB Status
1 | (255/256) Accurately ripped
2 | (256/256) Accurately ripped
3 | (256/256) Accurately ripped
4 | (255/256) Accurately ripped
5 | (255/256) Accurately ripped
6 | (256/256) Accurately ripped
7 | (254/256) Accurately ripped
8 | (255/256) Accurately ripped
9 | (255/256) Accurately ripped
10 | (252/256) Accurately ripped, or (2/256) differs in 4833 samples @02:22:30-02:22:38
[AccurateRip ID: 0014caca-00a5b1b0-940c320a] found.
Track [ CRC | V2 ] Status
01 [1e3f3081|733a37c1] (004+109/113) Accurately ripped
02 [cc1e8faf|d4de8ace] (004+107/111) Accurately ripped
03 [50be55eb|8b01d247] (004+107/111) Accurately ripped
04 [e96c8d19|6a32133e] (004+108/112) Accurately ripped
05 [1f1dbcfa|ac7f11ec] (004+105/109) Accurately ripped
06 [cfc3def8|42d88c97] (004+107/111) Accurately ripped
07 [57b5569d|aad7ccd6] (004+109/113) Accurately ripped
08 [33d424a8|41324e28] (004+107/111) Accurately ripped
09 [e5ae8b8a|26c15414] (004+107/111) Accurately ripped
10 [dd8f5134|206db48d] (004+107/111) Accurately ripped

Track Peak [ CRC32 ] [W/O NULL] [ LOG ]
– 94,4 [07F75698] [DDE47143] CRC32
01 94,4 [286FCDCA] [340FDE00]
02 94,4 [7C354B79] [914317CE]
03 94,4 [2BDF722E] [3A273F53]
04 94,4 [CEA2DFD3] [5FC2DEA4]
05 84,7 [80860AB0] [9181D64C]
06 94,4 [2F2F40D9] [E5FA9797]
07 94,4 [8ACEE72B] [FB911D84]
08 94,4 [C3BB9DC0] [97926E94]
09 94,4 [48624C8A] [D833318E]
10 89,5 [A100943F] [BF4CDF33]

Allan Taylor - All Is One (2013) {SACD, Audio CD Layer}


All thanks go to Camerado & mapSeamoff

>>> Allan Taylor in my Blog <<<

DOWNLOAD: