Subcategories

Andy Williams - Original Album Collection Vol. 2 (2013) Japanese Mini-LP 8CD Box Set [Re-Up]

Posted By: Designol
Andy Williams - Original Album Collection Vol. 2 (2013) Japanese Mini-LP 8CD Box Set [Re-Up]

Andy Williams - Original Album Collection Vol. 2 (2013) Mini LP 8 CD Box Set
EAC | FLAC | Image (Cue&Log) ~ 2.37 Gb | Mp3 (CBR320) ~ 1.15 Gb | Scans ~ 433 Mb | 04:36:02
Easy Listening, Standarts, Vocal Pop, Vocal Jazz, Early Pop/Rock | Label: Sony | # SICP-3750~7

Japanese original release. Box set includes seven original albums "Andy Williams' Dear Heart," "The Shadow of Your Smile," "Born Free," "Love, Andy," "Honey," "Happy Heart," and "Love Theme from The Godfather" plus a bonus disc "Andy Williams Live In Japan," featuring live recordings from the concerts held at Osaka Festival Hall on May 15 & 16, 1973. This bonus CD becomes available as CD for the first time in the world. Features remastering and cardboard sleeve faithfully replicating its US LP jacket design. Comes with lyrics and a description.

An engaging crooner, TV personality, and entrepreneur, Andy Williams was one of the most bankable and popular singers of his era. With his laid-back delivery, supple voice, and amiable charm, Williams rode a wave of success that took him from a childhood vocal act with his brothers to worldwide fame as a solo artist, eventually finding latter-day success as a theater impresario in Branson, Missouri. Though he started out as a crooner in the post-Frank Sinatra style, his wide-ranging taste in music (as evidenced by the guests on his '60s variety show) found him embracing artists and songs across generational and stylistic boundaries; and he can be heard on record interpreting songs that range from traditional pop to rock to bossa nova, country, and beyond. From the pre-rock & roll era onward, Williams was one of the most recognizable singers of his day.

Born in Wall Lake, Iowa, Williams sang in his church choir and later formed a quartet with his three brothers. The group performed on radio throughout the Midwest, then moved to Los Angeles to make it in show business. The Williams Brothers Quartet appeared on Bing Crosby's 1944 hit "Swinging on a Star" and appeared with comedienne Kay Thompson during the late '40s.

Andy Williams finally began his solo career in 1952, making several appearances on Steve Allen's The Tonight Show before signing a contract with Archie Bleyer's Cadence Records in 1955. He hit the Top Ten in 1956 with his third single for the label, "Canadian Sunset." One year later, his soft-toned cover of the Charlie Gracie rockabilly nugget "Butterfly" hit number one (it's still his biggest hit). Additional Top Ten entries "Are You Sincere," "Lonely Street," and "The Village of St. Bernadette" followed before Williams moved to Columbia in 1961.

Despite another big hit in 1963, "Can't Get Used to Losing You," Williams failed to generate much action on the singles charts during the 1960s. Instead, his highly rated variety program on NBC-TV spurred interest in the ever-growing LP market for adult and middle-of-the-road audiences. The popular 1962 album Moon River & Other Great Movie Themes featured the song he's most identified with, and the following year's Days of Wine and Roses hit the top of the album charts. Nine more LPs hit the Top Ten for Andy Williams during the '60s, many organized around loose themes – Broadway, ballads, and one album that featured members of his family. Though 1971's Love Story was a platinum success that sparked a Top Ten hit for the title song, his television show was canceled that year.

Andy Williams remained very popular during the '70s, especially for British audiences. His single "Solitaire" hit the Top Ten there in 1973, though it didn't even chart in America. Two of his subsequent albums also performed well, but only in Britain. He released relatively few LPs during the 1980s, but returned to the pop world in the early '90s when he founded his own theater/resort in the home-grown entertainment capital of Branson, Missouri. Williams continued to headline shows there for 20 years, although he announced from its stage during a Christmas 2011 show that he had been diagnosed with cancer. It finally took his life on September 25, 2012.

Biography by John Bush, Allmusic.com

Andy Williams - Original Album Collection Vol. 2 (2013) Japanese Mini-LP 8CD Box Set [Re-Up]






Andy Williams - Original Album Collection Vol. 2 (2013) Japanese Mini-LP 8CD Box Set [Re-Up]

CD1: Andy Williams - Andy Williams' Dear Heart (1965)
EAC | FLAC | Image (Cue&Log) ~ 242 Mb | Mp3 (CBR320) ~ 117 Mb
Label: Sony Music | # SICP-3750 | Time: 00:32:27 | Scans included

By 1965, a spring Andy Williams ballad album keyed to movie theme songs had become a 1960s tradition, and Dear Heart was the fourth in the series. Like its predecessors, Moon River & Other Great Movie Themes (1962), Days of Wine and Roses (1963), and The Academy Award Winning "Call Me Irresponsible" (1964), it featured the latest Henry Mancini movie song, in this case "Dear Heart," which had already become a Top 40 pop and Top Five easy listening hit for the singer. There were also other movie themes: "Almost There," from I'd Rather Be Rich, another previous chart entry; "I'm All Smiles" from The Yearling; and "Emily" from The Americanization of Emily. Most of the other selections were Williams' covers of songs that had been hits recently for other male pop singers: "Red Roses for a Blue Lady" (Vic Dana); "Who Can I Turn To (When Nobody Needs Me" (Tony Bennett); and "You're Nobody 'Til Somebody Loves You" and "Everybody Loves Somebody" (Dean Martin). The album was filled out by a few choice oldies: "It Had to Be You"; "I Can't Stop Loving You"; "Till." (There was also a performance of an early Kenny Rankin song, "My Carousel.") Williams applied his usual warm, smooth vocal style to all the songs, with string-filled arrangements that emphasized the melodies; not for him was the bluesy approach of Ray Charles on "I Can't Stop Loving You" or the '50s rock & roll rhythm of Dean Martin's "Everybody Loves Somebody." The album was a well-assembled collection of contemporary material in what had become Williams' patented style. It became his fifth consecutive gold-selling Top Ten LP.

William Ruhlmann, Allmusic.com

Tracklist:

01. Red Roses For A Blue Lady (2:29)
02. It Had To Be You (2:44)
03. I Can't Stop Loving You (2:30)
04. Till (3:09)
05. I'm All Smiles (2:28)
06. Who Can I Turn To? (When Nobody Needs Me) (2:26)
07. You're Nobody 'Til Somebody Loves You (2:39)
08. Emily (2:26)
09. Almost There (3:01)
10. My Carousel (2:30)
11. Everybody Loves Somebody (3:09)
12. Dear Heart (2:57)


Exact Audio Copy V1.0 beta 3 from 29. August 2011

EAC extraction logfile from 30. December 2013, 12:03

Andy Williams / Dear Heart

Used drive : PLEXTOR BD-R PX-B950SA Adapter: 6 ID: 0

Read mode : Secure
Utilize accurate stream : Yes
Defeat audio cache : Yes
Make use of C2 pointers : No

Read offset correction : 6
Overread into Lead-In and Lead-Out : No
Fill up missing offset samples with silence : Yes
Delete leading and trailing silent blocks : No
Null samples used in CRC calculations : Yes
Used interface : Native Win32 interface for Win NT & 2000

Used output format : Internal WAV Routines
Sample format : 44.100 Hz; 16 Bit; Stereo


TOC of the extracted CD

Track | Start | Length | Start sector | End sector
––––––––––––––––––––––––––––-
1 | 0:00.00 | 2:28.48 | 0 | 11147
2 | 2:28.48 | 2:44.15 | 11148 | 23462
3 | 5:12.63 | 2:30.16 | 23463 | 34728
4 | 7:43.04 | 3:08.66 | 34729 | 48894
5 | 10:51.70 | 2:27.62 | 48895 | 59981
6 | 13:19.57 | 2:25.52 | 59982 | 70908
7 | 15:45.34 | 2:38.55 | 70909 | 82813
8 | 18:24.14 | 2:25.65 | 82814 | 93753
9 | 20:50.04 | 3:01.36 | 93754 | 107364
10 | 23:51.40 | 2:29.68 | 107365 | 118607
11 | 26:21.33 | 3:08.53 | 118608 | 132760
12 | 29:30.11 | 2:56.70 | 132761 | 146030


Range status and errors

Selected range

Filename C:\Users\Meijin\Desktop\ALLexxess\Andy Williams\2013 Original Album Collection 2 (8 Mini LP CD Box Set Sony Japan)\Disc 1 1965 Andy Williams' Dear Heart\Andy Williams - Dear Heart.wav

Peak level 100.0 %
Extraction speed 6.4 X
Range quality 100.0 %
Test CRC 747055D8
Copy CRC 747055D8
Copy OK

No errors occurred


AccurateRip summary

Track 1 not present in database
Track 2 not present in database
Track 3 not present in database
Track 4 not present in database
Track 5 not present in database
Track 6 not present in database
Track 7 not present in database
Track 8 not present in database
Track 9 not present in database
Track 10 not present in database
Track 11 not present in database
Track 12 not present in database

None of the tracks are present in the AccurateRip database

End of status report

==== Log checksum FF97616DDA71163C6ECE55B0255B07373306E518695BC301E341DBC4F133F478 ====

foobar2000 1.1.7 / Dynamic Range Meter 1.1.1
log date: 2013-12-30 12:06:06

––––––––––––––––––––––––––––––––––––––––
Analyzed: Andy Williams / Dear Heart
––––––––––––––––––––––––––––––––––––––––

DR Peak RMS Duration Track
––––––––––––––––––––––––––––––––––––––––
DR9 -0.03 dB -10.69 dB 2:29 01-Red Roses For A Blue Lady
DR9 -0.33 dB -11.33 dB 2:44 02-It Had To Be You
DR9 -0.12 dB -11.05 dB 2:30 03-I Can't Stop Loving You
DR8 -0.15 dB -10.67 dB 3:09 04-Till
DR9 -0.12 dB -11.12 dB 2:28 05-I'm All Smiles
DR9 -0.17 dB -11.37 dB 2:26 06-Who Can I Turn To? (When Nobody Needs Me)
DR9 0.00 dB -10.94 dB 2:39 07-You're Nobody 'Til Somebody Loves You
DR9 -0.11 dB -10.52 dB 2:26 08-Emily
DR9 -0.21 dB -10.84 dB 3:01 09-Almost There
DR9 -0.15 dB -11.17 dB 2:30 10-My Carousel
DR8 -0.20 dB -10.43 dB 3:09 11-Everybody Loves Somebody
DR8 -0.10 dB -10.30 dB 2:57 12-Dear Heart
––––––––––––––––––––––––––––––––––––––––

Number of tracks: 12
Official DR value: DR9

Samplerate: 44100 Hz
Channels: 2
Bits per sample: 16
Bitrate: 1411 kbps
Codec: PCM
================================================================================




Andy Williams - Original Album Collection Vol. 2 (2013) Japanese Mini-LP 8CD Box Set [Re-Up]

CD2: Andy Williams - The Shadow Of Your Smile (1966)
EAC | FLAC | Image (Cue&Log) ~ 255 Mb | Mp3 (CBR320) ~ 119 Mb
Label: Sony Music | # SICP-3751 | Time: 00:34:51 | Scans included

With a couple of re-titled reissues (Hawaiian Wedding Song, Canadian Sunset) in 1965 and a compilation (Andy Williams' Newest Hits) in early 1966 to keep customers happy, Andy Williams was able to take more than a year to craft a follow-up to Dear Heart. When The Shadow of Your Smile appeared in the spring of 1966, it was, on the surface, a typical Andy Williams album. It was titled after the year's Academy Award-winning Best Song (from The Sandpiper) and otherwise combining songs that, if not brand-new, had recently been hits for other artists, such as "Try to Remember" (Ed Ames), "Somewhere" (P.J. Proby), and "A Taste of Honey" (Herb Alpert and the Tijuana Brass), with old favorites like "That Old Feeling," "Peg O' My Heart," and "Bye Bye Blues." But there were notable changes in Williams' approach. Two years after the British Invasion and the bossa nova craze, he acknowledged both movements with two covers each. From the Beatles came "Michelle" and "Yesterday"; from Antonio Carlos Jobim came "Meditation" and "How Insensitive." Of course, such material was not entirely foreign to Williams, who had put a bossa nova version of "Begin the Beguine" on The Great Songs from "My Fair Lady" and Other Broadway Hits in 1964 and recorded Under Paris Skies, an album that easily could have included "Michelle," had it been written yet, in 1960. But The Shadow of Your Smile also had a slower, more languorous feel than earlier Williams albums, and it had more vocal risk-taking, particularly on the Jobim numbers and in the long-held note at the end of "Somewhere." The alterations indicated that Williams was not content to simply turn out the same sort of album over and over, and that he was paying attention to the changes in popular music around him.

William Ruhlmann, Allmusic.com

Tracklist:

01. The Sadow Of Your Smile (Love Theme From 'The Sandpiper') (3:07)
02. That Old Feeling (2:54)
03. Meditation (3:07)
04. Try To Remember (2:57)
05. Michelle (3:27)
06. Somewhere (3:02)
07. The Summer Of Our Love (2:41)
08. Peg O' My Heart (2:26)
09. How Insensitive (2:42)
10. Yesterday (2:53)
11. Bye Bye Blues (2:46)
12. A Taste Of Honey (2:51)


Exact Audio Copy V1.0 beta 3 from 29. August 2011

EAC extraction logfile from 30. December 2013, 11:34

Andy Williams / The Shadow Of Your Smile

Used drive : PLEXTOR BD-R PX-B950SA Adapter: 6 ID: 0

Read mode : Secure
Utilize accurate stream : Yes
Defeat audio cache : Yes
Make use of C2 pointers : No

Read offset correction : 6
Overread into Lead-In and Lead-Out : No
Fill up missing offset samples with silence : Yes
Delete leading and trailing silent blocks : No
Null samples used in CRC calculations : Yes
Used interface : Native Win32 interface for Win NT & 2000

Used output format : Internal WAV Routines
Sample format : 44.100 Hz; 16 Bit; Stereo


TOC of the extracted CD

Track | Start | Length | Start sector | End sector
––––––––––––––––––––––––––––-
1 | 0:00.00 | 3:06.67 | 0 | 14016
2 | 3:06.67 | 2:53.56 | 14017 | 27047
3 | 6:00.48 | 3:06.73 | 27048 | 41070
4 | 9:07.46 | 2:57.23 | 41071 | 54368
5 | 12:04.69 | 3:26.69 | 54369 | 69887
6 | 15:31.63 | 3:01.64 | 69888 | 83526
7 | 18:33.52 | 2:40.57 | 83527 | 95583
8 | 21:14.34 | 2:25.46 | 95584 | 106504
9 | 23:40.05 | 2:41.68 | 106505 | 118647
10 | 26:21.73 | 2:52.41 | 118648 | 131588
11 | 29:14.39 | 2:45.69 | 131589 | 144032
12 | 32:00.33 | 2:50.69 | 144033 | 156851


Range status and errors

Selected range

Filename C:\Users\Meijin\Desktop\ALLexxess\Andy Williams\2013 Original Album Collection 2 (8 Mini LP CD Box Set Sony Japan)\Disc 2 1966 The Shadow Of Your Smile\Andy Williams - The Shadow Of Your Smile.wav

Peak level 100.0 %
Extraction speed 6.5 X
Range quality 100.0 %
Test CRC E613F5E3
Copy CRC E613F5E3
Copy OK

No errors occurred


AccurateRip summary

Track 1 not present in database
Track 2 not present in database
Track 3 not present in database
Track 4 not present in database
Track 5 not present in database
Track 6 not present in database
Track 7 not present in database
Track 8 not present in database
Track 9 not present in database
Track 10 not present in database
Track 11 not present in database
Track 12 not present in database

None of the tracks are present in the AccurateRip database

End of status report

==== Log checksum F40117AE783A88B18216A1E9D7536E2B7FABC96F683CB84501A8EFD87D54C0AA ====

foobar2000 1.1.7 / Dynamic Range Meter 1.1.1
log date: 2013-12-30 11:38:59

––––––––––––––––––––––––––––––––––––––––
Analyzed: Andy Williams / The Shadow Of Your Smile
––––––––––––––––––––––––––––––––––––––––

DR Peak RMS Duration Track
––––––––––––––––––––––––––––––––––––––––
DR8 -0.16 dB -10.76 dB 3:07 01-The Sadow Of Your Smile (Love Theme From 'The Sandpiper')
DR8 0.00 dB -10.00 dB 2:54 02-That Old Feeling
DR7 -0.04 dB -9.30 dB 3:07 03-Meditation
DR8 -0.09 dB -9.92 dB 2:57 04-Try To Remember
DR8 -0.13 dB -9.93 dB 3:27 05-Michelle
DR7 -0.11 dB -9.99 dB 3:02 06-Somewhere
DR8 -0.16 dB -11.11 dB 2:41 07-The Summer Of Our Love
DR8 0.00 dB -10.39 dB 2:26 08-Peg O' My Heart
DR9 -0.14 dB -11.02 dB 2:42 09-How Insensitive
DR8 -0.08 dB -10.26 dB 2:53 10-Yesterday
DR9 0.00 dB -11.03 dB 2:46 11-Bye Bye Blues
DR8 0.00 dB -10.47 dB 2:51 12-A Taste Of Honey
––––––––––––––––––––––––––––––––––––––––

Number of tracks: 12
Official DR value: DR8

Samplerate: 44100 Hz
Channels: 2
Bits per sample: 16
Bitrate: 1411 kbps
Codec: PCM
================================================================================




Andy Williams - Original Album Collection Vol. 2 (2013) Japanese Mini-LP 8CD Box Set [Re-Up]

CD3: Andy Williams - Born Free (1967)
EAC | FLAC | Image (Cue&Log) ~ 262 Mb | Mp3 (CBR320) ~ 133 Mb
Label: Sony Music | # SICP-3752 | Time: 00:33:44 | Scans included

For the sixth year in a row, Andy Williams greeted the spring with a new album keyed to the Academy Award Best Song nominations, and his audience rewarded him yet again with a Top Ten placing and a gold record. For the fifth time in six years, the album was titled after the Oscar winner (the only exception being 1965, when he bet on "Dear Heart" instead of "Chim Chim Cheree") and also featured other movie songs, in this case "Somewhere, My Love" from Dr. Zhivago, "Strangers in the Night" from A Man Could Get Killed, "I Will Wait for You" from The Umbrellas of Cherbourg, and "Alfie." And, as usual, Williams took for his own songs popularized by his fellow male pop singers, Frank Sinatra's "Strangers in the Night" and Al Martino's "Spanish Eyes." But Born Free marked a notable contemporization of the Williams formula. On his most recent albums, The Shadow of Your Smile and In the Arms of Love, he had leaned toward Brazilian sounds, recording more obscure material and several standards from the interwar period. In the Arms of Love, released only four months before Born Free, had sold disappointingly. Williams reacted by dropping the bossa nova and the oldies and looked more to the recent pop charts for covers like Bobby Hebb's "Sunny." He even recorded "I Want to Be Free" (AKA "I Wanna Be Free") from the Monkees' first album. And he scored a Top 40 hit with a pop/rock arrangement of "Music to Watch Girls By," the tune that originated on a Diet Pepsi commercial and had been an instrumental hit for the Bob Crewe Generation. At a time when non-rock pop singers were beginning to be marginalized, Williams successfully threaded the needle, reassuring his older listeners while proving adaptable to current trends.

William Ruhlmann, Allmusic.com

Tracklist:

01. Born Free (2:28)
02. Somewhere, My Love (Lara's Theme From 'Dr. Zhivago') (2:38)
03. Spanish Eyes (3:04)
04. Strangers In The Night (2:33)
05. Sherry! (2:28)
06. Music To Watch Girls By (2:38)
07. I Want To Be Free (3:20)
08. Alfie (2:55)
09. Then You Can Tell Me Goodbye (2:38)
10. Sunny (3:18)
11. I Will Wait For You (2:38)
12. You Are Where Everything Is (3:06)


Exact Audio Copy V1.0 beta 3 from 29. August 2011

EAC extraction logfile from 30. December 2013, 11:12

Andy Williams / Born Free

Used drive : PLEXTOR BD-R PX-B950SA Adapter: 6 ID: 0

Read mode : Secure
Utilize accurate stream : Yes
Defeat audio cache : Yes
Make use of C2 pointers : No

Read offset correction : 6
Overread into Lead-In and Lead-Out : No
Fill up missing offset samples with silence : Yes
Delete leading and trailing silent blocks : No
Null samples used in CRC calculations : Yes
Used interface : Native Win32 interface for Win NT & 2000

Used output format : Internal WAV Routines
Sample format : 44.100 Hz; 16 Bit; Stereo


TOC of the extracted CD

Track | Start | Length | Start sector | End sector
––––––––––––––––––––––––––––-
1 | 0:00.00 | 2:27.59 | 0 | 11083
2 | 2:27.59 | 2:38.04 | 11084 | 22937
3 | 5:05.63 | 3:03.48 | 22938 | 36710
4 | 8:09.36 | 2:33.14 | 36711 | 48199
5 | 10:42.50 | 2:27.44 | 48200 | 59268
6 | 13:10.19 | 2:38.24 | 59269 | 71142
7 | 15:48.43 | 3:20.28 | 71143 | 86170
8 | 19:08.71 | 2:55.01 | 86171 | 99296
9 | 22:03.72 | 2:37.50 | 99297 | 111121
10 | 24:41.47 | 3:17.60 | 111122 | 125956
11 | 27:59.32 | 2:38.19 | 125957 | 137825
12 | 30:37.51 | 3:05.70 | 137826 | 151770


Range status and errors

Selected range

Filename C:\Users\Meijin\Desktop\ALLexxess\Andy Williams\2013 Original Album Collection 2 (8 Mini LP CD Box Set Sony Japan)\Disc 3 1967 Born Free\Andy Williams - Born Free.wav

Peak level 100.0 %
Extraction speed 6.5 X
Range quality 100.0 %
Test CRC D400E082
Copy CRC D400E082
Copy OK

No errors occurred


AccurateRip summary

Track 1 not present in database
Track 2 not present in database
Track 3 not present in database
Track 4 not present in database
Track 5 not present in database
Track 6 not present in database
Track 7 not present in database
Track 8 not present in database
Track 9 not present in database
Track 10 not present in database
Track 11 not present in database
Track 12 not present in database

None of the tracks are present in the AccurateRip database

End of status report

==== Log checksum E576F0C6DAB18F91DD64C8DF51D4465E811E1CB7EAC3A3BEB43628403C3D1362 ====

foobar2000 1.1.7 / Dynamic Range Meter 1.1.1
log date: 2013-12-30 11:15:19

––––––––––––––––––––––––––––––––––––––––
Analyzed: Andy Williams / Born Free
––––––––––––––––––––––––––––––––––––––––

DR Peak RMS Duration Track
––––––––––––––––––––––––––––––––––––––––
DR8 -0.09 dB -10.76 dB 2:28 01-Born Free
DR9 -0.11 dB -10.74 dB 2:38 02-Somewhere, My Love (Lara's Theme From 'Dr. Zhivago')
DR8 -0.03 dB -11.48 dB 3:04 03-Spanish Eyes
DR9 -0.04 dB -11.12 dB 2:33 04-Strangers In The Night
DR8 -0.08 dB -10.25 dB 2:28 05-Sherry!
DR8 0.00 dB -9.96 dB 2:38 06-Music To Watch Girls By
DR10 -0.02 dB -12.88 dB 3:20 07-I Want To Be Free
DR9 -0.13 dB -11.95 dB 2:55 08-Alfie
DR10 -0.15 dB -13.38 dB 2:38 09-Then You Can Tell Me Goodbye
DR9 -0.10 dB -11.50 dB 3:18 10-Sunny
DR8 -0.16 dB -10.10 dB 2:38 11-I Will Wait For You
DR8 0.00 dB -10.09 dB 3:06 12-You Are Where Everything Is
––––––––––––––––––––––––––––––––––––––––

Number of tracks: 12
Official DR value: DR9

Samplerate: 44100 Hz
Channels: 2
Bits per sample: 16
Bitrate: 1411 kbps
Codec: PCM
================================================================================




Andy Williams - Original Album Collection Vol. 2 (2013) Japanese Mini-LP 8CD Box Set [Re-Up]

CD4: Andy Williams - Love, Andy (1967)
EAC | FLAC | Image (Cue&Log) ~ 250 Mb | Mp3 (CBR320) ~ 126 Mb
Label: Sony Music | # SICP-3753 | Time: 00:30:37 | Scans included

In the fall of 1967, Andy Williams was gone from the regular prime time television schedule, cutting back to a few specials after five years of hosting his weekly variety show. But Williams fans could console themselves with a new album that delivered the usual musical pleasures. The singer had edged more toward contemporary sounds on his previous release, the previous spring's Born Free, bringing in a rock rhythm section and sticking to current material. Love, Andy edged back a bit, focusing more on string arrangements. As usual, Williams made his song choices from certain categories, particularly movie theme songs and recent pop hits. Among the former were "Watch What Happens" from The Umbrellas of Cherbourg, also the source for "I Will Wait for You" from Born Free; "The Look of Love" from Casino Royale; and "When I Look in Your Eyes" from the just-issued soundtrack to the upcoming Christmas release Doctor Doolittle. The latter category included Williams' takes on Nancy and Frank Sinatra's "Somethin' Stupid" and Frankie Valli's "Can't Take My Eyes Off You." Williams' affection for things Gallic was expressed not only in "Watch What Happens," but also in "What Now, My Love." He returned to oldies in the form of two Harry Warren/Mack Gordon movie songs from the 1940s that suggested he'd been paying attention to Chris Montez, who had lately revived "The More I See You" and "There Will Never Be Another You" for hits. He kept current by covering the Beach Boys' "God Only Knows," and even threw in a new song, "Holly," which was released as a single and made the easy listening Top Five. Taken together, the album was a balanced collection, not unlike a variety show on record made by an artist mindful of trying to appeal to the widest audience possible.

William Ruhlmann, Allmusic.com

Tracklist:

01. Somethin' Stupid (2:59)
02. Watch What Happens (2:28)
03. The Look Of Love (2:55)
04. What Now My Love (2:08)
05. Can't Take My Eys Off Of You (3:15)
06. Kisses Sweeter Than Wine (2:51)
07. Holly (2:25)
08. When I Look In Your Eyes (3:22)
09. The More I See You (2:25)
10. There Will Never Be Another You (2:53)
11. God Only Knows (2:55)


Exact Audio Copy V1.0 beta 3 from 29. August 2011

EAC extraction logfile from 30. December 2013, 10:47

Andy Williams / Love, Andy

Used drive : PLEXTOR BD-R PX-B950SA Adapter: 6 ID: 0

Read mode : Secure
Utilize accurate stream : Yes
Defeat audio cache : Yes
Make use of C2 pointers : No

Read offset correction : 6
Overread into Lead-In and Lead-Out : No
Fill up missing offset samples with silence : Yes
Delete leading and trailing silent blocks : No
Null samples used in CRC calculations : Yes
Used interface : Native Win32 interface for Win NT & 2000

Used output format : Internal WAV Routines
Sample format : 44.100 Hz; 16 Bit; Stereo


TOC of the extracted CD

Track | Start | Length | Start sector | End sector
––––––––––––––––––––––––––––-
1 | 0:00.00 | 2:58.67 | 0 | 13416
2 | 2:58.67 | 2:28.22 | 13417 | 24538
3 | 5:27.14 | 2:55.11 | 24539 | 37674
4 | 8:22.25 | 2:08.04 | 37675 | 47278
5 | 10:30.29 | 3:14.70 | 47279 | 61898
6 | 13:45.24 | 2:50.67 | 61899 | 74715
7 | 16:36.16 | 2:25.22 | 74716 | 85612
8 | 19:01.38 | 3:21.71 | 85613 | 100758
9 | 22:23.34 | 2:25.33 | 100759 | 111666
10 | 24:48.67 | 2:53.29 | 111667 | 124670
11 | 27:42.21 | 2:54.69 | 124671 | 137789


Range status and errors

Selected range

Filename C:\Users\Meijin\Desktop\ALLexxess\Andy Williams\2013 Original Album Collection 2 (8 Mini LP CD Box Set Sony Japan)\Disc 4 1967 Love, Andy\Andy Williams - Love, Andy.wav

Peak level 100.0 %
Extraction speed 6.3 X
Range quality 100.0 %
Test CRC 10AE1C7C
Copy CRC 10AE1C7C
Copy OK

No errors occurred


AccurateRip summary

Track 1 not present in database
Track 2 not present in database
Track 3 not present in database
Track 4 not present in database
Track 5 not present in database
Track 6 not present in database
Track 7 not present in database
Track 8 not present in database
Track 9 not present in database
Track 10 not present in database
Track 11 not present in database

None of the tracks are present in the AccurateRip database

End of status report

==== Log checksum F0D68E31C6DF204240F51AAB0FF45AE82944A688905DD2303AD7DDFCA8554630 ====

foobar2000 1.1.7 / Dynamic Range Meter 1.1.1
log date: 2013-12-30 10:51:04

––––––––––––––––––––––––––––––––––––––––
Analyzed: Andy Williams / Love, Andy
––––––––––––––––––––––––––––––––––––––––

DR Peak RMS Duration Track
––––––––––––––––––––––––––––––––––––––––
DR8 -0.09 dB -10.43 dB 2:59 01-Somethin' Stupid
DR8 0.00 dB -9.85 dB 2:28 02-Watch What Happens
DR7 0.00 dB -10.38 dB 2:55 03-The Look Of Love
DR8 -0.09 dB -9.71 dB 2:08 04-What Now My Love
DR7 -0.07 dB -9.41 dB 3:15 05-Can't Take My Eys Off Of You
DR7 -0.02 dB -9.37 dB 2:51 06-Kisses Sweeter Than Wine
DR8 -0.01 dB -10.51 dB 2:25 07-Holly
DR8 -0.37 dB -11.74 dB 3:22 08-When I Look In Your Eyes
DR8 -0.35 dB -10.74 dB 2:25 09-The More I See You
DR7 -0.11 dB -9.45 dB 2:53 10-There Will Never Be Another You
DR7 -0.20 dB -10.77 dB 2:55 11-God Only Knows
––––––––––––––––––––––––––––––––––––––––

Number of tracks: 11
Official DR value: DR8

Samplerate: 44100 Hz
Channels: 2
Bits per sample: 16
Bitrate: 1411 kbps
Codec: PCM
================================================================================




Andy Williams - Original Album Collection Vol. 2 (2013) Japanese Mini-LP 8CD Box Set [Re-Up]

CD5: Andy Williams - Honey (1968)
EAC | FLAC | Image (Cue&Log) ~ 274 Mb | Mp3 (CBR320) ~ 134 Mb
Label: Sony Music | # SICP-3754 | Time: 00:35:08 | Scans included

In the late '60s, record company executives like Clive Davis of Columbia were encouraging their middle-of-the-road pop singers to cover the songs of contemporary pop/rock performers as a way of staying current. Andy Williams, who was a bit younger than his peers, needed no such encouragement, as he had been drawing on the recent hit parade for some of his material for years. But Honey marked his complete crossover to such an approach. Where earlier Williams albums had been a canny mix of movie songs, standards, pop hits, and foreign – especially French – material, ten of Honey's 11 tracks were songs that had been Top 40 hits in the last two years. (The only exception was "Our Last Goodbye," co-written by Williams favorite Nick De Caro, which musically was a retread of another recent Top 40 hit, "A Whiter Shade of Pale.") True, there were a couple of movie songs ("This Is My Song" from The Countess From Hong Kong and "Theme From 'Valley of the Dolls,'" plus "Scarborough Fair/Canticle," not written for, but heavily featured in, The Graduate) and even one show tune ("The Impossible Dream [The Quest]" from Man of La Mancha), and "Love Is Blue" was French. But the songs were for the most part closely associated with hit recordings by the likes of the Association, the 5th Dimension, and Glen Campbell. The arrangements closely resembled those of the hit recordings, so the appeal of the album seemed to be exclusively to Williams fans who wanted to hear their hero, rather than Bobby Goldsboro, sing the maudlin hit "Honey." Columbia didn't even put Williams' current single, "Sweet Memories," on the LP. The singer did his best and was rewarded with yet another Top Ten gold-record seller, but the album lacked the balance of earlier efforts.

William Ruhlmann, Allmusic.com

Tracklist:

01. Scarborough Fair / Canticle (3:41)
02. Love Is Blue (L'Amour Est Bleu) (2:44)
03. By The Time I Get To Phoenix (3:48)
04. Theme From 'The Valley Of The Dolls' (3:38)
05. This Is My Song (2:56)
06. The Impossible Dream (The Quest) (2:41)
07. Honey (I Miss You) (4:30)
08. Windy (2:26)
09. Up, Up And Away (2:36)
10. Our Last Goodbye (2:49)
11. Spooky (3:18)


Exact Audio Copy V1.0 beta 3 from 29. August 2011

EAC extraction logfile from 29. December 2013, 21:55

Andy Williams / Honey

Used drive : PLEXTOR BD-R PX-B950SA Adapter: 6 ID: 0

Read mode : Secure
Utilize accurate stream : Yes
Defeat audio cache : Yes
Make use of C2 pointers : No

Read offset correction : 6
Overread into Lead-In and Lead-Out : No
Fill up missing offset samples with silence : Yes
Delete leading and trailing silent blocks : No
Null samples used in CRC calculations : Yes
Used interface : Native Win32 interface for Win NT & 2000

Used output format : Internal WAV Routines
Sample format : 44.100 Hz; 16 Bit; Stereo


TOC of the extracted CD

Track | Start | Length | Start sector | End sector
––––––––––––––––––––––––––––-
1 | 0:00.00 | 3:41.34 | 0 | 16608
2 | 3:41.34 | 2:44.37 | 16609 | 28945
3 | 6:25.71 | 3:47.65 | 28946 | 46035
4 | 10:13.61 | 3:38.23 | 46036 | 62408
5 | 13:52.09 | 2:56.33 | 62409 | 75641
6 | 16:48.42 | 2:40.63 | 75642 | 87704
7 | 19:29.30 | 4:29.66 | 87705 | 107945
8 | 23:59.21 | 2:25.47 | 107946 | 118867
9 | 26:24.68 | 2:36.05 | 118868 | 130572
10 | 29:00.73 | 2:48.74 | 130573 | 143246
11 | 31:49.72 | 3:17.53 | 143247 | 158074


Range status and errors

Selected range

Filename C:\Users\Meijin\Desktop\ALLexxess\Andy Williams\2013 Original Album Collection 2 (8 Mini LP CD Box Set Sony Japan)\Disc 5 1968 Honey\Andy Williams - Honey.wav

Peak level 99.8 %
Extraction speed 6.5 X
Range quality 100.0 %
Test CRC 43073856
Copy CRC 43073856
Copy OK

No errors occurred


AccurateRip summary

Track 1 not present in database
Track 2 not present in database
Track 3 not present in database
Track 4 not present in database
Track 5 not present in database
Track 6 not present in database
Track 7 not present in database
Track 8 not present in database
Track 9 not present in database
Track 10 not present in database
Track 11 not present in database

None of the tracks are present in the AccurateRip database

End of status report

==== Log checksum 03FB94A47A2A273A78B0F3C6CD33A9FDD2D56DB033AF8A22A848401F67B85571 ====

foobar2000 1.1.7 / Dynamic Range Meter 1.1.1
log date: 2013-12-29 21:59:05

––––––––––––––––––––––––––––––––––––––––
Analyzed: Andy Williams / Honey
––––––––––––––––––––––––––––––––––––––––

DR Peak RMS Duration Track
––––––––––––––––––––––––––––––––––––––––
DR9 -0.15 dB -12.96 dB 3:41 01-Scarborough Fair / Canticle
DR8 -0.32 dB -11.93 dB 2:44 02-Love Is Blue (L'Amour Est Bleu)
DR8 -0.21 dB -11.34 dB 3:48 03-By The Time I Get To Phoenix
DR7 -0.02 dB -10.50 dB 3:38 04-Theme From 'The Valley Of The Dolls'
DR7 -0.04 dB -9.99 dB 2:56 05-This Is My Song
DR7 -0.05 dB -9.76 dB 2:41 06-The Impossible Dream (The Quest)
DR8 -0.02 dB -11.31 dB 4:30 07-Honey (I Miss You)
DR8 -0.13 dB -9.83 dB 2:26 08-Windy
DR7 -0.09 dB -9.18 dB 2:36 09-Up, Up And Away
DR9 -0.07 dB -11.94 dB 2:49 10-Our Last Goodbye
DR8 -0.07 dB -10.26 dB 3:18 11-Spooky
––––––––––––––––––––––––––––––––––––––––

Number of tracks: 11
Official DR value: DR8

Samplerate: 44100 Hz
Channels: 2
Bits per sample: 16
Bitrate: 1411 kbps
Codec: PCM
================================================================================




Andy Williams - Original Album Collection Vol. 2 (2013) Japanese Mini-LP 8CD Box Set [Re-Up]

CD6: Andy Williams - Happy Heart (1969)
EAC | FLAC | Image (Cue&Log) ~ 290 Mb | Mp3 (CBR320) ~ 142 Mb
Label: Sony Music | # SICP-3755 | Time: 00:37:02 | Scans included

In the spring of 1969, Andy Williams scored his biggest pop hit in four and a half years with the German import "Happy Heart," getting well into the Top 40. (The single probably would have done even better if there hadn't been a competing version by Petula Clark.) This was reason enough to slap together an album of the same name, filled out with the singer's interpretations of current pop hits. But the Happy Heart LP didn't really differ much in its approach from Williams' previous album, Honey, which also contained nearly all pop covers. The only real difference was that this time Williams was not waiting so long. "My Way" was just peaking in the charts for Frank Sinatra, for example, as was Elvis Presley's "Memories," and Glen Campbell's "Where's the Playground Susie" had only just come out. It was as if Williams was picking the tracks by listening to the radio on the way to the studio. Campbell and his favorite songwriter, Jimmy Webb, were particular favorites: Williams also covered "Wichita Lineman" (written by Webb and recorded by Campbell), "Gentle on My Mind" (recorded by Campbell), and "Didn't We" (written by Webb), as well as "Where's the Playground Susie" (written by Webb). The arrangements were close approximations of those on the hit versions by Stevie Wonder ("For Once in My Life"), O.C. Smith ("Little Green Apples"), and the rest, so that the main appeal of the album seemed to be that Williams' voice replaced that of the familiar one. In the case of Dion's "Abraham, Martin and John," the tribute to Robert F. Kennedy and other slain leaders, Williams, a friend of Kennedy's, certainly had a claim on the song, and he sang it with conviction. Elsewhere, he seemed to be turning in a professional but uninspired job.

William Ruhlmann, Allmusic.com

Tracklist:

01. For Once In My Life (2:54)
02. Where's The Playground Susie? (2:52)
03. My Way (3:43)
04. Wichita Lineman (2:57)
05. Happy Heart (3:14)
06. Gentle On My Mind (3:11)
07. Didn't We (3:26)
08. Memories (3:46)
09. Little Green Apples (4:02)
10. Here, There And Everywhere (3:14)
11. Abraham, Martin And John (3:43)


Exact Audio Copy V1.0 beta 3 from 29. August 2011

EAC extraction logfile from 29. December 2013, 21:33

Andy Williams / Happy Heart

Used drive : PLEXTOR BD-R PX-B950SA Adapter: 6 ID: 0

Read mode : Secure
Utilize accurate stream : Yes
Defeat audio cache : Yes
Make use of C2 pointers : No

Read offset correction : 6
Overread into Lead-In and Lead-Out : No
Fill up missing offset samples with silence : Yes
Delete leading and trailing silent blocks : No
Null samples used in CRC calculations : Yes
Used interface : Native Win32 interface for Win NT & 2000

Used output format : Internal WAV Routines
Sample format : 44.100 Hz; 16 Bit; Stereo


TOC of the extracted CD

Track | Start | Length | Start sector | End sector
––––––––––––––––––––––––––––-
1 | 0:00.00 | 2:53.48 | 0 | 13022
2 | 2:53.48 | 2:51.52 | 13023 | 25899
3 | 5:45.25 | 3:42.58 | 25900 | 42607
4 | 9:28.08 | 2:56.60 | 42608 | 55867
5 | 12:24.68 | 3:14.35 | 55868 | 70452
6 | 15:39.28 | 3:10.43 | 70453 | 84745
7 | 18:49.71 | 3:26.07 | 84746 | 100202
8 | 22:16.03 | 3:46.01 | 100203 | 117153
9 | 26:02.04 | 4:02.24 | 117154 | 135327
10 | 30:04.28 | 3:14.26 | 135328 | 149903
11 | 33:18.54 | 3:42.68 | 149904 | 166621


Range status and errors

Selected range

Filename C:\Users\Meijin\Desktop\ALLexxess\Andy Williams\2013 Original Album Collection 2 (8 Mini LP CD Box Set Sony Japan)\Disc 6 1969 Happy Heart\Andy Williams - Happy Heart.wav

Peak level 100.0 %
Extraction speed 6.6 X
Range quality 100.0 %
Test CRC 7D730E82
Copy CRC 7D730E82
Copy OK

No errors occurred


AccurateRip summary

Track 1 not present in database
Track 2 not present in database
Track 3 not present in database
Track 4 not present in database
Track 5 not present in database
Track 6 not present in database
Track 7 not present in database
Track 8 not present in database
Track 9 not present in database
Track 10 not present in database
Track 11 not present in database

None of the tracks are present in the AccurateRip database

End of status report

==== Log checksum FD27CE6871680BA489FF0CB445D84338ABF29ADEBAB59A4AAE6018CD65E3D160 ====

foobar2000 1.1.7 / Dynamic Range Meter 1.1.1
log date: 2013-12-29 21:36:50

––––––––––––––––––––––––––––––––––––––––
Analyzed: Andy Williams / Happy Heart
––––––––––––––––––––––––––––––––––––––––

DR Peak RMS Duration Track
––––––––––––––––––––––––––––––––––––––––
DR8 0.00 dB -10.02 dB 2:54 01-For Once In My Life
DR7 -0.12 dB -10.49 dB 2:52 02-Where's The Playground Susie?
DR7 -0.13 dB -10.72 dB 3:43 03-My Way
DR8 0.00 dB -10.15 dB 2:57 04-Wichita Lineman
DR7 0.00 dB -10.49 dB 3:14 05-Happy Heart
DR9 0.00 dB -10.66 dB 3:11 06-Gentle On My Mind
DR7 -0.09 dB -11.06 dB 3:26 07-Didn't We
DR9 -0.04 dB -12.06 dB 3:46 08-Memories
DR9 -0.22 dB -12.52 dB 4:02 09-Little Green Apples
DR9 -0.15 dB -11.39 dB 3:14 10-Here, There And Everywhere
DR10 -0.31 dB -14.47 dB 3:43 11-Abraham, Martin And John
––––––––––––––––––––––––––––––––––––––––

Number of tracks: 11
Official DR value: DR8

Samplerate: 44100 Hz
Channels: 2
Bits per sample: 16
Bitrate: 1411 kbps
Codec: PCM
================================================================================




Andy Williams - Original Album Collection Vol. 2 (2013) Japanese Mini-LP 8CD Box Set [Re-Up]

CD7: Andy Williams - Love Story (1971)
EAC | FLAC | Image (Cue&Log) ~ 311 Mb | Mp3 (CBR320) ~ 149 Mb
Label: Sony Music | # SICP-3756 | Time: 00:39:24 | Scans included

This is a precious feast to enjoy of delightful '70s love songs, sung and performed with sincerity by beloved pop singer talent Andy Williams. Though not as special or charming as the original performances, Williams gives all of his soul and heart to pull off some stirring renditions of the amiable type to the kind listener. Favorites of the '70s feature the Beatles' "Something," James Taylor's "Fire and Rain," and Elton John's "Your Song." Invigorating at times, the songs seem to achieve the purpose of easing the listener's stress-filled day. Dick Glasser gives much of his time as producer in finding Andy Williams' unique sound, with Artie Butler and Dick Hazard playing a splendid role in the arrangements. A wistful breath of fresh air away from the takeover of entertainers Frank Sinatra and Neil Diamond, the record is a pleasant listening experience for those who appreciate romantic ballads and melancholy orchestra background music. This collection shows just how easy it came to cover love ballads and pop hits in the '70s, giving Williams and his dazzling entertainer style voice the right time to shine during his days of stardom. So turn your lights down low and get with the one you share dreams with, and be prepared to feel the love.

Shawn M. Haney, Allmusic.com

Tracklist:

01. (Where Do I Begin) Love Story (3:14)
02. Your Song (3:29)
03. For The Good Times (3:38)
04. Something (3:04)
05. It's Impossible (2:48)
06. We've Only Just Begun (3:16)
07. I Think I Love You (2:43)
08. Candida (3:38)
09. Fire And Rain (3:39)
10. Rose Garden (2:32)
11. My Sweet Lord (4:18)
12. Speak Softly Love (Love Theme From 'The Godfather') (Bonus Track) (3:04)


Exact Audio Copy V1.0 beta 3 from 29. August 2011

EAC extraction logfile from 29. December 2013, 21:01

Andy Williams / Love Story

Used drive : PLEXTOR BD-R PX-B950SA Adapter: 6 ID: 0

Read mode : Secure
Utilize accurate stream : Yes
Defeat audio cache : Yes
Make use of C2 pointers : No

Read offset correction : 6
Overread into Lead-In and Lead-Out : No
Fill up missing offset samples with silence : Yes
Delete leading and trailing silent blocks : No
Null samples used in CRC calculations : Yes
Used interface : Native Win32 interface for Win NT & 2000

Used output format : Internal WAV Routines
Sample format : 44.100 Hz; 16 Bit; Stereo


TOC of the extracted CD

Track | Start | Length | Start sector | End sector
––––––––––––––––––––––––––––-
1 | 0:00.00 | 3:13.49 | 0 | 14523
2 | 3:13.49 | 3:29.36 | 14524 | 30234
3 | 6:43.10 | 3:37.42 | 30235 | 46551
4 | 10:20.52 | 3:04.28 | 46552 | 60379
5 | 13:25.05 | 2:48.36 | 60380 | 73015
6 | 16:13.41 | 3:16.05 | 73016 | 87720
7 | 19:29.46 | 2:43.13 | 87721 | 99958
8 | 22:12.59 | 3:37.74 | 99959 | 116307
9 | 25:50.58 | 3:38.55 | 116308 | 132712
10 | 29:29.38 | 2:32.26 | 132713 | 144138
11 | 32:01.64 | 4:17.65 | 144139 | 163478
12 | 36:19.54 | 3:04.19 | 163479 | 177297


Range status and errors

Selected range

Filename C:\Users\Meijin\Desktop\ALLexxess\Andy Williams\2013 Original Album Collection 2 (8 Mini LP CD Box Set Sony Japan)\Disc 7 1971 Love Story\Andy Williams - Love Story.wav

Peak level 100.0 %
Extraction speed 6.7 X
Range quality 100.0 %
Test CRC 805FEC6C
Copy CRC 805FEC6C
Copy OK

No errors occurred


AccurateRip summary

Track 1 not present in database
Track 2 not present in database
Track 3 not present in database
Track 4 not present in database
Track 5 not present in database
Track 6 not present in database
Track 7 not present in database
Track 8 not present in database
Track 9 not present in database
Track 10 not present in database
Track 11 not present in database
Track 12 not present in database

None of the tracks are present in the AccurateRip database

End of status report

==== Log checksum DBE18872348D43C5D7A849BF9A1C19D0102ABA5344A0E65EEF1E628C46F3105C ====

foobar2000 1.1.7 / Dynamic Range Meter 1.1.1
log date: 2013-12-29 21:12:31

––––––––––––––––––––––––––––––––––––––––
Analyzed: Andy Williams / Love Story
––––––––––––––––––––––––––––––––––––––––

DR Peak RMS Duration Track
––––––––––––––––––––––––––––––––––––––––
DR9 -0.04 dB -11.10 dB 3:14 01-(Where Do I Begin) Love Story
DR9 -0.23 dB -11.56 dB 3:29 02-Your Song
DR8 -0.26 dB -10.77 dB 3:38 03-For The Good Times
DR9 -0.16 dB -12.35 dB 3:04 04-Something
DR9 -0.18 dB -11.49 dB 2:48 05-It's Impossible
DR8 -0.07 dB -10.22 dB 3:16 06-We've Only Just Begun
DR8 -0.13 dB -10.02 dB 2:43 07-I Think I Love You
DR8 -0.06 dB -9.60 dB 3:38 08-Candida
DR8 -0.24 dB -10.42 dB 3:39 09-Fire And Rain
DR8 -0.06 dB -10.27 dB 2:32 10-Rose Garden
DR8 0.00 dB -10.05 dB 4:18 11-My Sweet Lord
DR9 0.00 dB -11.23 dB 3:04 12-Speak Softly Love (Love Theme From 'The Godfather') / Bonus Track
––––––––––––––––––––––––––––––––––––––––

Number of tracks: 12
Official DR value: DR8

Samplerate: 44100 Hz
Channels: 2
Bits per sample: 16
Bitrate: 1411 kbps
Codec: PCM
================================================================================




Andy Williams - Original Album Collection Vol. 2 (2013) Japanese Mini-LP 8CD Box Set [Re-Up]

CD8: Andy Williams - An Evening With Andy Williams: Recorded Live In Japan 1973
EAC | FLAC | Image (Cue&Log) ~ 553 Mb | Mp3 (CBR320) ~ 268 Mb
Label: Sony Music | # SICP-3757 | Time: 01:16:14 | Scans included


Tracklist:

01. Moon River (2:08)
02. Medley 1 (8:52)
03. Tea Time: Tea For Two (5:35)
04. Lullaby Of Itsuki (2:36)
05. Medley 2 (10:51)
06. (Where Do I Begin) Love Story (3:24)
07. Speak Softly Love (Love Theme From 'The Godfather') (3:17)
08. May Each Day (0:27)
09. Medley 3 (9:02)
10. Last Tango In Paris (3:05)
11. Until It's Time For You To Go (4:12)
12. MacArthur Park (10:18)
13. American Triology (7:40)
14. The Impossible Dream (The Quest) (4:48)


Exact Audio Copy V1.0 beta 3 from 29. August 2011

EAC extraction logfile from 29. December 2013, 20:21

Andy Williams / An Evening With Andy Williams: Live In Japan

Used drive : PLEXTOR BD-R PX-B950SA Adapter: 6 ID: 0

Read mode : Secure
Utilize accurate stream : Yes
Defeat audio cache : Yes
Make use of C2 pointers : No

Read offset correction : 6
Overread into Lead-In and Lead-Out : No
Fill up missing offset samples with silence : Yes
Delete leading and trailing silent blocks : No
Null samples used in CRC calculations : Yes
Used interface : Native Win32 interface for Win NT & 2000

Used output format : Internal WAV Routines
Sample format : 44.100 Hz; 16 Bit; Stereo


TOC of the extracted CD

Track | Start | Length | Start sector | End sector
––––––––––––––––––––––––––––-
1 | 0:00.00 | 2:08.07 | 0 | 9606
2 | 2:08.07 | 8:52.04 | 9607 | 49510
3 | 11:00.11 | 5:34.56 | 49511 | 74616
4 | 16:34.67 | 2:35.38 | 74617 | 86279
5 | 19:10.30 | 10:50.70 | 86280 | 135099
6 | 30:01.25 | 3:23.61 | 135100 | 150385
7 | 33:25.11 | 3:16.74 | 150386 | 165159
8 | 36:42.10 | 0:26.41 | 165160 | 167150
9 | 37:08.51 | 9:01.70 | 167151 | 207795
10 | 46:10.46 | 3:04.71 | 207796 | 221666
11 | 49:15.42 | 4:12.27 | 221667 | 240593
12 | 53:27.69 | 10:17.63 | 240594 | 286931
13 | 63:45.57 | 7:40.31 | 286932 | 321462
14 | 71:26.13 | 4:47.56 | 321463 | 343043


Range status and errors

Selected range

Filename C:\Users\Meijin\Desktop\ALLexxess\Andy Williams\2013 Original Album Collection 2 (8 Mini LP CD Box Set Sony Japan)\Disc 8 1973 An Evening With Andy Williams\Andy Williams - An Evening With Andy Williams.wav

Peak level 99.9 %
Extraction speed 8.7 X
Range quality 100.0 %
Test CRC 63CB7CF2
Copy CRC 63CB7CF2
Copy OK

No errors occurred


AccurateRip summary

Track 1 not present in database
Track 2 not present in database
Track 3 not present in database
Track 4 not present in database
Track 5 not present in database
Track 6 not present in database
Track 7 not present in database
Track 8 not present in database
Track 9 not present in database
Track 10 not present in database
Track 11 not present in database
Track 12 not present in database
Track 13 not present in database
Track 14 not present in database

None of the tracks are present in the AccurateRip database

End of status report

==== Log checksum A4CD2A9988295AB2736DAB2D47EA970D7DE6EDE7AD07391B2CDD1D3B42B401A8 ====

foobar2000 1.1.7 / Dynamic Range Meter 1.1.1
log date: 2013-12-29 20:37:35

––––––––––––––––––––––––––––––––––––––––
Analyzed: Andy Williams / An Evening With Andy Williams: Live In Japan
––––––––––––––––––––––––––––––––––––––––

DR Peak RMS Duration Track
––––––––––––––––––––––––––––––––––––––––
DR8 -0.01 dB -12.28 dB 2:08 01-Moon River
DR9 -0.01 dB -11.33 dB 8:52 02-Medley 1
DR18 -0.99 dB -23.38 dB 5:35 03-Tea Time: Tea For Two
DR13 -2.98 dB -21.13 dB 2:36 04-Lullaby Of Itsuki
DR9 0.00 dB -13.17 dB 10:51 05-Medley 2
DR8 -0.01 dB -11.53 dB 3:24 06-(Where Do I Begin) Love Story
DR7 -0.02 dB -10.66 dB 3:17 07-Speak Softly Love (Love Theme From 'The Godfather')
DR9 -0.46 dB -17.15 dB 0:27 08-May Each Day
DR9 -0.01 dB -11.93 dB 9:02 09-Medley 3
DR10 -0.01 dB -13.16 dB 3:05 10-Last Tango In Paris
DR12 -0.22 dB -15.64 dB 4:12 11-Until It's Time For You To Go
DR8 -0.01 dB -12.19 dB 10:18 12-MacArthur Park
DR10 -0.05 dB -15.45 dB 7:40 13-American Triology
DR8 0.00 dB -10.53 dB 4:48 14-The Impossible Dream (The Quest)
––––––––––––––––––––––––––––––––––––––––

Number of tracks: 14
Official DR value: DR10

Samplerate: 44100 Hz
Channels: 2
Bits per sample: 16
Bitrate: 1411 kbps
Codec: PCM
================================================================================




Andy Williams - Original Album Collection Vol. 2 (2013) Japanese Mini-LP 8CD Box Set [Re-Up]