Tags
Language
Tags

Banco De Gaia - Memories Dreams Reflections (2009)

Posted By: gribovar
Banco De Gaia - Memories Dreams Reflections (2009)

Banco De Gaia - Memories Dreams Reflections (2009)
EAC Rip | FLAC (tracks+.cue+log) - 992 MB | MP3 CBR 320 kbps (LAME 3.93) - 331 MB | Covers - 31 MB
Genre: Downtempo, Ambient, Psychedelic Rock, Trance | RAR 3% Rec. | Label: Disco Gecko (GKOCD010)

To celebrate two decades of creating ambient and downtempo electronica under the name Banco de Gaia, Toby Marks put together this enjoyable if slightly uneven two-disc set, a retrospective of sorts that takes a fresh look at his past rather than simply gathering and recapitulating it. On the first disc, he reinterprets both his own work (longtime fans will get a particular kick out of his Euro-trance reconstruction of "Soufie") and that of others - Hawkwind's "Spirit of the Age" is given a long, luxurious interpretation that incorporates elements of house, funk, and ska, while King Crimson's "Starless" gets an even longer - and frankly rather plodding - arrangement of its own. His most ambitious experiment on the first disc is a rendition of Pink Floyd's "Echoes" that lasts fully 22 minutes - an impressive feat, and one that does a fine job of blending Marks's own personal electronic vision seamlessly with Floyd's unique sound. But it's about twice as long as it has any excuse to be. On the second disc, he gathers together live performances going back as far as 1993, one - the jazz and shamelessly smooth "Celestine" - featuring a full band. Top honors on this part of the program go to "Qurna" (which starts out in a pleasantly dubwise mood and then gradually gets darker and more Middle Eastern) and "No Rain", with its densely packed textures and exotic choral samples.
CD 1 Tracklist:
01. Spirit of the Age (Hawkwind cover)
02. Starless (King Crimson cover)
03. Echoes (Pink Floyd cover)
04. Soufie (Now That's What I Call 2009)
05. Tempra
06. Terra Om

Total time: 01:02:36

CD 2 Tracklist (Live):
01. Analogique
02. Indecision
03. Soufie (Blue Mix)
04. Qurna
05. China
06. Celestine
07. How Much Reality Can You Take?
08. No Rain
09. Drunk as a Monk
10. Last Train to Lhasa

Total time: 01:17:50

Exact Audio Copy V1.0 beta 3 from 29. August 2011

EAC extraction logfile from 6. July 2014, 13:19

Banco De Gaia / Memories Dreams Reflections Disc 1

Used drive : Optiarc DVD RW AD-5280S Adapter: 1 ID: 1

Read mode : Secure
Utilize accurate stream : Yes
Defeat audio cache : Yes
Make use of C2 pointers : No

Read offset correction : 48
Overread into Lead-In and Lead-Out : No
Fill up missing offset samples with silence : Yes
Delete leading and trailing silent blocks : No
Null samples used in CRC calculations : Yes
Used interface : Native Win32 interface for Win NT & 2000
Gap handling : Appended to previous track

Used output format : User Defined Encoder
Selected bitrate : 128 kBit/s
Quality : High
Add ID3 tag : No
Command line compressor : C:\Program Files\Exact Audio Copy\FLAC\FLAC.EXE
Additional command line options : -V -8 -T "Genre=%genre%" -T "Artist=%artist%" -T "Title=%title%" -T "Album=%albumtitle%" -T "Date=%year%" -T "Tracknumber=%tracknr%" -T "Comment=%comment%" %source%


TOC of the extracted CD

Track | Start | Length | Start sector | End sector
––––––––––––––––––––––––––––-
1 | 0:00.00 | 7:16.07 | 0 | 32706
2 | 7:16.07 | 11:19.10 | 32707 | 83641
3 | 18:35.17 | 22:23.54 | 83642 | 184420
4 | 40:58.71 | 8:43.35 | 184421 | 223680
5 | 49:42.31 | 7:19.25 | 223681 | 256630
6 | 57:01.56 | 5:34.36 | 256631 | 281716


Track 1

Filename A:\Memories Dreams Reflections Disc 1\01 Spirit Of The Age.wav

Pre-gap length 0:00:02.00

Peak level 100.0 %
Extraction speed 2.3 X
Track quality 99.9 %
Test CRC 9FBDB23F
Copy CRC 9FBDB23F
Accurately ripped (confidence 2) [1ABB4118] (AR v2)
Copy OK

Track 2

Filename A:\Memories Dreams Reflections Disc 1\02 Starless.wav

Peak level 100.0 %
Extraction speed 3.5 X
Track quality 100.0 %
Test CRC 841A7796
Copy CRC 841A7796
Accurately ripped (confidence 2) [5C1E6159] (AR v2)
Copy OK

Track 3

Filename A:\Memories Dreams Reflections Disc 1\03 Echoes.wav

Peak level 100.0 %
Extraction speed 4.4 X
Track quality 100.0 %
Test CRC F844C304
Copy CRC F844C304
Accurately ripped (confidence 2) [5FD6D3F5] (AR v2)
Copy OK

Track 4

Filename A:\Memories Dreams Reflections Disc 1\04 Soufie (Now That's What I Call 2009).wav

Peak level 100.0 %
Extraction speed 4.9 X
Track quality 100.0 %
Test CRC 7767E30A
Copy CRC 7767E30A
Accurately ripped (confidence 2) [25530371] (AR v2)
Copy OK

Track 5

Filename A:\Memories Dreams Reflections Disc 1\05 Tempra.wav

Peak level 100.0 %
Extraction speed 5.1 X
Track quality 100.0 %
Test CRC DE820C24
Copy CRC DE820C24
Accurately ripped (confidence 2) [B161B43A] (AR v2)
Copy OK

Track 6

Filename A:\Memories Dreams Reflections Disc 1\06 Terra Om.wav

Peak level 100.0 %
Extraction speed 5.1 X
Track quality 100.0 %
Test CRC 0A8CEC3D
Copy CRC 0A8CEC3D
Accurately ripped (confidence 2) [41537EB1] (AR v2)
Copy OK


All tracks accurately ripped

No errors occurred

End of status report

–– CUETools DB Plugin V2.1.3

[CTDB TOCID: 4C3Z0YySqn0SScGU2.X0dbyergw-] found, Submit result: 4C3Z0YySqn0SScGU2.X0dbyergw- has been confirmed
[7d23b229] (7/7) Accurately ripped


==== Log checksum 0E99D6C812E37D6CCB11009BCC96CCA037567C04AA5319293BBBABA439932084 ====

[CUETools log; Date: 13.04.2021 20:48:05; Version: 2.1.4]
[CTDB TOCID: 4C3Z0YySqn0SScGU2.X0dbyergw-] found.
Track | CTDB Status
1 | (13/13) Accurately ripped
2 | (13/13) Accurately ripped
3 | (13/13) Accurately ripped
4 | (13/13) Accurately ripped
5 | (12/13) Accurately ripped
6 | (13/13) Accurately ripped
[AccurateRip ID: 0010378f-0056bc0b-4a0eac06] found.
Track [ CRC | V2 ] Status
01 [39ad81b5|1abb4118] (02+04/22) Accurately ripped
02 [e2768414|5c1e6159] (02+04/22) Accurately ripped
03 [2fce71fa|5fd6d3f5] (02+04/22) Accurately ripped
04 [b54dc464|25530371] (02+04/22) Accurately ripped
05 [96baa4b7|b161b43a] (02+04/21) Accurately ripped
06 [03b7b752|41537eb1] (02+04/22) Accurately ripped
Offsetted by 676:
01 [63d83ade] (04/22) Accurately ripped
02 [0b247161] (04/22) Accurately ripped
03 [b35d1e97] (04/22) Accurately ripped
04 [5ad3a54c] (04/22) Accurately ripped
05 [9d5712a5] (04/21) Accurately ripped
06 [5ed4f6e0] (04/22) Accurately ripped

Track Peak [ CRC32 ] [W/O NULL] [ LOG ]
– 99,9 [F308D986] [67DB5F8C]
01 99,9 [9FBDB23F] [C721E69B] CRC32
02 99,9 [841A7796] [F2E622AF] CRC32
03 99,9 [F844C304] [9BD9C42F] CRC32
04 99,9 [7767E30A] [29FB6575] CRC32
05 99,9 [DE820C24] [9FBD71AC] CRC32
06 99,9 [0A8CEC3D] [36CB9073] CRC32

Exact Audio Copy V1.0 beta 3 from 29. August 2011

EAC extraction logfile from 6. July 2014, 14:01

Banco De Gaia / Memories Dreams Reflections Disc 2

Used drive : Optiarc DVD RW AD-5280S Adapter: 1 ID: 1

Read mode : Secure
Utilize accurate stream : Yes
Defeat audio cache : Yes
Make use of C2 pointers : No

Read offset correction : 48
Overread into Lead-In and Lead-Out : No
Fill up missing offset samples with silence : Yes
Delete leading and trailing silent blocks : No
Null samples used in CRC calculations : Yes
Used interface : Native Win32 interface for Win NT & 2000
Gap handling : Appended to previous track

Used output format : User Defined Encoder
Selected bitrate : 128 kBit/s
Quality : High
Add ID3 tag : No
Command line compressor : C:\Program Files\Exact Audio Copy\FLAC\FLAC.EXE
Additional command line options : -V -8 -T "Genre=%genre%" -T "Artist=%artist%" -T "Title=%title%" -T "Album=%albumtitle%" -T "Date=%year%" -T "Tracknumber=%tracknr%" -T "Comment=%comment%" %source%


TOC of the extracted CD

Track | Start | Length | Start sector | End sector
––––––––––––––––––––––––––––-
1 | 0:00.00 | 6:50.11 | 0 | 30760
2 | 6:50.11 | 6:54.27 | 30761 | 61837
3 | 13:44.38 | 7:23.22 | 61838 | 95084
4 | 21:07.60 | 8:58.73 | 95085 | 135507
5 | 30:06.58 | 7:23.63 | 135508 | 168795
6 | 37:30.46 | 11:49.41 | 168796 | 222011
7 | 49:20.12 | 6:35.36 | 222012 | 251672
8 | 55:55.48 | 7:38.07 | 251673 | 286029
9 | 63:33.55 | 7:08.54 | 286030 | 318183
10 | 70:42.34 | 7:07.48 | 318184 | 350256


Track 1

Filename A:\Memories Dreams Reflections Disc 2\01 Analogique.wav

Pre-gap length 0:00:02.00

Peak level 100.0 %
Extraction speed 2.8 X
Track quality 100.0 %
Test CRC 0466BC63
Copy CRC 0466BC63
Accurately ripped (confidence 2) [085B2FCA] (AR v2)
Copy OK

Track 2

Filename A:\Memories Dreams Reflections Disc 2\02 Indecision.wav

Peak level 100.0 %
Extraction speed 3.2 X
Track quality 100.0 %
Test CRC DC9AE82A
Copy CRC DC9AE82A
Accurately ripped (confidence 2) [0D216E5E] (AR v2)
Copy OK

Track 3

Filename A:\Memories Dreams Reflections Disc 2\03 Soufie (Blue Mix).wav

Peak level 100.0 %
Extraction speed 3.6 X
Track quality 100.0 %
Test CRC EF0F7959
Copy CRC EF0F7959
Accurately ripped (confidence 2) [5FDFC0AA] (AR v2)
Copy OK

Track 4

Filename A:\Memories Dreams Reflections Disc 2\04 Qurna.wav

Peak level 100.0 %
Extraction speed 4.0 X
Track quality 100.0 %
Test CRC 4F8823BF
Copy CRC 4F8823BF
Accurately ripped (confidence 2) [B15AB873] (AR v2)
Copy OK

Track 5

Filename A:\Memories Dreams Reflections Disc 2\05 China.wav

Peak level 100.0 %
Extraction speed 4.3 X
Track quality 100.0 %
Test CRC 45590FA0
Copy CRC 45590FA0
Accurately ripped (confidence 2) [BE6DAB28] (AR v2)
Copy OK

Track 6

Filename A:\Memories Dreams Reflections Disc 2\06 Celestine.wav

Peak level 100.0 %
Extraction speed 4.8 X
Track quality 100.0 %
Test CRC 25C99F0F
Copy CRC 25C99F0F
Accurately ripped (confidence 2) [D7106DE8] (AR v2)
Copy OK

Track 7

Filename A:\Memories Dreams Reflections Disc 2\07 How Much Reality Can You Take.wav

Peak level 100.0 %
Extraction speed 5.0 X
Track quality 100.0 %
Test CRC 9081522D
Copy CRC 9081522D
Accurately ripped (confidence 2) [51343CEF] (AR v2)
Copy OK

Track 8

Filename A:\Memories Dreams Reflections Disc 2\08 No Rain.wav

Peak level 100.0 %
Extraction speed 5.3 X
Track quality 100.0 %
Test CRC 4957B24B
Copy CRC 4957B24B
Accurately ripped (confidence 2) [B3F86A43] (AR v2)
Copy OK

Track 9

Filename A:\Memories Dreams Reflections Disc 2\09 Drunk As A Monk.wav

Peak level 100.0 %
Extraction speed 5.5 X
Track quality 100.0 %
Test CRC CA51B3C3
Copy CRC CA51B3C3
Accurately ripped (confidence 2) [7B594077] (AR v2)
Copy OK

Track 10

Filename A:\Memories Dreams Reflections Disc 2\10 Last Train To Lhasa.wav

Peak level 100.0 %
Extraction speed 5.3 X
Track quality 99.9 %
Test CRC 933526F3
Copy CRC 933526F3
Accurately ripped (confidence 2) [FCABD798] (AR v2)
Copy OK


All tracks accurately ripped

No errors occurred

End of status report

–– CUETools DB Plugin V2.1.3

[CTDB TOCID: qHAf4F8cqn5qe13eOihzZ9RUmFs-] found, Submit result: qHAf4F8cqn5qe13eOihzZ9RUmFs- has been confirmed
[b2d1a23a] (5/5) Accurately ripped


==== Log checksum F24602F22FBAE29FEF18AF57B8660528F00B22EC2FDA42DE9A4B77EFC9261A26 ====

[CUETools log; Date: 13.04.2021 20:50:40; Version: 2.1.4]
[CTDB TOCID: qHAf4F8cqn5qe13eOihzZ9RUmFs-] found.
Track | CTDB Status
1 | (14/14) Accurately ripped
2 | (14/14) Accurately ripped
3 | (14/14) Accurately ripped
4 | (14/14) Accurately ripped
5 | (14/14) Accurately ripped
6 | (14/14) Accurately ripped
7 | (14/14) Accurately ripped
8 | (14/14) Accurately ripped
9 | (14/14) Accurately ripped
10 | (14/14) Accurately ripped
[AccurateRip ID: 001d4c90-00ec6bd2-8b123e0a] found.
Track [ CRC | V2 ] Status
01 [f6aea9fe|085b2fca] (02+04/22) Accurately ripped
02 [0589cc53|0d216e5e] (00+04/20) Accurately ripped
03 [224cd879|5fdfc0aa] (02+04/22) Accurately ripped
04 [7b9e63a0|b15ab873] (00+04/20) Accurately ripped
05 [531e0015|be6dab28] (02+04/22) Accurately ripped
06 [85ca7189|d7106de8] (02+04/22) Accurately ripped
07 [7c707ed6|51343cef] (02+04/22) Accurately ripped
08 [5e969fce|b3f86a43] (00+04/20) Accurately ripped
09 [e416c113|7b594077] (00+04/20) Accurately ripped
10 [5b873f68|fcabd798] (00+04/20) Accurately ripped
Offsetted by 676:
01 [9c887bab] (04/22) Accurately ripped
02 [8c7362b6] (04/20) Accurately ripped
03 [ad32d8ab] (04/22) Accurately ripped
04 [a9ea84c1] (04/20) Accurately ripped
05 [f368e9a0] (04/22) Accurately ripped
06 [cf27f783] (04/22) Accurately ripped
07 [5d9106c4] (04/22) Accurately ripped
08 [31bc7519] (04/20) Accurately ripped
09 [2892e48f] (04/20) Accurately ripped
10 [a47dc4ab] (04/20) Accurately ripped

Track Peak [ CRC32 ] [W/O NULL] [ LOG ]
– 99,9 [97F4E899] [3178FC01]
01 99,9 [0466BC63] [01DF2DF6] CRC32
02 99,9 [DC9AE82A] [A36615AF] CRC32
03 99,9 [EF0F7959] [3F5EE263] CRC32
04 99,9 [4F8823BF] [47BA85B4] CRC32
05 99,9 [45590FA0] [3DF0AB3A] CRC32
06 99,9 [25C99F0F] [F50975E1] CRC32
07 99,9 [9081522D] [8D685299] CRC32
08 99,9 [4957B24B] [216F34CF] CRC32
09 99,9 [CA51B3C3] [C43609C5] CRC32
10 99,9 [933526F3] [CBB56CB4] CRC32

Thanks to the original releaser

See also:
Banco De Gaia - Maya (1994) [O...20th Anniversary Edition 2014]
Banco De Gaia - Last Train To ...20th Anniversary Edition 2015]
Banco De Gaia - Live At Glasto...20th Anniversary Edition 2016]
Banco De Gaia - Big Men Cry (1997) [2CD 20th Anniversary Edition 2017]
Banco De Gaia - The Magical Sounds Of Banco De Gaia (1999)
Banco De Gaia - Farewell Ferengistan (2006)