Tags
Language
Tags

Banco De Gaia - The Magical Sounds Of Banco De Gaia (1999)

Posted By: gribovar
Banco De Gaia - The Magical Sounds Of Banco De Gaia (1999)

Banco De Gaia - The Magical Sounds Of Banco De Gaia (1999)
EAC Rip | FLAC (tracks+.cue+log) - 433 MB | MP3 CBR 320 kbps (LAME 3.93) - 161 MB | Covers (5 MB) included
Genre: Downtempo, World, Dub, Ambient, Trance | RAR 3% Rec. | Label: Disco Gecko (GKOCD001)

After taking time out to tour in 1997, Toby Marks moved from the UK Midlands to Somerset, in southwest England to set up a new studio. After recording the new CD, he then decided to set up his own label in England, Disco Gecko Recordings. The Magical Sounds of Banco de Gaia travels freely between the violins and cellos of Glove Puppet and the Kenyan rain song that forms the basis of the next piece, No Rain. So maybe it’s world music, or global trance; but it’s not intentional.
Tracklist:
01. I Love Baby Cheesy
02. Harvey And The Old Ones
03. Sinhala
04. Touching The Void
05. 144K?
06. Frog's Dinner
07. Glove Puppet
08. No Rain

Total time: 01:05:57

Exact Audio Copy V1.3 from 2. September 2016

EAC extraction logfile from 9. March 2017, 16:21

Banco de Gaia / The Magical Sounds Of Banco De Gaia

Used drive : ATAPI iHAS124 W Adapter: 1 ID: 0

Read mode : Secure
Utilize accurate stream : Yes
Defeat audio cache : Yes
Make use of C2 pointers : No

Read offset correction : 48
Overread into Lead-In and Lead-Out : No
Fill up missing offset samples with silence : Yes
Delete leading and trailing silent blocks : No
Null samples used in CRC calculations : Yes
Used interface : Native Win32 interface for Win NT & 2000
Gap handling : Appended to previous track

Used output format : User Defined Encoder
Selected bitrate : 896 kBit/s
Quality : High
Add ID3 tag : No
Command line compressor : C:\Program Files (x86)\Various\FLAC\flac.exe
Additional command line options : -8 -V -T "artist=%artist%" -T "albumartist=%albumartist%" -T "album=%albumtitle%" -T "title=%title%" -T "year=%year%" -T "tracknumber=%tracknr2%" -T "genre=%genre%" %source% -o %dest%


TOC of the extracted CD

Track | Start | Length | Start sector | End sector
––––––––––––––––––––––––––––-
1 | 0:00.00 | 6:34.30 | 0 | 29579
2 | 6:34.30 | 8:24.57 | 29580 | 67436
3 | 14:59.12 | 9:17.05 | 67437 | 109216
4 | 24:16.17 | 12:09.33 | 109217 | 163924
5 | 36:25.50 | 8:51.70 | 163925 | 203819
6 | 45:17.45 | 9:08.62 | 203820 | 244981
7 | 54:26.32 | 3:17.13 | 244982 | 259769
8 | 57:43.45 | 8:13.47 | 259770 | 296791


Track 1

Filename F:\My Documents\My Music\Albums (Complete)\01. I Love Baby Cheesy.wav

Pre-gap length 0:00:02.00

Peak level 99.9 %
Extraction speed 4.2 X
Track quality 99.9 %
Test CRC C33DE3B7
Copy CRC C33DE3B7
Accurately ripped (confidence 15) [EC7A78B2] (AR v2)
Copy OK

Track 2

Filename F:\My Documents\My Music\Albums (Complete)\02. Harvey And The Old Ones.wav

Peak level 100.0 %
Extraction speed 6.2 X
Track quality 100.0 %
Test CRC 817DB1D4
Copy CRC 817DB1D4
Accurately ripped (confidence 15) [DB7B1F04] (AR v2)
Copy OK

Track 3

Filename F:\My Documents\My Music\Albums (Complete)\03. Sinhala.wav

Peak level 100.0 %
Extraction speed 6.0 X
Track quality 99.9 %
Test CRC 112457A3
Copy CRC 112457A3
Accurately ripped (confidence 15) [9D8B8983] (AR v2)
Copy OK

Track 4

Filename F:\My Documents\My Music\Albums (Complete)\04. Touching The Void.wav

Peak level 95.5 %
Extraction speed 8.1 X
Track quality 100.0 %
Test CRC 638F423C
Copy CRC 638F423C
Accurately ripped (confidence 15) [B63ADBDF] (AR v2)
Copy OK

Track 5

Filename F:\My Documents\My Music\Albums (Complete)\05. 144K.wav

Peak level 99.8 %
Extraction speed 8.6 X
Track quality 100.0 %
Test CRC C76F81DC
Copy CRC C76F81DC
Accurately ripped (confidence 14) [000AF5AA] (AR v2)
Copy OK

Track 6

Filename F:\My Documents\My Music\Albums (Complete)\06. Frog's Dinner.wav

Peak level 100.0 %
Extraction speed 8.9 X
Track quality 100.0 %
Test CRC 891B5617
Copy CRC 891B5617
Accurately ripped (confidence 14) [1AEA9BE6] (AR v2)
Copy OK

Track 7

Filename F:\My Documents\My Music\Albums (Complete)\07. Glove Puppet.wav

Peak level 99.4 %
Extraction speed 5.6 X
Track quality 99.9 %
Test CRC 7C09E8E8
Copy CRC 7C09E8E8
Accurately ripped (confidence 15) [74F9C349] (AR v2)
Copy OK

Track 8

Filename F:\My Documents\My Music\Albums (Complete)\08. No Rain.wav

Peak level 99.7 %
Extraction speed 9.0 X
Track quality 100.0 %
Test CRC 9D394405
Copy CRC 9D394405
Accurately ripped (confidence 14) [C00FB623] (AR v2)
Copy OK


All tracks accurately ripped

No errors occurred

End of status report

–– CUETools DB Plugin V2.1.6

[CTDB TOCID: 745Z65L2G.H23z_2mkeVpFtVOO8-] found
Submit result: 745Z65L2G.H23z_2mkeVpFtVOO8- has been confirmed
Track | CTDB Status
1 | (17/35) Accurately ripped, or (1/35) differs in 4 samples @00:00:29, or (16/35) differs in 4 samples @00:00:29
2 | (33/35) Accurately ripped, or (1/35) differs in 48 samples @00:00:01
3 | (33/35) Accurately ripped, or (1/35) differs in 48 samples @00:00:01
4 | (33/35) Accurately ripped, or (1/35) differs in 48 samples @00:00:01
5 | (33/35) Accurately ripped, or (1/35) differs in 48 samples @00:00:01
6 | (34/35) Accurately ripped, or (1/35) differs in 48 samples @00:00:01
7 | (34/35) Accurately ripped, or (1/35) differs in 47 samples @00:00:01
8 | (34/35) Accurately ripped, or (1/35) differs in 46 samples @00:00:01
If you are sure that your rip contains errors, you can use CUETools to repair it.


==== Log checksum 20F47164D5DB00F232A6B792D5BD0CD453906C0ADAD250316261E219864729DC ====

[CUETools log; Date: 09.04.2021 23:47:23; Version: 2.1.4]
[CTDB TOCID: 745Z65L2G.H23z_2mkeVpFtVOO8-] found.
Track | CTDB Status
1 | (47/98) Accurately ripped, or (48/98) differs in 4 samples @00:00:29
2 | (96/98) Accurately ripped
3 | (94/98) Accurately ripped
4 | (96/98) Accurately ripped
5 | (93/98) Accurately ripped
6 | (95/98) Accurately ripped
7 | (97/98) Accurately ripped
8 | (97/98) Accurately ripped
[AccurateRip ID: 0014fd23-008c7537-7a0f7508] found.
Track [ CRC | V2 ] Status
01 [a1cc5e1e|ec7a78b2] (016+022/109) Accurately ripped
02 [c6b1b5d9|db7b1f04] (016+022/109) Accurately ripped
03 [40c16677|9d8b8983] (016+021/108) Accurately ripped
04 [21ab6316|b63adbdf] (015+022/107) Accurately ripped
05 [0698696d|000af5aa] (013+020/101) Accurately ripped
06 [660f1845|1aea9be6] (013+020/103) Accurately ripped
07 [2845e934|74f9c349] (016+022/110) Accurately ripped
08 [3c3eec46|c00fb623] (016+020/107) Accurately ripped
Offsetted by 1722:
01 [4e3189a3] (006/109) Accurately ripped
02 [a4ec8e88] (006/109) Accurately ripped
03 [0e205ec2] (006/108) Accurately ripped
04 [93e95020] (006/107) Accurately ripped
05 [7038475d] (006/101) Accurately ripped
06 [131e7e46] (005/103) Accurately ripped
07 [2a312b4f] (006/110) Accurately ripped
08 [afc18fd1] (006/107) Accurately ripped
Offsetted by 270:
01 [bccaaac1] (000/109) No match (V2 was not tested)
02 [798ad423] (000/109) No match (V2 was not tested)
03 [e89f9854] (000/108) No match (V2 was not tested)
04 [4fc191b8] (000/107) No match (V2 was not tested)
05 [5644b36b] (000/101) No match (V2 was not tested)
06 [2b7d3735] (000/103) No match (V2 was not tested)
07 [f394fb87] (000/110) No match (V2 was not tested)
08 [3d103f8d] (000/107) No match (V2 was not tested)
Offsetted by 934:
01 [e6d11b1e] (000/109) No match (V2 was not tested)
02 [afcf6488] (000/109) No match (V2 was not tested)
03 [081c6fa1] (000/108) No match (V2 was not tested)
04 [7b739866] (000/107) No match (V2 was not tested)
05 [32f25a62] (000/101) No match (V2 was not tested)
06 [92b519b3] (000/103) No match (V2 was not tested)
07 [abdd31e6] (000/110) No match (V2 was not tested)
08 [22fc0380] (000/107) No match (V2 was not tested)
Offsetted by 1593:
01 [8b499839] (000/109) No match (V2 was not tested)
02 [dd935006] (025/109) Accurately ripped
03 [3923297c] (025/108) Accurately ripped
04 [ecdaa7b1] (023/107) Accurately ripped
05 [f1078f58] (023/101) Accurately ripped
06 [43396785] (025/103) Accurately ripped
07 [98534463] (025/110) Accurately ripped
08 [202d0418] (025/107) Accurately ripped

Track Peak [ CRC32 ] [W/O NULL] [ LOG ]
– 100,0 [DFAC349F] [3D5CF93F]
01 99,9 [C33DE3B7] [3B563ABB] CRC32
02 100,0 [817DB1D4] [85AEF22B] CRC32
03 100,0 [112457A3] [A0E3918C] CRC32
04 95,5 [638F423C] [7AA08403] CRC32
05 99,8 [C76F81DC] [D3B576AF] CRC32
06 100,0 [891B5617] [67FC5459] CRC32
07 99,4 [7C09E8E8] [A07C43DC] CRC32
08 99,7 [9D394405] [38443EB0] CRC32

Thanks to the original releaser

See also:
Banco De Gaia - Maya (1994) [O...20th Anniversary Edition 2014]
Banco De Gaia - Last Train To ...20th Anniversary Edition 2015]
Banco De Gaia - Live At Glasto...20th Anniversary Edition 2016]
Banco De Gaia - Big Men Cry (1997) [2CD 20th Anniversary Edition 2017]