Tags
Language
Tags

Banco De Gaia - Live At Glastonbury (1996) [Original Edition & 2CD 20th Anniversary Edition 2016]

Posted By: gribovar
Banco De Gaia - Live At Glastonbury (1996) [Original Edition & 2CD 20th Anniversary Edition 2016]

Banco De Gaia - Live At Glastonbury (1996) [Original Edition & 2CD 20th Anniversary Edition 2016]
EAC Rip | FLAC (tracks+.cue+log) - 1,48 GB | MP3 CBR 320 kbps (LAME 3.93) - 490 MB | Covers included
Genre: Downtempo, World, Dub, Ambient, Trance | RAR 3% Rec. | Label: Planet Dog Records, Disco Gecko

1995: fresh from finishing and releasing his magnum opus, 'Last Train to Lhasa', Toby Marks, aka Banco de Gaia, rolled down to Glastonbury Festival to play on the Avalon Stage in the Field of Avalon. The year was one of the first times dance music had been given significant space at the festival, and Toby’s set was much anticipated, with the marquee completely full by the time he came on stage. The set featured many of his most familiar songs, often given radically new arrangements, turning some previously un-danceable tracks into driving club tunes. Ed Vulliamy described it in his review for the Guardian as “electrifying: symphonic, epic, hugely lyrical music in the best traditions of the early Floyd, underpinned by synthetic energy but aiming at an appropriately earthy message, atop which a flute sometimes danced” and credited the show as the highlight of the year.
Toby didn’t know until afterwards that the gig had been recorded, but after editing to remove an unclearable sample, it was released by Planet Dog in August 1996. According to the Melody Maker review, "the atmosphere of the recording is so vibrant and celebratory that you … feel the musical playback actually benefits from the adoration of others."

2015: 20 years later Toby returned to the Field of Avalon with a full band and VJ. This time he organised the recording of the set, which is presented here as part of the 20th anniversary edition of the original release. This limited edition double disc set is CD only, with no downloads or streams available. As with the original disc, the new recordings try “to capture the spirit of the occasion rather than technical perfection” and include three tracks from his last studio album ‘Apollo’ (2013) alongside reworkings of various classics and favourites.

Banco De Gaia - Live At Glastonbury (1996) [Original Edition & 2CD 20th Anniversary Edition 2016]

Banco De Gaia - Live At Glastonbury (1996)
EAC Rip | FLAC (tracks+.cue+log) - 516 MB | MP3 CBR 320 kbps (LAME 3.93) - 177 MB | Covers (4 MB) included
Genre: Downtempo, World, Dub, Ambient, Trance | RAR 3% Rec. | Label: Planet Dog Records (BARK CD021)

Tracklist:
01. Last Train To Lhasa
02. Mafich Arabi
03. Amber
04. White Paint
05. Kincajou
06. Kuos
07. 887
08. Heliopolis
09. Data Inadequate

Total time: 01:12:54

Exact Audio Copy V1.3 from 2. September 2016

EAC extraction logfile from 9. March 2017, 15:58

Banco de Gaia / Live At Glastonbury

Used drive : ATAPI iHAS124 W Adapter: 1 ID: 0

Read mode : Secure
Utilize accurate stream : Yes
Defeat audio cache : Yes
Make use of C2 pointers : No

Read offset correction : 48
Overread into Lead-In and Lead-Out : No
Fill up missing offset samples with silence : Yes
Delete leading and trailing silent blocks : No
Null samples used in CRC calculations : Yes
Used interface : Native Win32 interface for Win NT & 2000
Gap handling : Appended to previous track

Used output format : User Defined Encoder
Selected bitrate : 896 kBit/s
Quality : High
Add ID3 tag : No
Command line compressor : C:\Program Files (x86)\Various\FLAC\flac.exe
Additional command line options : -8 -V -T "artist=%artist%" -T "albumartist=%albumartist%" -T "album=%albumtitle%" -T "title=%title%" -T "year=%year%" -T "tracknumber=%tracknr2%" -T "genre=%genre%" %source% -o %dest%


TOC of the extracted CD

Track | Start | Length | Start sector | End sector
––––––––––––––––––––––––––––-
1 | 0:00.00 | 12:47.03 | 0 | 57527
2 | 12:47.03 | 8:03.27 | 57528 | 93779
3 | 20:50.30 | 7:31.48 | 93780 | 127652
4 | 28:22.03 | 7:13.62 | 127653 | 160189
5 | 35:35.65 | 7:56.28 | 160190 | 195917
6 | 43:32.18 | 6:39.17 | 195918 | 225859
7 | 50:11.35 | 8:08.15 | 225860 | 262474
8 | 58:19.50 | 6:20.03 | 262475 | 290977
9 | 64:39.53 | 8:14.12 | 290978 | 328039


Track 1

Filename F:\My Documents\My Music\Albums (Complete)\01. Last Train to Lhasa.wav

Pre-gap length 0:00:02.00

Peak level 100.0 %
Extraction speed 5.9 X
Track quality 100.0 %
Test CRC BC6906EF
Copy CRC BC6906EF
Accurately ripped (confidence 9) [97ECDA49] (AR v2)
Copy OK

Track 2

Filename F:\My Documents\My Music\Albums (Complete)\02. Mafich Arabi.wav

Peak level 100.0 %
Extraction speed 5.7 X
Track quality 99.9 %
Test CRC 0DE4890D
Copy CRC 0DE4890D
Accurately ripped (confidence 9) [62D5D96F] (AR v2)
Copy OK

Track 3

Filename F:\My Documents\My Music\Albums (Complete)\03. Amber.wav

Peak level 100.0 %
Extraction speed 7.6 X
Track quality 100.0 %
Test CRC 5B9EC0F8
Copy CRC 5B9EC0F8
Accurately ripped (confidence 9) [A2813CBA] (AR v2)
Copy OK

Track 4

Filename F:\My Documents\My Music\Albums (Complete)\04. White Paint.wav

Peak level 100.0 %
Extraction speed 8.2 X
Track quality 100.0 %
Test CRC B2D415B1
Copy CRC B2D415B1
Accurately ripped (confidence 9) [587D440E] (AR v2)
Copy OK

Track 5

Filename F:\My Documents\My Music\Albums (Complete)\05. Kincajou.wav

Peak level 100.0 %
Extraction speed 8.8 X
Track quality 100.0 %
Test CRC 0E6DD1C8
Copy CRC 0E6DD1C8
Accurately ripped (confidence 9) [464B929E] (AR v2)
Copy OK

Track 6

Filename F:\My Documents\My Music\Albums (Complete)\06. Kuos.wav

Peak level 100.0 %
Extraction speed 9.1 X
Track quality 100.0 %
Test CRC 60DDFBB3
Copy CRC 60DDFBB3
Accurately ripped (confidence 9) [00431DF5] (AR v2)
Copy OK

Track 7

Filename F:\My Documents\My Music\Albums (Complete)\07. 887.wav

Peak level 100.0 %
Extraction speed 9.7 X
Track quality 100.0 %
Test CRC B3E79BB2
Copy CRC B3E79BB2
Accurately ripped (confidence 9) [46D50A18] (AR v2)
Copy OK

Track 8

Filename F:\My Documents\My Music\Albums (Complete)\08. Heliopolis.wav

Peak level 100.0 %
Extraction speed 9.9 X
Track quality 100.0 %
Test CRC 36A03452
Copy CRC 36A03452
Accurately ripped (confidence 9) [993F2A0B] (AR v2)
Copy OK

Track 9

Filename F:\My Documents\My Music\Albums (Complete)\09. Data Inadequate.wav

Peak level 100.0 %
Extraction speed 10.4 X
Track quality 100.0 %
Test CRC 8F907FEB
Copy CRC 8F907FEB
Accurately ripped (confidence 9) [15E5ABA4] (AR v2)
Copy OK


All tracks accurately ripped

No errors occurred

End of status report

–– CUETools DB Plugin V2.1.6

[CTDB TOCID: g_UNUVNWr6HpW0TJJFdAHbmAkYg-] found
Submit result: g_UNUVNWr6HpW0TJJFdAHbmAkYg- has been confirmed
Track | CTDB Status
1 | (10/10) Accurately ripped
2 | (10/10) Accurately ripped
3 | (10/10) Accurately ripped
4 | (10/10) Accurately ripped
5 | (10/10) Accurately ripped
6 | (10/10) Accurately ripped
7 | (10/10) Accurately ripped
8 | (10/10) Accurately ripped
9 | (10/10) Accurately ripped


==== Log checksum 9E59C2DD8EF11A40D561578BF8A97B82D488D4C366BF8BC6313564BBEBE50528 ====

[CUETools log; Date: 04.04.2021 13:39:48; Version: 2.1.4]
[CTDB TOCID: g_UNUVNWr6HpW0TJJFdAHbmAkYg-] found.
Track | CTDB Status
1 | (28/28) Accurately ripped
2 | (27/28) Accurately ripped
3 | (28/28) Accurately ripped
4 | (28/28) Accurately ripped
5 | (28/28) Accurately ripped
6 | (28/28) Accurately ripped
7 | (28/28) Accurately ripped
8 | (28/28) Accurately ripped
9 | (27/28) Accurately ripped
[AccurateRip ID: 001a9656-00be2d81-6c111509] found.
Track [ CRC | V2 ] Status
01 [c884be91|97ecda49] (11+12/23) Accurately ripped
02 [58738697|62d5d96f] (10+12/22) Accurately ripped
03 [9faaa365|a2813cba] (10+12/22) Accurately ripped
04 [79b7cc65|587d440e] (11+12/23) Accurately ripped
05 [c90059c5|464b929e] (11+12/23) Accurately ripped
06 [236d3877|00431df5] (11+12/23) Accurately ripped
07 [acfbf8f4|46d50a18] (11+12/23) Accurately ripped
08 [9e3e7ca2|993f2a0b] (11+12/23) Accurately ripped
09 [fda9ec43|15e5aba4] (12+12/24) Accurately ripped

Track Peak [ CRC32 ] [W/O NULL] [ LOG ]
– 100,0 [0311DEED] [386C6289]
01 100,0 [BC6906EF] [6CD9CEAC] CRC32
02 100,0 [0DE4890D] [C743AD70] CRC32
03 100,0 [5B9EC0F8] [37E32F55] CRC32
04 100,0 [B2D415B1] [18C6A395] CRC32
05 100,0 [0E6DD1C8] [8C3E3648] CRC32
06 100,0 [60DDFBB3] [EB80B41E] CRC32
07 100,0 [B3E79BB2] [88A12250] CRC32
08 100,0 [36A03452] [35C68A3F] CRC32
09 100,0 [8F907FEB] [8B7EC3A6] CRC32

Banco De Gaia - Live At Glastonbury (1996) [Original Edition & 2CD 20th Anniversary Edition 2016]

Banco De Gaia - Live At Glastonbury (1996) [2CD 20th Anniversary Edition 2016]
EAC Rip | FLAC (tracks+.cue+log) - 962 MB | MP3 CBR 320 kbps (LAME 3.93) - 313 MB | Covers (5 MB) included
Genre: Downtempo, World, Dub, Ambient, Trance | RAR 3% Rec. | Label: Disco Gecko (GKOCD020)

CD 1 Tracklist (1995):
01. Last Train To Lhasa
02. Mafich Arabi
03. Amber
04. White Paint
05. Kincajou
06. Kuos
07. 887
08. Heliopolis
09. Data Inadequate

Total time: 01:12:54

CD 2 Tracklist (2015):
01. Last Train To Lhasa
02. Wimble Toot
03. I Love Baby Cheesy
04. Apollon
05. Drunk As A Monk
06. Obsidian
07. Hu!

Total time: 57:13

Exact Audio Copy V1.1 from 23. June 2015

EAC extraction logfile from 29. July 2016, 12:58

Banco de Gaia / Live At Glastonbury [20th Anniversary Edition]

Used drive : ATAPI iHAS124 W Adapter: 1 ID: 1

Read mode : Secure
Utilize accurate stream : Yes
Defeat audio cache : Yes
Make use of C2 pointers : No

Read offset correction : 48
Overread into Lead-In and Lead-Out : No
Fill up missing offset samples with silence : Yes
Delete leading and trailing silent blocks : No
Null samples used in CRC calculations : Yes
Used interface : Native Win32 interface for Win NT & 2000
Gap handling : Appended to previous track

Used output format : User Defined Encoder
Selected bitrate : 896 kBit/s
Quality : High
Add ID3 tag : No
Command line compressor : C:\Program Files (x86)\FLAC\win64\flac.exe
Additional command line options : -8 -V -T "artist=%artist%" -T "albumartist=%albumartist%" -T "album=%albumtitle%" -T "title=%title%" -T "year=%year%" -T "tracknumber=%tracknr2%" -T "genre=%genre%" %source% -o %dest%


TOC of the extracted CD

Track | Start | Length | Start sector | End sector
––––––––––––––––––––––––––––-
1 | 0:00.00 | 12:47.10 | 0 | 57534
2 | 12:47.10 | 8:02.60 | 57535 | 93744
3 | 20:49.70 | 7:32.09 | 93745 | 127653
4 | 28:22.04 | 7:13.48 | 127654 | 160176
5 | 35:35.52 | 7:56.59 | 160177 | 195935
6 | 43:32.36 | 6:39.08 | 195936 | 225868
7 | 50:11.44 | 8:08.10 | 225869 | 262478
8 | 58:19.54 | 6:20.50 | 262479 | 291028
9 | 64:40.29 | 8:13.03 | 291029 | 328006


Track 1

Filename F:\My Documents\My Music\Albums (Complete)\01. Last Train To Lhasa.wav

Pre-gap length 0:00:02.00

Peak level 98.8 %
Extraction speed 3.8 X
Track quality 100.0 %
Test CRC DBB4F2B8
Copy CRC DBB4F2B8
Track not present in AccurateRip database
Copy OK

Track 2

Filename F:\My Documents\My Music\Albums (Complete)\02. Mafich Arabi.wav

Peak level 98.8 %
Extraction speed 4.5 X
Track quality 100.0 %
Test CRC A0467134
Copy CRC A0467134
Track not present in AccurateRip database
Copy OK

Track 3

Filename F:\My Documents\My Music\Albums (Complete)\03. Amber.wav

Peak level 98.9 %
Extraction speed 4.9 X
Track quality 100.0 %
Test CRC 9943D570
Copy CRC 9943D570
Track not present in AccurateRip database
Copy OK

Track 4

Filename F:\My Documents\My Music\Albums (Complete)\04. White Paint.wav

Peak level 98.9 %
Extraction speed 5.3 X
Track quality 100.0 %
Test CRC 03253FC9
Copy CRC 03253FC9
Track not present in AccurateRip database
Copy OK

Track 5

Filename F:\My Documents\My Music\Albums (Complete)\05. Kincajou.wav

Peak level 98.8 %
Extraction speed 5.7 X
Track quality 100.0 %
Test CRC 318203FD
Copy CRC 318203FD
Track not present in AccurateRip database
Copy OK

Track 6

Filename F:\My Documents\My Music\Albums (Complete)\06. Kuos.wav

Peak level 98.9 %
Extraction speed 6.0 X
Track quality 100.0 %
Test CRC 5867E7D9
Copy CRC 5867E7D9
Track not present in AccurateRip database
Copy OK

Track 7

Filename F:\My Documents\My Music\Albums (Complete)\07. 887.wav

Peak level 98.8 %
Extraction speed 6.3 X
Track quality 100.0 %
Test CRC 24BA8F50
Copy CRC 24BA8F50
Track not present in AccurateRip database
Copy OK

Track 8

Filename F:\My Documents\My Music\Albums (Complete)\08. Heliopolis.wav

Peak level 98.8 %
Extraction speed 6.5 X
Track quality 100.0 %
Test CRC C6B83085
Copy CRC C6B83085
Track not present in AccurateRip database
Copy OK

Track 9

Filename F:\My Documents\My Music\Albums (Complete)\09. Data Inadequate.wav

Peak level 98.9 %
Extraction speed 6.2 X
Track quality 99.9 %
Test CRC A0E14193
Copy CRC A0E14193
Track not present in AccurateRip database
Copy OK


None of the tracks are present in the AccurateRip database

No errors occurred

End of status report

–– CUETools DB Plugin V2.1.6

[CTDB TOCID: 9JXoySvJ6yws2VVKzYvNEqRDRO4-] found
Submit result: already submitted
Track | CTDB Status
1 | (1/1) Accurately ripped
2 | (1/1) Accurately ripped
3 | (1/1) Accurately ripped
4 | (1/1) Accurately ripped
5 | (1/1) Accurately ripped
6 | (1/1) Accurately ripped
7 | (1/1) Accurately ripped
8 | (1/1) Accurately ripped
9 | (1/1) Accurately ripped


==== Log checksum 638A373931A8F38F3A4046F560574973C03DCC214F1E1A3F33001DF9A8B202F2 ====

[CUETools log; Date: 04.04.2021 13:40:26; Version: 2.1.4]
[CTDB TOCID: 9JXoySvJ6yws2VVKzYvNEqRDRO4-] found.
Track | CTDB Status
1 | (13/13) Accurately ripped
2 | (13/13) Accurately ripped
3 | (13/13) Accurately ripped
4 | (13/13) Accurately ripped
5 | (13/13) Accurately ripped
6 | (13/13) Accurately ripped
7 | (13/13) Accurately ripped
8 | (13/13) Accurately ripped
9 | (12/13) Accurately ripped
[AccurateRip ID: 001a965f-00be2e35-6c111509] found.
Track [ CRC | V2 ] Status
01 [6ce5e375|5b4ab474] (0+6/6) Accurately ripped
02 [301a3e21|895c6596] (0+6/6) Accurately ripped
03 [d38ce3d4|a20351ba] (0+6/6) Accurately ripped
04 [7ed06634|a3a036a1] (0+6/6) Accurately ripped
05 [734235d7|deb77af7] (0+6/6) Accurately ripped
06 [53aef605|a4cfe7c5] (0+6/6) Accurately ripped
07 [9879b53f|4a6f3556] (0+6/6) Accurately ripped
08 [aab85077|0df1ec53] (0+5/5) Accurately ripped
09 [4512ec69|ace1d548] (0+6/6) Accurately ripped

Track Peak [ CRC32 ] [W/O NULL] [ LOG ]
– 98,9 [4E17061B] [472FCD5F]
01 98,8 [DBB4F2B8] [18A54571] CRC32
02 98,8 [A0467134] [3722CF91] CRC32
03 98,8 [9943D570] [B96818B9] CRC32
04 98,9 [03253FC9] [99101BAF] CRC32
05 98,8 [318203FD] [5587FAF1] CRC32
06 98,8 [5867E7D9] [ED66DD24] CRC32
07 98,8 [24BA8F50] [14D0FCB9] CRC32
08 98,8 [C6B83085] [7821578F] CRC32
09 98,9 [A0E14193] [D9583C29] CRC32

Exact Audio Copy V1.1 from 23. June 2015

EAC extraction logfile from 29. July 2016, 12:24

Banco de Gaia / Live At Glastonbury [20th Anniversary Edition]

Used drive : ATAPI iHAS124 W Adapter: 1 ID: 1

Read mode : Secure
Utilize accurate stream : Yes
Defeat audio cache : Yes
Make use of C2 pointers : No

Read offset correction : 48
Overread into Lead-In and Lead-Out : No
Fill up missing offset samples with silence : Yes
Delete leading and trailing silent blocks : No
Null samples used in CRC calculations : Yes
Used interface : Native Win32 interface for Win NT & 2000
Gap handling : Appended to previous track

Used output format : User Defined Encoder
Selected bitrate : 896 kBit/s
Quality : High
Add ID3 tag : No
Command line compressor : C:\Program Files (x86)\FLAC\win64\flac.exe
Additional command line options : -8 -V -T "artist=%artist%" -T "albumartist=%albumartist%" -T "album=%albumtitle%" -T "title=%title%" -T "year=%year%" -T "tracknumber=%tracknr2%" -T "genre=%genre%" %source% -o %dest%


TOC of the extracted CD

Track | Start | Length | Start sector | End sector
––––––––––––––––––––––––––––-
1 | 0:00.00 | 11:14.54 | 0 | 50603
2 | 11:14.54 | 7:52.47 | 50604 | 86050
3 | 19:07.26 | 8:13.49 | 86051 | 123074
4 | 27:21.00 | 6:18.68 | 123075 | 151492
5 | 33:39.68 | 7:45.45 | 151493 | 186412
6 | 41:25.38 | 7:03.34 | 186413 | 218171
7 | 48:28.72 | 8:42.56 | 218172 | 257377


Track 1

Filename F:\My Documents\My Music\Albums (Complete)\01. Last Train To Lhasa.wav

Pre-gap length 0:00:02.00

Peak level 100.0 %
Extraction speed 3.6 X
Track quality 100.0 %
Test CRC F0B82DC6
Copy CRC F0B82DC6
Track not present in AccurateRip database
Copy OK

Track 2

Filename F:\My Documents\My Music\Albums (Complete)\02. Wimble Toot.wav

Peak level 100.0 %
Extraction speed 4.2 X
Track quality 100.0 %
Test CRC ABA730F8
Copy CRC ABA730F8
Track not present in AccurateRip database
Copy OK

Track 3

Filename F:\My Documents\My Music\Albums (Complete)\03. I Love Baby Cheesy.wav

Peak level 100.0 %
Extraction speed 4.3 X
Track quality 99.9 %
Test CRC 5B67435A
Copy CRC 5B67435A
Track not present in AccurateRip database
Copy OK

Track 4

Filename F:\My Documents\My Music\Albums (Complete)\04. Apollon.wav

Peak level 100.0 %
Extraction speed 5.1 X
Track quality 100.0 %
Test CRC E6D385AC
Copy CRC E6D385AC
Track not present in AccurateRip database
Copy OK

Track 5

Filename F:\My Documents\My Music\Albums (Complete)\05. Drunk As A Monk.wav

Peak level 100.0 %
Extraction speed 5.5 X
Track quality 100.0 %
Test CRC CAE31B31
Copy CRC CAE31B31
Track not present in AccurateRip database
Copy OK

Track 6

Filename F:\My Documents\My Music\Albums (Complete)\06. Obsidian.wav

Peak level 100.0 %
Extraction speed 5.8 X
Track quality 100.0 %
Test CRC 297D61E8
Copy CRC 297D61E8
Track not present in AccurateRip database
Copy OK

Track 7

Filename F:\My Documents\My Music\Albums (Complete)\07. Hu!.wav

Peak level 100.0 %
Extraction speed 6.3 X
Track quality 100.0 %
Test CRC 33AFBD18
Copy CRC 33AFBD18
Track not present in AccurateRip database
Copy OK


None of the tracks are present in the AccurateRip database

No errors occurred

End of status report

–– CUETools DB Plugin V2.1.6

[CTDB TOCID: Cdl_NQaqblJ4GgCEeGu6mXgAbLc-] disk not present in database
Submit result: Cdl_NQaqblJ4GgCEeGu6mXgAbLc- has been uploaded


==== Log checksum F5410CCB87E8464566F7C2417E353B3DE5A871478E296C3E63E8CC9DA5436AC6 ====

[CUETools log; Date: 04.04.2021 13:41:30; Version: 2.1.4]
[CTDB TOCID: Cdl_NQaqblJ4GgCEeGu6mXgAbLc-] found.
Track | CTDB Status
1 | (12/12) Accurately ripped
2 | (12/12) Accurately ripped
3 | (12/12) Accurately ripped
4 | (12/12) Accurately ripped
5 | (12/12) Accurately ripped
6 | (12/12) Accurately ripped
7 | (12/12) Accurately ripped
[AccurateRip ID: 00106022-00605769-580d6707] found.
Track [ CRC | V2 ] Status
01 [c03d4463|c18dbdce] (0+6/6) Accurately ripped
02 [d405cccb|03fb904b] (0+6/6) Accurately ripped
03 [9ea15e1b|77337090] (0+6/6) Accurately ripped
04 [5c054448|206517fc] (0+6/6) Accurately ripped
05 [f7e16894|c6c69c27] (0+6/6) Accurately ripped
06 [c84a4744|86bc4a06] (0+6/6) Accurately ripped
07 [f3a6f5bb|7d8e1cf4] (0+5/5) Accurately ripped

Track Peak [ CRC32 ] [W/O NULL] [ LOG ]
– 100,0 [0B48CE44] [01521FDF]
01 100,0 [F0B82DC6] [85BB802F] CRC32
02 100,0 [ABA730F8] [D66D0387] CRC32
03 100,0 [5B67435A] [4E7A8E79] CRC32
04 100,0 [E6D385AC] [01D32591] CRC32
05 100,0 [CAE31B31] [83EBBB28] CRC32
06 100,0 [297D61E8] [A4D3B4F0] CRC32
07 100,0 [33AFBD18] [B3117A27] CRC32

Thanks to Summerisle

See also:
Banco De Gaia - Maya (1994) [O...20th Anniversary Edition 2014]
Banco De Gaia - Last Train To ...20th Anniversary Edition 2015]