Tags
Language
Tags

Banco De Gaia - Farewell Ferengistan (2006)

Posted By: gribovar
Banco De Gaia - Farewell Ferengistan (2006)

Banco De Gaia - Farewell Ferengistan (2006)
EAC Rip | FLAC (tracks+.cue+log) - 454 MB | MP3 CBR 320 kbps (LAME 3.93) - 168 MB | Covers (5 MB) included
Genre: Downtempo, World, Dub, Ambient | RAR 3% Rec. | Label: Disco Gecko (GKOCD009)

"Ferengistan" is a term used in Central Asia to denote an imaginary place that represents the superficiality and materialism that too often characterize Western culture. So there's no real secret to the message behind this album by Toby Marks, aka Banco de Gaia. While the music is (thankfully) free of didactic lyrics, its instrumental tracks were written with serious matters of geopolitics in mind: one track has reference to a law recently passed in Mongolia, reinstating the use of surnames (a practice previously forbidden under Communist rule); the ironically titled "Harmonious G8" consists of eight overdubbed vocals, each an improvisation by a singer from one of the G8 nations; "White Man's Burden" requires little amplification. If you're not interested in the politics, you can just relax and enjoy the variously danceable and relaxing moods that Marks creates; the robust ethno-funk of "Kara Kum" is a highlight of the program, as is the very pretty and gently swinging "Flow My Dreams, the Android Wept" (based on a lute tune from Renaissance England titled "Flow My Tears," which was reportedly the favorite piece of music of science fiction author Philip K. Dick). The jittery Middle Eastern dub of "Chingiz" is also lots of fun.
Tracklist:
01. Farewell Ferengistan
02. Ynys Elen
03. Chingiz
04. Kara Kum
05. The Harmonious G8
06. Saturn Return
07. Flow My Dreams, The Android Wept
08. White Man's Burden
09. We All Know The Truth (You Have God)

Total time: 01:08:59

Exact Audio Copy V1.3 from 2. September 2016

EAC extraction logfile from 9. March 2017, 16:59

Banco de Gaia / Farewell Ferengistan

Used drive : ATAPI iHAS124 W Adapter: 1 ID: 0

Read mode : Secure
Utilize accurate stream : Yes
Defeat audio cache : Yes
Make use of C2 pointers : No

Read offset correction : 48
Overread into Lead-In and Lead-Out : No
Fill up missing offset samples with silence : Yes
Delete leading and trailing silent blocks : No
Null samples used in CRC calculations : Yes
Used interface : Native Win32 interface for Win NT & 2000
Gap handling : Appended to previous track

Used output format : User Defined Encoder
Selected bitrate : 896 kBit/s
Quality : High
Add ID3 tag : No
Command line compressor : C:\Program Files (x86)\Various\FLAC\flac.exe
Additional command line options : -8 -V -T "artist=%artist%" -T "albumartist=%albumartist%" -T "album=%albumtitle%" -T "title=%title%" -T "year=%year%" -T "tracknumber=%tracknr2%" -T "genre=%genre%" %source% -o %dest%


TOC of the extracted CD

Track | Start | Length | Start sector | End sector
––––––––––––––––––––––––––––-
1 | 0:00.00 | 6:17.44 | 0 | 28318
2 | 6:17.44 | 7:26.04 | 28319 | 61772
3 | 13:43.48 | 6:41.30 | 61773 | 91877
4 | 20:25.03 | 9:15.74 | 91878 | 133576
5 | 29:41.02 | 2:20.61 | 133577 | 144137
6 | 32:01.63 | 10:25.28 | 144138 | 191040
7 | 42:27.16 | 9:16.22 | 191041 | 232762
8 | 51:43.38 | 8:04.72 | 232763 | 269134
9 | 59:48.35 | 9:10.20 | 269135 | 310404


Track 1

Filename F:\My Documents\My Music\Albums (Complete)\01. Farewell Ferengistan.wav

Pre-gap length 0:00:02.00

Peak level 98.8 %
Extraction speed 3.2 X
Track quality 100.0 %
Test CRC E9203EB7
Copy CRC E9203EB7
Accurately ripped (confidence 15) [4F0F09A2] (AR v2)
Copy OK

Track 2

Filename F:\My Documents\My Music\Albums (Complete)\02. Ynys Elen.wav

Peak level 100.0 %
Extraction speed 3.8 X
Track quality 100.0 %
Test CRC B390EB28
Copy CRC B390EB28
Accurately ripped (confidence 15) [077CD974] (AR v2)
Copy OK

Track 3

Filename F:\My Documents\My Music\Albums (Complete)\03. Chingiz.wav

Peak level 100.0 %
Extraction speed 3.7 X
Track quality 99.9 %
Test CRC 5F4FEE1D
Copy CRC 5F4FEE1D
Accurately ripped (confidence 15) [191DEBE6] (AR v2)
Copy OK

Track 4

Filename F:\My Documents\My Music\Albums (Complete)\04. Kara Kum.wav

Peak level 100.0 %
Extraction speed 4.8 X
Track quality 100.0 %
Test CRC 382CACD4
Copy CRC 382CACD4
Accurately ripped (confidence 15) [48B9E50E] (AR v2)
Copy OK

Track 5

Filename F:\My Documents\My Music\Albums (Complete)\05. The Harmonious G8.wav

Peak level 96.9 %
Extraction speed 4.3 X
Track quality 100.0 %
Test CRC F85A014A
Copy CRC F85A014A
Accurately ripped (confidence 15) [95C6BCCC] (AR v2)
Copy OK

Track 6

Filename F:\My Documents\My Music\Albums (Complete)\06. Saturn Return.wav

Peak level 100.0 %
Extraction speed 5.5 X
Track quality 100.0 %
Test CRC F85130FB
Copy CRC F85130FB
Accurately ripped (confidence 15) [228C9734] (AR v2)
Copy OK

Track 7

Filename F:\My Documents\My Music\Albums (Complete)\07. Flow My Dreams, The Android Wept.wav

Peak level 100.0 %
Extraction speed 5.9 X
Track quality 100.0 %
Test CRC 7F1D3C5A
Copy CRC 7F1D3C5A
Accurately ripped (confidence 15) [A4AE8183] (AR v2)
Copy OK

Track 8

Filename F:\My Documents\My Music\Albums (Complete)\08. White Man's Burden.wav

Peak level 100.0 %
Extraction speed 6.2 X
Track quality 100.0 %
Test CRC 040F41B7
Copy CRC 040F41B7
Accurately ripped (confidence 15) [E2460CA8] (AR v2)
Copy OK

Track 9

Filename F:\My Documents\My Music\Albums (Complete)\09. We All Know The Truth (You Have God).wav

Peak level 100.0 %
Extraction speed 6.6 X
Track quality 100.0 %
Test CRC 4FC07F9C
Copy CRC 4FC07F9C
Accurately ripped (confidence 15) [1ABA90BF] (AR v2)
Copy OK


All tracks accurately ripped

No errors occurred

End of status report

–– CUETools DB Plugin V2.1.6

[CTDB TOCID: Nin.0bdGWENy0sQ3K89wv9bSaFA-] found
Submit result: Nin.0bdGWENy0sQ3K89wv9bSaFA- has been confirmed
Track | CTDB Status
1 | (29/29) Accurately ripped
2 | (29/29) Accurately ripped
3 | (29/29) Accurately ripped
4 | (29/29) Accurately ripped
5 | (29/29) Accurately ripped
6 | (29/29) Accurately ripped
7 | (29/29) Accurately ripped
8 | (29/29) Accurately ripped
9 | (28/29) Accurately ripped


==== Log checksum 3EA993BD6980F7B4106F836F7D1FC04244E2EFC69F5987E41D46CDC095A4C65B ====

[CUETools log; Date: 11.04.2021 22:27:16; Version: 2.1.4]
[CTDB TOCID: Nin.0bdGWENy0sQ3K89wv9bSaFA-] found.
Track | CTDB Status
1 | (61/61) Accurately ripped
2 | (61/61) Accurately ripped
3 | (61/61) Accurately ripped
4 | (61/61) Accurately ripped
5 | (61/61) Accurately ripped
6 | (61/61) Accurately ripped
7 | (61/61) Accurately ripped
8 | (60/61) Accurately ripped
9 | (60/61) Accurately ripped
[AccurateRip ID: 001652f5-00a5d47f-80102a09] found.
Track [ CRC | V2 ] Status
01 [ef4aa02e|4f0f09a2] (13+22/61) Accurately ripped
02 [65eb7f3a|077cd974] (13+22/61) Accurately ripped
03 [f223ab6a|191debe6] (13+22/61) Accurately ripped
04 [f2b40507|48b9e50e] (13+22/60) Accurately ripped
05 [25b7aa85|95c6bccc] (13+22/60) Accurately ripped
06 [ab25a670|228c9734] (13+22/62) Accurately ripped
07 [576a8abc|a4ae8183] (13+22/62) Accurately ripped
08 [da2c75da|e2460ca8] (14+22/62) Accurately ripped
09 [5c76ea65|1aba90bf] (13+22/61) Accurately ripped
Offsetted by -6:
01 [10ee9d03] (14/61) Accurately ripped
02 [7e226aec] (14/61) Accurately ripped
03 [09fce45a] (14/61) Accurately ripped
04 [e9ad6a50] (13/60) Accurately ripped
05 [e84bb998] (13/60) Accurately ripped
06 [02ad22ce] (14/62) Accurately ripped
07 [b8bcdad3] (14/62) Accurately ripped
08 [7c585f52] (13/62) Accurately ripped
09 [048e62fa] (14/61) Accurately ripped
Offsetted by -676:
01 [5cdb0d23] (00/61) No match (V2 was not tested)
02 [ea2a1dea] (00/61) No match (V2 was not tested)
03 [b10a05e2] (00/61) No match (V2 was not tested)
04 [09fe544a] (00/60) No match (V2 was not tested)
05 [40b7896b] (00/60) No match (V2 was not tested)
06 [1204c5d0] (00/62) No match (V2 was not tested)
07 [d63b21f2] (00/62) No match (V2 was not tested)
08 [d61bd201] (00/62) No match (V2 was not tested)
09 [11cafa9d] (00/61) No match (V2 was not tested)

Track Peak [ CRC32 ] [W/O NULL] [ LOG ]
– 99,9 [38A6F04E] [D1E2DF25]
01 98,8 [E9203EB7] [93DBDC7B] CRC32
02 99,9 [B390EB28] [6519F04C] CRC32
03 99,9 [5F4FEE1D] [E98F4BE2] CRC32
04 99,9 [382CACD4] [B2526001] CRC32
05 96,9 [F85A014A] [D8F57D84] CRC32
06 99,9 [F85130FB] [CBC0DA45] CRC32
07 99,9 [7F1D3C5A] [B5574E0C] CRC32
08 99,9 [040F41B7] [FA9E6F15] CRC32
09 99,9 [4FC07F9C] [F5F7BB92] CRC32

Thanks to Summerisle

See also:
Banco De Gaia - Maya (1994) [O...20th Anniversary Edition 2014]
Banco De Gaia - Last Train To ...20th Anniversary Edition 2015]
Banco De Gaia - Live At Glasto...20th Anniversary Edition 2016]
Banco De Gaia - Big Men Cry (1997) [2CD 20th Anniversary Edition 2017]
Banco De Gaia - The Magical Sounds Of Banco De Gaia (1999)