Subcategories
Tags
Language
Tags

Bonobo - The North Borders (2013) Japanese Edition

Posted By: Designol
Bonobo - The North Borders (2013) Japanese Edition

Bonobo - The North Borders (2013) Japanese Edition
EAC | FLAC | Tracks (Cue&Log) ~ 372 Mb | Mp3 (CBR320) ~ 146 Mb | Scans ~ 161 Mb
Electronic, Downtempo, Trip-Hop, Ambient Breakbeat | Label: Beat | # BRC-368 | 01:03:02

On his 2013 release The North Borders, British producer Simon Green (aka Bonobo) continues along the organic-meets-electronic path that his 2010 release Black Sands followed, but this walk takes place as it's turning to dusk, and there are varying degrees of mist and chilliness along the way. Opener "First Fires" with Grey Reverend (singer/songwriter L.D. Brown) sounds like it could be quite warm, but it's entirely autumn-minded sweater music that wistfully wonders what to do with "faded dreams" as Green allows bits of glitchy sunlight to shine through his cloudy synth construction. "Emkay" is the clangs and echoes of a seaside port at night that wonderfully shuffles its way up to a lighthouse tune, then there's majestic songstress Erykah Badu wonderfully vibing ("We don't need no truth/Got plenty/Now it grows on trees") on "Heaven for the Sinner" over Bonobo's deep version of the broken beat. "Towers" suggests sleepy urban buildings in twilight with a vibraphone representing the little bits of life and light that will sparkle through the night, while "Don't Wait" is just before the dawn, as innocent chimes chase away the eerie things that lurk in the darkness. Still, it's not all drifting as the great "Know You" drops a jazzy breakbeat while the high stepper "Ten Tigers" struts to something sounding like an inverted handclap, although there's little here that will make sleeping cats jump off the couch. Fine song structure and an overall album flow that's nearly perfect are things Bonobo regulars might expect at this point, but his discography hasn’t offered up a rainy day soundtrack so fitting until this one, so hope the weatherman has bad news and plan on staying in.

Review by David Jeffries, Allmusic.com

Bonobo - The North Borders (2013) Japanese Edition



Tracklist:

01. First Fires (04:39) (feat. Grey Reverend)
02. Emkay (05:25)
03. Cirrus (05:49)
04. Heaven For The Sinner (04:09) (feat. Erykah Badu)
05. Sapphire (04:47)
06. Jets (04:34)
07. Towers (03:36) (feat. Szjerdene)
08. Don't Wait (05:17)
09. Know You (04:05)
10. Antenna (03:32)
11. Ten Tigers (04:03)
12. Transits (04:20) (feat. Szjerdene)
13. Pieces (04:32) (feat. Cornelia)

Bonus Track for Japan
14. Heaven (04:07)


Exact Audio Copy V1.0 beta 3 from 29. August 2011

EAC extraction logfile from 14. March 2015, 14:52

Bonobo / The North Borders.

Used drive : PLDS DVD+-RW DU-8A4SH Adapter: 0 ID: 1

Read mode : Secure
Utilize accurate stream : Yes
Defeat audio cache : Yes
Make use of C2 pointers : No

Read offset correction : 6
Overread into Lead-In and Lead-Out : No
Fill up missing offset samples with silence : Yes
Delete leading and trailing silent blocks : No
Null samples used in CRC calculations : Yes
Used interface : Native Win32 interface for Win NT & 2000
Gap handling : Appended to previous track

Used output format : User Defined Encoder
Selected bitrate : 1024 kBit/s
Quality : High
Add ID3 tag : No
Command line compressor : C:\Program Files (x86)\FLAC\flac.exe
Additional command line options : -T "artist=%artist%" -T "title=%title%" -T "album=%albumtitle%" -T "date=%year%" -T "tracknumber=%tracknr%" -T "genre=%genre%" -5 %source%


TOC of the extracted CD

Track | Start | Length | Start sector | End sector
––––––––––––––––––––––––––––-
1 | 0:00.00 | 4:39.17 | 0 | 20941
2 | 4:39.17 | 5:25.43 | 20942 | 45359
3 | 10:04.60 | 5:49.15 | 45360 | 71549
4 | 15:54.00 | 4:09.65 | 71550 | 90289
5 | 20:03.65 | 4:47.55 | 90290 | 111869
6 | 24:51.45 | 4:34.62 | 111870 | 132481
7 | 29:26.32 | 3:36.49 | 132482 | 148730
8 | 33:03.06 | 5:17.42 | 148731 | 172547
9 | 38:20.48 | 4:05.22 | 172548 | 190944
10 | 42:25.70 | 3:32.27 | 190945 | 206871
11 | 45:58.22 | 4:03.58 | 206872 | 225154
12 | 50:02.05 | 4:20.39 | 225155 | 244693
13 | 54:22.44 | 4:32.29 | 244694 | 265122
14 | 58:54.73 | 4:07.34 | 265123 | 283681


Track 1

Filename C:\Rips\01 - First Fires (feat. Grey Reverend).wav

Pre-gap length 0:00:02.00

Peak level 98.4 %
Extraction speed 1.1 X
Track quality 99.9 %
Test CRC E124F0A4
Copy CRC E124F0A4
Accurately ripped (confidence 1) [091AC624] (AR v2)
Copy OK

Track 2

Filename C:\Rips\02 - Emkay.wav

Peak level 98.2 %
Extraction speed 1.4 X
Track quality 100.0 %
Test CRC 28CE9B71
Copy CRC 28CE9B71
Accurately ripped (confidence 1) [03C43349] (AR v2)
Copy OK

Track 3

Filename C:\Rips\03 - Cirrus.wav

Peak level 98.8 %
Extraction speed 1.5 X
Track quality 100.0 %
Test CRC 499C7213
Copy CRC 499C7213
Accurately ripped (confidence 1) [A5577F67] (AR v2)
Copy OK

Track 4

Filename C:\Rips\04 - Heaven For The Sinner (feat. Erykah Badu).wav

Peak level 91.2 %
Extraction speed 1.6 X
Track quality 100.0 %
Test CRC A484AD32
Copy CRC A484AD32
Accurately ripped (confidence 1) [FB79D581] (AR v2)
Copy OK

Track 5

Filename C:\Rips\05 - Sapphire.wav

Peak level 98.4 %
Extraction speed 1.7 X
Track quality 100.0 %
Test CRC 75C95544
Copy CRC 75C95544
Accurately ripped (confidence 1) [E0B9A650] (AR v2)
Copy OK

Track 6

Filename C:\Rips\06 - Jets.wav

Peak level 98.2 %
Extraction speed 1.8 X
Track quality 100.0 %
Test CRC B5C40451
Copy CRC B5C40451
Accurately ripped (confidence 1) [3B5C9310] (AR v2)
Copy OK

Track 7

Filename C:\Rips\07 - Towers (feat. Szjerdene).wav

Peak level 98.4 %
Extraction speed 1.8 X
Track quality 100.0 %
Test CRC E55D17A2
Copy CRC E55D17A2
Accurately ripped (confidence 1) [B2183899] (AR v2)
Copy OK

Track 8

Filename C:\Rips\08 - Don't Wait.wav

Peak level 98.4 %
Extraction speed 2.0 X
Track quality 100.0 %
Test CRC 16CDC054
Copy CRC 16CDC054
Accurately ripped (confidence 1) [D1171B6B] (AR v2)
Copy OK

Track 9

Filename C:\Rips\09 - Know You.wav

Peak level 98.0 %
Extraction speed 2.0 X
Track quality 100.0 %
Test CRC 8E1AA0B7
Copy CRC 8E1AA0B7
Accurately ripped (confidence 1) [34809168] (AR v2)
Copy OK

Track 10

Filename C:\Rips\10 - Antenna.wav

Peak level 98.0 %
Extraction speed 2.1 X
Track quality 100.0 %
Test CRC 3445C860
Copy CRC 3445C860
Accurately ripped (confidence 1) [1D96F3DE] (AR v2)
Copy OK

Track 11

Filename C:\Rips\11 - Ten Tigers.wav

Peak level 98.8 %
Extraction speed 2.2 X
Track quality 100.0 %
Test CRC C9B28063
Copy CRC C9B28063
Accurately ripped (confidence 1) [A815C342] (AR v2)
Copy OK

Track 12

Filename C:\Rips\12 - Transits (feat. Szjerdene).wav

Peak level 98.4 %
Extraction speed 2.3 X
Track quality 100.0 %
Test CRC C538162B
Copy CRC C538162B
Accurately ripped (confidence 1) [73C248D4] (AR v2)
Copy OK

Track 13

Filename C:\Rips\13 - Pieces (feat. Cornelia).wav

Peak level 98.4 %
Extraction speed 2.4 X
Track quality 100.0 %
Test CRC EFC6A420
Copy CRC EFC6A420
Accurately ripped (confidence 1) [EC65C565] (AR v2)
Copy OK

Track 14

Filename C:\Rips\14 - Heaven.wav

Peak level 91.3 %
Extraction speed 2.4 X
Track quality 100.0 %
Test CRC 5C85755D
Copy CRC 5C85755D
Accurately ripped (confidence 1) [04072380] (AR v2)
Copy OK


All tracks accurately ripped

No errors occurred

End of status report

–– CUETools DB Plugin V2.1.3

[CTDB TOCID: f6BEaTSqqP0o4l7M1b62BiJkYG0-] disk not present in database, Submit result: f6BEaTSqqP0o4l7M1b62BiJkYG0- has been uploaded


==== Log checksum 44477D66DDD5C6B8239AA7EDCF8147793A35EB7A5CA02A9EA8F6172A2D46BE06 ====

foobar2000 1.2 / Dynamic Range Meter 1.1.1
log date: 2016-11-22 16:02:00

––––––––––––––––––––––––––––––––––––––––
Analyzed: Bonobo / The North Borders
––––––––––––––––––––––––––––––––––––––––

DR Peak RMS Duration Track
––––––––––––––––––––––––––––––––––––––––
DR7 -0.14 dB -10.64 dB 4:39 01-First Fires
DR6 -0.16 dB -9.94 dB 5:26 02-Emkay
DR7 -0.10 dB -10.07 dB 5:49 03-Cirrus
DR6 -0.80 dB -9.17 dB 4:10 04-Heaven For The Sinner
DR7 -0.14 dB -10.78 dB 4:48 05-Sapphire
DR7 -0.16 dB -9.87 dB 4:35 06-Jets
DR8 -0.14 dB -10.48 dB 3:37 07-Towers
DR8 -0.14 dB -10.37 dB 5:18 08-Don't Wait
DR6 -0.17 dB -9.57 dB 4:05 09-Know You
DR7 -0.17 dB -8.82 dB 3:32 10-Antenna
DR7 -0.10 dB -8.98 dB 4:04 11-Ten Tigers
DR6 -0.14 dB -9.85 dB 4:21 12-Transits
DR8 -0.14 dB -10.99 dB 4:32 13-Pieces
DR7 -0.78 dB -9.76 dB 4:07 14-Heaven
––––––––––––––––––––––––––––––––––––––––

Number of tracks: 14
Official DR value: DR7

Samplerate: 44100 Hz
Channels: 2
Bits per sample: 16
Bitrate: 850 kbps
Codec: FLAC
================================================================================

Bonobo - The North Borders (2013) Japanese Edition

Bonobo - The North Borders (2013) Japanese Edition

All thanks to original releaser

More interesting music in My Blog