Subcategories

Bruce Springsteen - Tracks (1998) 4CD Box Set [Re-Up]

Posted By: Designol
Bruce Springsteen - Tracks (1998) 4CD Box Set [Re-Up]

Bruce Springsteen - Tracks (1998) 4CD Box Set
EAC | FLAC | Tracks (Cue&Log) ~ 1.6 Gb | Mp3 (CBR320) ~ 582 Mb | Scans ~ 46 Mb | 04:13:24
Rock, Heartland Rock, Folk Rock | Label: Columbia/Sony | # COL 492605 2, 492605 2

Tracks is a four-disc box set by Bruce Springsteen, released in 1998 containing 66 songs. This box set mostly consists of never-before-released songs recorded during the sessions for his many albums, but also includes a number of single B-sides, as well as demos and alternate versions of already-released material.

For years, decades even, Bruce Springsteen was legendary for the amount of recordings he did not release. Every time he cut an album, he recorded a surplus of songs and left some out, not always on the basis of quality, but often because they simply didn't suit the mood of the record. It was inevitable that dedicated fans and collectors would bootleg these recordings, and for many years, he was one of the most popular bootlegged artists, rivaling even Bob Dylan. Dylan released a box set of unreleased songs in 1991, paving the way for the long-overdue appearance of a similar Springsteen set, Tracks, in 1998. Spanning four discs, it isn't entirely devoted to unreleased material – a few B-sides pop up here and there – nor is it truly definitive, since it misses a number of key outtakes, plus his original version of "Because the Night," the sole hit for Patti Smith. Instead, the compilation is an unassuming sampling of what's in the vaults, from his early acoustic demos to polished outtakes from Human Touch and Lucky Town. Along the way, there are a number of great songs – "Bishop Danced" is every bit as terrific as its legend, as are "Thundercrack," "Give the Girl a Kiss," "Hearts of Stone," "Roulette," and many others. Tracks merely offers fans an enjoyably sequenced selection of what was left behind. If the end result isn't as revelatory as some may have expected (even the acoustic "Born in the U.S.A.," powerful as it is, doesn't sound any different than you may have imagined it), it's because Springsteen is, at heart, a solid craftsman, not a blinding visionary like Dylan. That's why Tracks is for the dedicated fan, where The Bootleg Series and The Basement Tapes are flat-out essential for rock fans.

Review by Stephen Thomas Erlewine, Allmusic.com

Bruce Springsteen - Tracks (1998) 4CD Box Set [Re-Up]

Bruce Springsteen - Tracks (1998) 4CD Box Set [Re-Up]



Tracklist:

CD1:

01. Mary Queen of Arkansas (04:30)
02. It's Hard to Be a Saint in the City (02:57)
03. Growin' Up (02:42)
04. Does This Bus Stop at 82nd Street? (02:05)
05. Bishop Danced (04:23)
06. Santa Ana (04:39)
07. Seaside Bar Song (03:36)
08. Zero and Blind Terry (05:59)
09. Linda Let Me Be the One (04:29)
10. Thundercrack (08:30)
11. Rendezvous (02:53)
12. Give the Girl a Kiss (03:57)
13. Iceman (03:20)
14. Bring on the Night (02:42)
15. So Young and in Love (03:51)
16. Hearts of Stone (04:33)
17. Don't Look Back (03:00)

CD2:

01. Restless Nights (03:49)
02. A Good Man Is Hard to Find (Pittsburgh) (03:19)
03. Roulette (03:57)
04. Dollhouse (03:36)
05. Where the Bands Are (03:47)
06. Loose Ends (04:05)
07. Living on the Edge of the World (04:21)
08. Wages of Sin (04:56)
09. Take 'em as They Come (04:32)
10. Be True (03:43)
11. Ricky Wants a Man of Her Own (02:49)
12. I Wanna Be With You (03:25)
13. Mary Lou (03:24)
14. Stolen Car (04:33)
15. Born in the U.S.A. (03:13)
16. Johnny Bye-Bye (01:54)
17. Shut Out the Light (03:51)

CD3:

01. Cynthia (04:17)
02. My Love Will Not Let You Down (04:28)
03. This Hard Land (04:52)
04. Frankie (07:26)
05. TV Movie (02:48)
06. Stand on It (03:09)
07. Lion's Den (02:21)
08. Car Wash (02:10)
09. Rockaway the Days (04:45)
10. Brothers Under the Bridges (05:10)
11. Man at the Top (03:26)
12. Pink Cadillac (03:38)
13. Two for the Road (02:02)
14. Janey Don't You Lose Heart (03:29)
15. When You Need Me (02:59)
16. The Wish (05:20)
17. The Honeymooners (02:09)
18. Lucky Man (03:30)

CD4:

01. Leavin' Train (04:09)
02. Seven Angels (03:30)
03. Gave It a Name (02:53)
04. Sad Eyes (03:52)
05. My Lover Man (04:01)
06. Over the Rise (02:42)
07. When the Lights Go Out (03:09)
08. Loose Change (04:24)
09. Trouble in Paradise (04:45)
10. Happy (04:56)
11. Part Man, Part Monkey (04:33)
12. Goin' Cali (03:06)
13. Back in Your Arms (04:44)
14. Brothers Under the Bridge (04:55)


EAC extraction logfile from 13. May 2007, 20:27 for CD
Bruce Springsteen / Tracks (Disc 1)

Used drive : SONY DVD-ROM DDU1615 Adapter: 1 ID: 1
Read mode : Secure with NO C2, accurate stream, disable cache
Read offset correction : 6
Overread into Lead-In and Lead-Out : No

Used output format : Internal WAV Routines
44.100 Hz; 16 Bit; Stereo

Other options :
Fill up missing offset samples with silence : Yes
Delete leading and trailing silent blocks : No
Installed external ASPI interface


Track 1
Filename F:\Bruce Springsteen - Tracks (1998) [FLAC] {4 CD Box Set}\Disc 1 of 4\01 - Mary Queen Of Arkansas.wav

Pre-gap length 0:00:02.00

Peak level 99.9 %
Track quality 100.0 %
Test CRC 5EF85AE6
Copy CRC 5EF85AE6
Copy OK

Track 2
Filename F:\Bruce Springsteen - Tracks (1998) [FLAC] {4 CD Box Set}\Disc 1 of 4\02 - It's Hard To Be A Saint In The City.wav

Pre-gap length 0:00:01.10

Peak level 99.9 %
Track quality 100.0 %
Test CRC DD855BFE
Copy CRC DD855BFE
Copy OK

Track 3
Filename F:\Bruce Springsteen - Tracks (1998) [FLAC] {4 CD Box Set}\Disc 1 of 4\03 - Growin' Up.wav

Pre-gap length 0:00:02.73

Peak level 77.2 %
Track quality 100.0 %
Test CRC FA415893
Copy CRC FA415893
Copy OK

Track 4
Filename F:\Bruce Springsteen - Tracks (1998) [FLAC] {4 CD Box Set}\Disc 1 of 4\04 - Does This Bus Stop At 82nd Street .wav

Pre-gap length 0:00:02.66

Peak level 99.9 %
Track quality 99.9 %
Test CRC E457AD0C
Copy CRC E457AD0C
Copy OK

Track 5
Filename F:\Bruce Springsteen - Tracks (1998) [FLAC] {4 CD Box Set}\Disc 1 of 4\05 - Bishop Danced.wav

Pre-gap length 0:00:04.97

Peak level 99.9 %
Track quality 100.0 %
Test CRC B118767D
Copy CRC B118767D
Copy OK

Track 6
Filename F:\Bruce Springsteen - Tracks (1998) [FLAC] {4 CD Box Set}\Disc 1 of 4\06 - Santa Ana.wav

Pre-gap length 0:00:02.86

Peak level 99.9 %
Track quality 100.0 %
Test CRC 29055B13
Copy CRC 29055B13
Copy OK

Track 7
Filename F:\Bruce Springsteen - Tracks (1998) [FLAC] {4 CD Box Set}\Disc 1 of 4\07 - Seaside Bar Song.wav

Pre-gap length 0:00:01.53

Peak level 97.1 %
Track quality 100.0 %
Test CRC 330DB5E5
Copy CRC 330DB5E5
Copy OK

Track 8
Filename F:\Bruce Springsteen - Tracks (1998) [FLAC] {4 CD Box Set}\Disc 1 of 4\08 - Zero And Blind Terry.wav

Pre-gap length 0:00:01.76

Peak level 97.1 %
Track quality 100.0 %
Test CRC 063BA43F
Copy CRC 063BA43F
Copy OK

Track 9
Filename F:\Bruce Springsteen - Tracks (1998) [FLAC] {4 CD Box Set}\Disc 1 of 4\09 - Linda Let Me Be The One.wav

Pre-gap length 0:00:01.73

Peak level 99.9 %
Track quality 100.0 %
Test CRC 9A1761CC
Copy CRC 9A1761CC
Copy OK

Track 10
Filename F:\Bruce Springsteen - Tracks (1998) [FLAC] {4 CD Box Set}\Disc 1 of 4\10 - Thundercrack.wav

Pre-gap length 0:00:02.26

Peak level 99.9 %
Track quality 100.0 %
Test CRC D7AF18B1
Copy CRC D7AF18B1
Copy OK

Track 11
Filename F:\Bruce Springsteen - Tracks (1998) [FLAC] {4 CD Box Set}\Disc 1 of 4\11 - Rendezvous.wav

Pre-gap length 0:00:02.86

Peak level 99.9 %
Track quality 100.0 %
Test CRC BEEF94F2
Copy CRC BEEF94F2
Copy OK

Track 12
Filename F:\Bruce Springsteen - Tracks (1998) [FLAC] {4 CD Box Set}\Disc 1 of 4\12 - Give The Girl A Kiss.wav

Pre-gap length 0:00:02.84

Peak level 99.9 %
Track quality 100.0 %
Test CRC 2E5EA312
Copy CRC 2E5EA312
Copy OK

Track 13
Filename F:\Bruce Springsteen - Tracks (1998) [FLAC] {4 CD Box Set}\Disc 1 of 4\13 - Iceman.wav

Pre-gap length 0:00:03.46

Peak level 99.9 %
Track quality 100.0 %
Test CRC 25B234CF
Copy CRC 25B234CF
Copy OK

Track 14
Filename F:\Bruce Springsteen - Tracks (1998) [FLAC] {4 CD Box Set}\Disc 1 of 4\14 - Bring On The Night.wav

Pre-gap length 0:00:01.84

Peak level 99.7 %
Track quality 100.0 %
Test CRC D44720AC
Copy CRC D44720AC
Copy OK

Track 15
Filename F:\Bruce Springsteen - Tracks (1998) [FLAC] {4 CD Box Set}\Disc 1 of 4\15 - So Young And In Love.wav

Pre-gap length 0:00:03.33

Peak level 97.7 %
Track quality 99.9 %
Test CRC 29AF53F7
Copy CRC 29AF53F7
Copy OK

Track 16
Filename F:\Bruce Springsteen - Tracks (1998) [FLAC] {4 CD Box Set}\Disc 1 of 4\16 - Hearts Of Stone.wav

Pre-gap length 0:00:01.73

Peak level 99.9 %
Track quality 99.9 %
Test CRC 3A5F8366
Copy CRC 3A5F8366
Copy OK

Track 17
Filename F:\Bruce Springsteen - Tracks (1998) [FLAC] {4 CD Box Set}\Disc 1 of 4\17 - Don't Look Back.wav

Pre-gap length 0:00:02.46

Peak level 99.9 %
Track quality 100.0 %
Test CRC C221EB3F
Copy CRC C221EB3F
Copy OK

No errors occured


End of status report

[CUETools log; Date: 06.04.2017 17:18:14; Version: 2.1.6]
HDCD: peak extend: none, transient filter: none, gain: none
[CTDB TOCID: YPJgbYFiuZkR00jdhnNqWoAH8_o-] found.
Track | CTDB Status
1 | (90/92) Accurately ripped
2 | (91/92) Accurately ripped
3 | (91/92) Accurately ripped
4 | (91/92) Accurately ripped
5 | (91/92) Accurately ripped
6 | (90/92) Accurately ripped
7 | (90/92) Accurately ripped
8 | (90/92) Accurately ripped
9 | (90/92) Accurately ripped
10 | (91/92) Accurately ripped
11 | (90/92) Accurately ripped
12 | (91/92) Accurately ripped
13 | (91/92) Accurately ripped
14 | (91/92) Accurately ripped
15 | (89/92) Accurately ripped
16 | (89/92) Accurately ripped
17 | (89/92) Accurately ripped
[AccurateRip ID: 00298cd5-0215ad2e-e70fdd11] found.
Track [ CRC | V2 ] Status
01 [7d49d3d9|c6cb2ab3] (009+020/155) Accurately ripped
02 [56e0c948|fda8cfe4] (009+020/156) Accurately ripped
03 [441a65d3|c6f8b887] (009+020/156) Accurately ripped
04 [e71a0f08|20122025] (009+020/156) Accurately ripped
05 [462245d9|8ba6c37e] (009+020/159) Accurately ripped
06 [f5d02893|f1f42431] (009+020/158) Accurately ripped
07 [f105e08b|c534f21a] (009+020/156) Accurately ripped
08 [14c03243|71047d6b] (009+020/158) Accurately ripped
09 [63d0365b|d2f3ab57] (009+020/158) Accurately ripped
10 [429c0c60|55e6a1d8] (009+020/159) Accurately ripped
11 [34e071df|b476d043] (009+020/159) Accurately ripped
12 [ffefb6ae|fa300739] (009+020/159) Accurately ripped
13 [94b13d8e|fdd402d7] (009+020/158) Accurately ripped
14 [7e3c05da|2d910d74] (009+020/157) Accurately ripped
15 [b5487c89|2048fd7c] (009+020/159) Accurately ripped
16 [8100ae35|9b2e77b4] (009+020/155) Accurately ripped
17 [912ce576|44da5740] (009+020/156) Accurately ripped
Offsetted by -294:
01 [fac29b7d] (004/155) Accurately ripped
02 [3316893d] (004/156) Accurately ripped
03 [db2d5eed] (004/156) Accurately ripped
04 [d1081a52] (004/156) Accurately ripped
05 [0f255050] (004/159) Accurately ripped
06 [22dcb791] (004/158) Accurately ripped
07 [d4709781] (004/156) Accurately ripped
08 [92508480] (004/158) Accurately ripped
09 [8e9ca4ed] (004/158) Accurately ripped
10 [bd3029ca] (004/159) Accurately ripped
11 [095642ac] (004/159) Accurately ripped
12 [7e4d455f] (004/159) Accurately ripped
13 [84f94609] (004/158) Accurately ripped
14 [29336b58] (004/157) Accurately ripped
15 [d8439f1e] (004/159) Accurately ripped
16 [7daadd39] (004/155) Accurately ripped
17 [fea15389] (004/156) Accurately ripped
Offsetted by -210:
01 [22d5cddc] (004/155) Accurately ripped
02 [ab7c075f] (004/156) Accurately ripped
03 [53abc510] (004/156) Accurately ripped
04 [a6779aca] (004/156) Accurately ripped
05 [ff428c25] (004/159) Accurately ripped
06 [bf5c2265] (004/158) Accurately ripped
07 [66a15cdb] (004/156) Accurately ripped
08 [4c57ec1c] (004/158) Accurately ripped
09 [5b1fb59d] (004/158) Accurately ripped
10 [f9abce44] (004/159) Accurately ripped
11 [d7580eee] (004/159) Accurately ripped
12 [bf78fe2b] (004/159) Accurately ripped
13 [a6a9a807] (004/158) Accurately ripped
14 [ad97b54b] (004/157) Accurately ripped
15 [34572060] (004/159) Accurately ripped
16 [abe3229a] (004/155) Accurately ripped
17 [5448456e] (004/156) Accurately ripped
Offsetted by 142:
01 [d5d502bc] (023/155) Accurately ripped
02 [9d8778cc] (024/156) Accurately ripped
03 [e1d07eae] (024/156) Accurately ripped
04 [fb63886f] (024/156) Accurately ripped
05 [7ef050fa] (024/159) Accurately ripped
06 [ce51bb10] (024/158) Accurately ripped
07 [9543d444] (024/156) Accurately ripped
08 [ab7d1ea0] (024/158) Accurately ripped
09 [d75b983f] (024/158) Accurately ripped
10 [6e9c936a] (024/159) Accurately ripped
11 [2bb2e572] (024/159) Accurately ripped
12 [1583ec23] (024/159) Accurately ripped
13 [a5e5128b] (024/158) Accurately ripped
14 [9d3d8d03] (024/157) Accurately ripped
15 [e6b578fb] (024/159) Accurately ripped
16 [4aad923c] (022/155) Accurately ripped
17 [3102cc7c] (023/156) Accurately ripped
Offsetted by 334:
01 [cb615003] (002/155) Accurately ripped
02 [f0f06a7e] (002/156) Accurately ripped
03 [ef581663] (002/156) Accurately ripped
04 [795f3467] (002/156) Accurately ripped
05 [5754e01a] (002/159) Accurately ripped
06 [a3574c9d] (002/158) Accurately ripped
07 [ee5f2726] (002/156) Accurately ripped
08 [ac51ce29] (002/158) Accurately ripped
09 [53ec9d47] (002/158) Accurately ripped
10 [62fb4007] (002/159) Accurately ripped
11 [40ab271a] (002/159) Accurately ripped
12 [35fe87c0] (002/159) Accurately ripped
13 [377011c0] (002/158) Accurately ripped
14 [99628ce4] (002/157) Accurately ripped
15 [59e504e9] (002/159) Accurately ripped
16 [ad797cae] (002/155) Accurately ripped
17 [d7e4a4b6] (002/156) Accurately ripped
Offsetted by 541:
01 [918f3499] (004/155) Accurately ripped
02 [14b401b9] (004/156) Accurately ripped
03 [a55dbfb7] (004/156) Accurately ripped
04 [3ce56dc4] (004/156) Accurately ripped
05 [03dc4d02] (004/159) Accurately ripped
06 [3a174056] (004/158) Accurately ripped
07 [fda5f925] (004/156) Accurately ripped
08 [f83d3c64] (004/158) Accurately ripped
09 [de37ad00] (004/158) Accurately ripped
10 [10e1cc13] (004/159) Accurately ripped
11 [dc7c67e8] (004/159) Accurately ripped
12 [dcfe0a5d] (004/159) Accurately ripped
13 [37f567ef] (004/158) Accurately ripped
14 [ed1c4f8e] (004/157) Accurately ripped
15 [cc7bbcf7] (004/159) Accurately ripped
16 [cfc47d17] (004/155) Accurately ripped
17 [bd02df1b] (004/156) Accurately ripped
Offsetted by 570:
01 [241008b2] (009/155) Accurately ripped
02 [228f6eef] (009/156) Accurately ripped
03 [a40ccf87] (009/156) Accurately ripped
04 [8f54b848] (009/156) Accurately ripped
05 [91cf1309] (009/159) Accurately ripped
06 [870c29cf] (009/158) Accurately ripped
07 [28eaa79e] (009/156) Accurately ripped
08 [4e08a734] (009/158) Accurately ripped
09 [b4f2d745] (009/158) Accurately ripped
10 [aca3681f] (009/159) Accurately ripped
11 [bdb6b058] (009/159) Accurately ripped
12 [9f0cc9dd] (009/159) Accurately ripped
13 [8962ce82] (009/158) Accurately ripped
14 [0ac7d640] (009/157) Accurately ripped
15 [cf35f0eb] (009/159) Accurately ripped
16 [87c30b6f] (009/155) Accurately ripped
17 [62bbdbe7] (009/156) Accurately ripped
Offsetted by 914:
01 [e54f12c1] (005/155) Accurately ripped
02 [46d959f1] (005/156) Accurately ripped
03 [fc287b1f] (005/156) Accurately ripped
04 [f9a2512d] (005/156) Accurately ripped
05 [09d85030] (005/159) Accurately ripped
06 [b7b12a13] (005/158) Accurately ripped
07 [25eb8fe0] (005/156) Accurately ripped
08 [28ca0a41] (005/158) Accurately ripped
09 [00189b2b] (005/158) Accurately ripped
10 [1aed73aa] (005/159) Accurately ripped
11 [e583a9c1] (005/159) Accurately ripped
12 [fd1a7b6f] (005/159) Accurately ripped
13 [a6561dd4] (005/158) Accurately ripped
14 [102cee27] (005/157) Accurately ripped
15 [78a13644] (005/159) Accurately ripped
16 [fe84f33d] (005/155) Accurately ripped
17 [4f03c25b] (005/156) Accurately ripped
Offsetted by 1047:
01 [566ef660] (013/155) Accurately ripped
02 [329f1b6e] (013/156) Accurately ripped
03 [84f5a5cf] (013/156) Accurately ripped
04 [918fd5d6] (013/156) Accurately ripped
05 [8cc251f3] (013/159) Accurately ripped
06 [70e0f920] (013/158) Accurately ripped
07 [4bfe8727] (012/156) Accurately ripped
08 [62ac3dd8] (014/158) Accurately ripped
09 [e59aa281] (014/158) Accurately ripped
10 [79e0d594] (014/159) Accurately ripped
11 [eb795f71] (013/159) Accurately ripped
12 [eefb0033] (014/159) Accurately ripped
13 [5a85f26c] (013/158) Accurately ripped
14 [87f5777e] (013/157) Accurately ripped
15 [080c75a9] (014/159) Accurately ripped
16 [2bf95e60] (013/155) Accurately ripped
17 [3cf6922b] (013/156) Accurately ripped
Offsetted by -525:
01 [183aaced] (000/155) No match (V2 was not tested)
02 [6fdeaac0] (000/156) No match (V2 was not tested)
03 [8c4d59f5] (000/156) No match (V2 was not tested)
04 [35347c4d] (000/156) No match (V2 was not tested)
05 [dbf73a0a] (000/159) No match (V2 was not tested)
06 [499ae7b2] (000/158) No match (V2 was not tested)
07 [92760212] (000/156) No match (V2 was not tested)
08 [fbeed9a6] (000/158) No match (V2 was not tested)
09 [da1da537] (000/158) No match (V2 was not tested)
10 [eae837f0] (000/159) No match (V2 was not tested)
11 [2415f913] (000/159) No match (V2 was not tested)
12 [91f110e4] (000/159) No match (V2 was not tested)
13 [b030331f] (000/158) No match (V2 was not tested)
14 [4de7f2d3] (000/157) No match (V2 was not tested)
15 [2e31938a] (000/159) No match (V2 was not tested)
16 [6c4fb06b] (000/155) No match (V2 was not tested)
17 [854c9068] (000/156) No match (V2 was not tested)
Offsetted by 59:
01 [95bf388a] (000/155) No match (V2 was not tested)
02 [6bfaa3d7] (000/156) No match (V2 was not tested)
03 [582cbae8] (000/156) No match (V2 was not tested)
04 [19f4c46a] (000/156) No match (V2 was not tested)
05 [3fab417f] (000/159) No match (V2 was not tested)
06 [c3628d95] (000/158) No match (V2 was not tested)
07 [64147d9c] (000/156) No match (V2 was not tested)
08 [84c5c4d8] (000/158) No match (V2 was not tested)
09 [b8058214] (000/158) No match (V2 was not tested)
10 [a5ee40f5] (000/159) No match (V2 was not tested)
11 [f24e5f2f] (000/159) No match (V2 was not tested)
12 [33d2d4c3] (000/159) No match (V2 was not tested)
13 [685157eb] (000/158) No match (V2 was not tested)
14 [f89ca2ba] (000/157) No match (V2 was not tested)
15 [60390bc4] (000/159) No match (V2 was not tested)
16 [56c59cf8] (000/155) No match (V2 was not tested)
17 [65eebabd] (000/156) No match (V2 was not tested)

Track Peak [ CRC32 ] [W/O NULL] [ LOG ]
– 99,9 [670D2CB7] [5442763A]
01 99,9 [5EF85AE6] [199CF641] CRC32
02 99,9 [DD855BFE] [AC9D8768] CRC32
03 77,2 [FA415893] [091DBF6C] CRC32
04 99,9 [E457AD0C] [EBEF512D] CRC32
05 99,9 [B118767D] [6A70278F] CRC32
06 99,9 [29055B13] [077C3629] CRC32
07 97,1 [330DB5E5] [F468ED1B] CRC32
08 97,0 [063BA43F] [6916C3D0] CRC32
09 99,9 [9A1761CC] [263D379A] CRC32
10 99,9 [D7AF18B1] [8D876F41] CRC32
11 99,9 [BEEF94F2] [6A673899] CRC32
12 99,9 [2E5EA312] [B01755C0] CRC32
13 99,9 [25B234CF] [1C29CED7] CRC32
14 99,7 [D44720AC] [EA4118DC] CRC32
15 97,7 [29AF53F7] [AEAE5A7E] CRC32
16 99,9 [3A5F8366] [2B0784DB] CRC32
17 99,9 [C221EB3F] [08EF6F33] CRC32

foobar2000 1.2 / Dynamic Range Meter 1.1.1
log date: 2017-04-07 16:29:23

––––––––––––––––––––––––––––––––––––––––
Analyzed: Bruce Springsteen / Tracks (Disc 1)
––––––––––––––––––––––––––––––––––––––––

DR Peak RMS Duration Track
––––––––––––––––––––––––––––––––––––––––
DR14 0.00 dB -18.75 dB 4:29 01-Mary Queen Of Arkansas
DR13 0.00 dB -16.30 dB 2:55 02-It's Hard To Be A Saint In The City
DR12 -2.24 dB -17.91 dB 2:41 03-Growin' Up
DR12 0.00 dB -15.49 dB 2:04 04-Does This Bus Stop At 82nd Street
DR11 0.00 dB -14.58 dB 4:21 05-Bishop Danced
DR9 0.00 dB -11.81 dB 4:37 06-Santa Ana
DR10 -0.26 dB -11.58 dB 3:35 07-Seaside Bar Song
DR9 -0.26 dB -11.93 dB 5:58 08-Zero And Blind Terry
DR11 0.00 dB -12.71 dB 4:27 09-Linda Let Me Be The One
DR9 0.00 dB -11.07 dB 8:29 10-Thundercrack
DR8 0.00 dB -9.10 dB 2:51 11-Rendezvous
DR8 0.00 dB -8.92 dB 3:55 12-Give The Girl A Kiss
DR10 0.00 dB -13.05 dB 3:19 13-Iceman
DR10 -0.03 dB -11.89 dB 2:40 14-Bring On The Night
DR10 -0.20 dB -11.45 dB 3:49 15-So Young And In Love
DR9 0.00 dB -10.47 dB 4:32 16-Hearts Of Stone
DR8 0.00 dB -9.71 dB 3:00 17-Don't Look Back
––––––––––––––––––––––––––––––––––––––––

Number of tracks: 17
Official DR value: DR10

Samplerate: 44100 Hz
Channels: 2
Bits per sample: 16
Bitrate: 957 kbps
Codec: FLAC
================================================================================


EAC extraction logfile from 13. May 2007, 20:47 for CD
Bruce Springsteen / Tracks (Disc 2)

Used drive : SONY DVD-ROM DDU1615 Adapter: 1 ID: 1
Read mode : Secure with NO C2, accurate stream, disable cache
Read offset correction : 6
Overread into Lead-In and Lead-Out : No

Used output format : Internal WAV Routines
44.100 Hz; 16 Bit; Stereo

Other options :
Fill up missing offset samples with silence : Yes
Delete leading and trailing silent blocks : No
Installed external ASPI interface


Track 1
Filename F:\Bruce Springsteen - Tracks (1998) [FLAC] {4 CD Box Set}\Disc 2 of 4\01 - Restless Nights.wav

Pre-gap length 0:00:02.00

Peak level 98.6 %
Track quality 99.9 %
Test CRC 5A06056A
Copy CRC 5A06056A
Copy OK

Track 2
Filename F:\Bruce Springsteen - Tracks (1998) [FLAC] {4 CD Box Set}\Disc 2 of 4\02 - A Good Man Is Hard To Find (Pittsburgh).wav

Pre-gap length 0:00:03.33

Peak level 99.9 %
Track quality 100.0 %
Test CRC DAFB01CB
Copy CRC DAFB01CB
Copy OK

Track 3
Filename F:\Bruce Springsteen - Tracks (1998) [FLAC] {4 CD Box Set}\Disc 2 of 4\03 - Roulette.wav

Pre-gap length 0:00:02.69

Peak level 99.9 %
Track quality 100.0 %
Test CRC B408E99E
Copy CRC B408E99E
Copy OK

Track 4
Filename F:\Bruce Springsteen - Tracks (1998) [FLAC] {4 CD Box Set}\Disc 2 of 4\04 - Dollhouse.wav

Pre-gap length 0:00:03.26

Peak level 99.9 %
Track quality 100.0 %
Test CRC C8FBACAE
Copy CRC C8FBACAE
Copy OK

Track 5
Filename F:\Bruce Springsteen - Tracks (1998) [FLAC] {4 CD Box Set}\Disc 2 of 4\05 - Where The Bands Are.wav

Pre-gap length 0:00:02.80

Peak level 99.2 %
Track quality 100.0 %
Test CRC 07FDA56F
Copy CRC 07FDA56F
Copy OK

Track 6
Filename F:\Bruce Springsteen - Tracks (1998) [FLAC] {4 CD Box Set}\Disc 2 of 4\06 - Loose Ends.wav

Pre-gap length 0:00:02.20

Peak level 99.9 %
Track quality 100.0 %
Test CRC 77E1A1A6
Copy CRC 77E1A1A6
Copy OK

Track 7
Filename F:\Bruce Springsteen - Tracks (1998) [FLAC] {4 CD Box Set}\Disc 2 of 4\07 - Living On The Edge Of The World.wav

Pre-gap length 0:00:03.44

Peak level 99.9 %
Track quality 100.0 %
Test CRC A0E27174
Copy CRC A0E27174
Copy OK

Track 8
Filename F:\Bruce Springsteen - Tracks (1998) [FLAC] {4 CD Box Set}\Disc 2 of 4\08 - Wages Of Sin.wav

Pre-gap length 0:00:01.90

Peak level 99.9 %
Track quality 99.9 %
Test CRC 4F193610
Copy CRC 4F193610
Copy OK

Track 9
Filename F:\Bruce Springsteen - Tracks (1998) [FLAC] {4 CD Box Set}\Disc 2 of 4\09 - Take 'Em As They Come.wav

Pre-gap length 0:00:02.06

Peak level 99.7 %
Track quality 100.0 %
Test CRC 1C6A2DBE
Copy CRC 1C6A2DBE
Copy OK

Track 10
Filename F:\Bruce Springsteen - Tracks (1998) [FLAC] {4 CD Box Set}\Disc 2 of 4\10 - Be True.wav

Pre-gap length 0:00:02.73

Peak level 99.7 %
Track quality 100.0 %
Test CRC 46506FA0
Copy CRC 46506FA0
Copy OK

Track 11
Filename F:\Bruce Springsteen - Tracks (1998) [FLAC] {4 CD Box Set}\Disc 2 of 4\11 - Ricky Wants A Man Of Her Own.wav

Pre-gap length 0:00:02.02

Peak level 99.9 %
Track quality 100.0 %
Test CRC C0EA056E
Copy CRC C0EA056E
Copy OK

Track 12
Filename F:\Bruce Springsteen - Tracks (1998) [FLAC] {4 CD Box Set}\Disc 2 of 4\12 - I Wanna Be With You.wav

Pre-gap length 0:00:02.33

Peak level 99.9 %
Track quality 100.0 %
Test CRC AF4066F4
Copy CRC AF4066F4
Copy OK

Track 13
Filename F:\Bruce Springsteen - Tracks (1998) [FLAC] {4 CD Box Set}\Disc 2 of 4\13 - Mary Lou.wav

Pre-gap length 0:00:01.20

Peak level 99.9 %
Track quality 100.0 %
Test CRC DCB5C90C
Copy CRC DCB5C90C
Copy OK

Track 14
Filename F:\Bruce Springsteen - Tracks (1998) [FLAC] {4 CD Box Set}\Disc 2 of 4\14 - Stolen Car.wav

Pre-gap length 0:00:02.06

Peak level 99.9 %
Track quality 99.9 %
Test CRC EFD8C65B
Copy CRC EFD8C65B
Copy OK

Track 15
Filename F:\Bruce Springsteen - Tracks (1998) [FLAC] {4 CD Box Set}\Disc 2 of 4\15 - Born In The U.S.A..wav

Pre-gap length 0:00:04.37

Peak level 99.9 %
Track quality 100.0 %
Test CRC 986E2E57
Copy CRC 986E2E57
Copy OK

Track 16
Filename F:\Bruce Springsteen - Tracks (1998) [FLAC] {4 CD Box Set}\Disc 2 of 4\16 - Johnny Bye-Bye.wav

Pre-gap length 0:00:02.77

Peak level 99.9 %
Track quality 100.0 %
Test CRC 1682AFF0
Copy CRC 1682AFF0
Copy OK

Track 17
Filename F:\Bruce Springsteen - Tracks (1998) [FLAC] {4 CD Box Set}\Disc 2 of 4\17 - Shut Out The Light.wav

Pre-gap length 0:00:03.22

Peak level 86.1 %
Track quality 100.0 %
Test CRC 5F737210
Copy CRC 5F737210
Copy OK

No errors occured


End of status report

[CUETools log; Date: 06.04.2017 17:19:40; Version: 2.1.6]
HDCD: peak extend: none, transient filter: none, gain: none
[CTDB TOCID: SpgBmDbuUA2X67O0JtMhlgkL9zM-] found.
Track | CTDB Status
1 | (89/89) Accurately ripped
2 | (89/89) Accurately ripped
3 | (88/89) Accurately ripped
4 | (89/89) Accurately ripped
5 | (89/89) Accurately ripped
6 | (89/89) Accurately ripped
7 | (89/89) Accurately ripped
8 | (89/89) Accurately ripped
9 | (89/89) Accurately ripped
10 | (89/89) Accurately ripped
11 | (89/89) Accurately ripped
12 | (88/89) Accurately ripped
13 | (89/89) Accurately ripped
14 | (88/89) Accurately ripped
15 | (89/89) Accurately ripped
16 | (88/89) Accurately ripped
17 | (88/89) Accurately ripped
[AccurateRip ID: 0027fd93-01f9e61e-f80eba11] found.
Track [ CRC | V2 ] Status
01 [25e9b85e|7d695f37] (025+049/160) Accurately ripped
02 [11813b11|f97f4df2] (026+047/162) Accurately ripped
03 [41565b81|0207b8b8] (026+050/164) Accurately ripped
04 [08ae00b6|94e40951] (026+049/162) Accurately ripped
05 [b6e2b516|ed0c1f7b] (025+049/161) Accurately ripped
06 [b463d533|3a8f9abd] (025+049/162) Accurately ripped
07 [bc81f830|22480c2e] (026+049/162) Accurately ripped
08 [258923bc|63c66e54] (026+049/162) Accurately ripped
09 [739e711a|e4e2eb85] (026+049/162) Accurately ripped
10 [c86800e4|063d3fac] (026+048/160) Accurately ripped
11 [1f31bb58|3880bbb9] (026+048/159) Accurately ripped
12 [9a98a810|933860bf] (025+049/160) Accurately ripped
13 [8cb43ee2|80c1c41f] (026+049/161) Accurately ripped
14 [c8e0af3c|7d777752] (025+049/161) Accurately ripped
15 [c07bb712|968def15] (025+049/161) Accurately ripped
16 [878e5782|57633b82] (026+050/164) Accurately ripped
17 [5049e0fd|208ed4e4] (025+049/160) Accurately ripped
Offsetted by -1131:
01 [124ac225] (002/160) Accurately ripped
02 [f41138db] (002/162) Accurately ripped
03 [d402971e] (002/164) Accurately ripped
04 [e10f5d7e] (002/162) Accurately ripped
05 [43861f68] (002/161) Accurately ripped
06 [f2d0d2d5] (002/162) Accurately ripped
07 [50b3e9b8] (002/162) Accurately ripped
08 [e748d111] (002/162) Accurately ripped
09 [c7869433] (002/162) Accurately ripped
10 [49afd170] (002/160) Accurately ripped
11 [2aef7891] (002/159) Accurately ripped
12 [78e8e98e] (002/160) Accurately ripped
13 [66c49494] (002/161) Accurately ripped
14 [1675ea6c] (002/161) Accurately ripped
15 [535e5ac8] (002/161) Accurately ripped
16 [49d8ddf5] (002/164) Accurately ripped
17 [7374a61a] (002/160) Accurately ripped
Offsetted by -910:
01 [1cd1b549] (002/160) Accurately ripped
02 [20658086] (002/162) Accurately ripped
03 [8561afce] (002/164) Accurately ripped
04 [de608dea] (002/162) Accurately ripped
05 [08d75b1e] (002/161) Accurately ripped
06 [0392f2eb] (002/162) Accurately ripped
07 [68675b30] (002/162) Accurately ripped
08 [4920e853] (002/162) Accurately ripped
09 [aae15034] (002/162) Accurately ripped
10 [5f066a08] (002/160) Accurately ripped
11 [60ad13f0] (002/159) Accurately ripped
12 [ba21484a] (002/160) Accurately ripped
13 [af48a295] (002/161) Accurately ripped
14 [560a58d4] (002/161) Accurately ripped
15 [553741ad] (002/161) Accurately ripped
16 [d1998324] (002/164) Accurately ripped
17 [13cc42c3] (002/160) Accurately ripped
Offsetted by -739:
01 [a512b7ad] (004/160) Accurately ripped
02 [a7793166] (004/162) Accurately ripped
03 [c525803e] (004/164) Accurately ripped
04 [90af4c7b] (004/162) Accurately ripped
05 [f5c8e0f5] (004/161) Accurately ripped
06 [7132eddf] (004/162) Accurately ripped
07 [7a5dbf30] (004/162) Accurately ripped
08 [3d5764ff] (004/162) Accurately ripped
09 [ed21462f] (004/162) Accurately ripped
10 [740e6e0c] (004/160) Accurately ripped
11 [f23f07a3] (004/159) Accurately ripped
12 [87b5ba6f] (004/160) Accurately ripped
13 [8748fcc9] (004/161) Accurately ripped
14 [d0135df2] (004/161) Accurately ripped
15 [e73ce48a] (004/161) Accurately ripped
16 [0d39f0ad] (004/164) Accurately ripped
17 [1d696529] (004/160) Accurately ripped
Offsetted by -652:
01 [8959490e] (002/160) Accurately ripped
02 [c9b76300] (002/162) Accurately ripped
03 [6cd73f88] (002/164) Accurately ripped
04 [cf24ed68] (002/162) Accurately ripped
05 [4d6d201c] (002/161) Accurately ripped
06 [022679b3] (002/162) Accurately ripped
07 [d8c25bb4] (002/162) Accurately ripped
08 [5daf81eb] (002/162) Accurately ripped
09 [e12d3b10] (002/162) Accurately ripped
10 [5a29462c] (002/160) Accurately ripped
11 [e2264bc1] (002/159) Accurately ripped
12 [336920d9] (002/160) Accurately ripped
13 [e494713f] (002/161) Accurately ripped
14 [b64b8a87] (002/161) Accurately ripped
15 [eb347657] (002/161) Accurately ripped
16 [2f37cb0e] (002/164) Accurately ripped
17 [b440e5c3] (002/160) Accurately ripped
Offsetted by -570:
01 [7f62e762] (010/160) Accurately ripped
02 [8c635dff] (010/162) Accurately ripped
03 [dba397ea] (010/164) Accurately ripped
04 [94f54736] (010/162) Accurately ripped
05 [709d90e4] (010/161) Accurately ripped
06 [711b8436] (010/162) Accurately ripped
07 [7beab34e] (010/162) Accurately ripped
08 [0533b6d6] (010/162) Accurately ripped
09 [3deded8d] (010/162) Accurately ripped
10 [b03b6dfc] (010/160) Accurately ripped
11 [ae3fa2f6] (010/159) Accurately ripped
12 [04e37f94] (010/160) Accurately ripped
13 [441497ba] (009/161) Accurately ripped
14 [0d3f9d28] (010/161) Accurately ripped
15 [05b5f7c8] (010/161) Accurately ripped
16 [70c8f9ab] (010/164) Accurately ripped
17 [c5a2df3b] (010/160) Accurately ripped
Offsetted by -420:
01 [4e3c65cd] (003/160) Accurately ripped
02 [bcb98f99] (003/162) Accurately ripped
03 [1185f772] (003/164) Accurately ripped
04 [96f70fa1] (003/162) Accurately ripped
05 [2b9bfc0f] (003/161) Accurately ripped
06 [0500dbb9] (003/162) Accurately ripped
07 [c2e785a2] (003/162) Accurately ripped
08 [950a1d83] (003/162) Accurately ripped
09 [bb29586a] (003/162) Accurately ripped
10 [92d8d66a] (003/160) Accurately ripped
11 [36cdc4f3] (003/159) Accurately ripped
12 [72e33bb7] (004/160) Accurately ripped
13 [e697038f] (003/161) Accurately ripped
14 [114fa936] (003/161) Accurately ripped
15 [bc4e3744] (003/161) Accurately ripped
16 [e04bb12a] (002/164) Accurately ripped
17 [30d5b51d] (002/160) Accurately ripped
Offsetted by -287:
01 [58546eb4] (002/160) Accurately ripped
02 [89bacde1] (002/162) Accurately ripped
03 [b86c60bc] (002/164) Accurately ripped
04 [470c62fe] (002/162) Accurately ripped
05 [8b3612ad] (002/161) Accurately ripped
06 [a35289ab] (002/162) Accurately ripped
07 [5c3d441d] (002/162) Accurately ripped
08 [ee82b3b7] (002/162) Accurately ripped
09 [639171ff] (002/162) Accurately ripped
10 [15385b8f] (002/160) Accurately ripped
11 [c1046ca0] (002/159) Accurately ripped
12 [7d3abff6] (002/160) Accurately ripped
13 [db32e1d9] (002/161) Accurately ripped
14 [e210c8d2] (002/161) Accurately ripped
15 [cfdaf006] (002/161) Accurately ripped
16 [7080b7af] (002/164) Accurately ripped
17 [1662d3fc] (002/160) Accurately ripped
Offsetted by -253:
01 [9f842183] (002/160) Accurately ripped
02 [a680ce91] (002/162) Accurately ripped
03 [e7ced068] (002/164) Accurately ripped
04 [98c895dc] (002/162) Accurately ripped
05 [8a076bc1] (002/161) Accurately ripped
06 [c1062c4f] (002/162) Accurately ripped
07 [606fa51d] (002/162) Accurately ripped
08 [2586c62f] (002/162) Accurately ripped
09 [2b8a7d96] (002/162) Accurately ripped
10 [17bb2196] (002/160) Accurately ripped
11 [6ddfc99b] (002/159) Accurately ripped
12 [6a6c5e83] (002/160) Accurately ripped
13 [9a7a08bb] (002/161) Accurately ripped
14 [e44c6ada] (002/161) Accurately ripped
15 [a7e70cae] (002/161) Accurately ripped
16 [01d71936] (002/164) Accurately ripped
17 [cbd5c916] (002/160) Accurately ripped
Offsetted by -244:
01 [14c9cf97] (007/160) Accurately ripped
02 [8c6e1e1d] (007/162) Accurately ripped
03 [59963b2d] (007/164) Accurately ripped
04 [277c1024] (007/162) Accurately ripped
05 [d5b2da0a] (007/161) Accurately ripped
06 [0efeeced] (008/162) Accurately ripped
07 [76b4eac9] (007/162) Accurately ripped
08 [0abfaee6] (007/162) Accurately ripped
09 [609b9789] (007/162) Accurately ripped
10 [151cf401] (007/160) Accurately ripped
11 [688cfef6] (007/159) Accurately ripped
12 [083d87e9] (007/160) Accurately ripped
13 [cb1a497b] (007/161) Accurately ripped
14 [00abc08e] (007/161) Accurately ripped
15 [d689b2da] (007/161) Accurately ripped
16 [f481fc9b] (007/164) Accurately ripped
17 [31498a92] (007/160) Accurately ripped
Offsetted by -190:
01 [f89f93c3] (015/160) Accurately ripped
02 [ba65bc88] (016/162) Accurately ripped
03 [de02243e] (016/164) Accurately ripped
04 [9bd8335e] (016/162) Accurately ripped
05 [ae093a13] (016/161) Accurately ripped
06 [75abb934] (016/162) Accurately ripped
07 [50f330f7] (016/162) Accurately ripped
08 [9781d076] (016/162) Accurately ripped
09 [e7be2adc] (016/162) Accurately ripped
10 [4e688eff] (016/160) Accurately ripped
11 [51eb5658] (016/159) Accurately ripped
12 [f97d039e] (016/160) Accurately ripped
13 [52c40140] (016/161) Accurately ripped
14 [90c4871b] (015/161) Accurately ripped
15 [3f2074f7] (016/161) Accurately ripped
16 [33c0d83f] (016/164) Accurately ripped
17 [98f2194d] (016/160) Accurately ripped
Offsetted by -1237:
01 [25007e0e] (000/160) No match
02 [c1be8b27] (002/162) Accurately ripped
03 [775a01db] (000/164) No match
04 [0a23bf6b] (000/162) No match
05 [22061b51] (000/161) No match
06 [809a7d00] (000/162) No match
07 [74df7258] (000/162) No match
08 [71afda2a] (000/162) No match
09 [9390d278] (000/162) No match
10 [b5d19be1] (000/160) No match
11 [ff4ce7f7] (000/159) No match
12 [d2d0554b] (000/160) No match
13 [e22c6cbc] (000/161) No match
14 [8dec53cd] (002/161) Accurately ripped
15 [27ff0cbd] (000/161) No match
16 [2642bdd1] (002/164) Accurately ripped
17 [04efe4ad] (000/160) No match
Offsetted by -1160:
01 [96520122] (000/160) No match (V2 was not tested)
02 [c77ef8c9] (000/162) No match (V2 was not tested)
03 [9a0fbbc7] (000/164) No match (V2 was not tested)
04 [6e5be401] (000/162) No match (V2 was not tested)
05 [56e5435e] (000/161) No match (V2 was not tested)
06 [d8f30b8f] (000/162) No match (V2 was not tested)
07 [60da06cf] (000/162) No match (V2 was not tested)
08 [5188d8cf] (000/162) No match (V2 was not tested)
09 [37039b9e] (000/162) No match (V2 was not tested)
10 [9340bbfc] (000/160) No match (V2 was not tested)
11 [1f5a3e6e] (000/159) No match (V2 was not tested)
12 [63c58887] (000/160) No match (V2 was not tested)
13 [8554ab79] (000/161) No match (V2 was not tested)
14 [4b573555] (000/161) No match (V2 was not tested)
15 [21b267bd] (000/161) No match (V2 was not tested)
16 [10afdbb6] (000/164) No match (V2 was not tested)
17 [c788a792] (000/160) No match (V2 was not tested)
Offsetted by -667:
01 [5f6896b0] (000/160) No match (V2 was not tested)
02 [f124dfa5] (000/162) No match (V2 was not tested)
03 [800715ac] (000/164) No match (V2 was not tested)
04 [8424d900] (000/162) No match (V2 was not tested)
05 [9eb04875] (000/161) No match (V2 was not tested)
06 [f5dad0bc] (000/162) No match (V2 was not tested)
07 [d0a00042] (000/162) No match (V2 was not tested)
08 [330c6dc0] (000/162) No match (V2 was not tested)
09 [f008c113] (000/162) No match (V2 was not tested)
10 [818faf4b] (000/160) No match (V2 was not tested)
11 [4a76688a] (000/159) No match (V2 was not tested)
12 [01f5b4a4] (000/160) No match (V2 was not tested)
13 [53803fa6] (000/161) No match (V2 was not tested)
14 [fa9b24d6] (000/161) No match (V2 was not tested)
15 [ecb46cad] (000/161) No match (V2 was not tested)
16 [1137584f] (000/164) No match (V2 was not tested)
17 [cce70b9b] (000/160) No match (V2 was not tested)
Offsetted by -464:
01 [fed9afd7] (000/160) No match (V2 was not tested)
02 [f94b1002] (000/162) No match (V2 was not tested)
03 [ee5c4bc2] (000/164) No match (V2 was not tested)
04 [b33b6ab6] (000/162) No match (V2 was not tested)
05 [65cdb80e] (000/161) No match (V2 was not tested)
06 [7f123faa] (000/162) No match (V2 was not tested)
07 [d43fa9f2] (000/162) No match (V2 was not tested)
08 [b5b5ea29] (000/162) No match (V2 was not tested)
09 [e71e0adc] (000/162) No match (V2 was not tested)
10 [9dfa63c6] (000/160) No match (V2 was not tested)
11 [7d6f22b3] (000/159) No match (V2 was not tested)
12 [61d3ebb1] (000/160) No match (V2 was not tested)
13 [00f26c5b] (000/161) No match (V2 was not tested)
14 [c85f8c1c] (000/161) No match (V2 was not tested)
15 [08c8eafa] (000/161) No match (V2 was not tested)
16 [671963d5] (000/164) No match (V2 was not tested)
17 [421c8d54] (000/160) No match (V2 was not tested)

Track Peak [ CRC32 ] [W/O NULL] [ LOG ]
– 99,9 [5864E00D] [5798B64C]
01 98,6 [5A06056A] [30F38FEB] CRC32
02 99,9 [DAFB01CB] [052B965F] CRC32
03 99,9 [B408E99E] [0799590E] CRC32
04 99,9 [C8FBACAE] [064675E9] CRC32
05 99,2 [07FDA56F] [681CF049] CRC32
06 99,9 [77E1A1A6] [F6728BBF] CRC32
07 99,9 [A0E27174] [AF7F2A5A] CRC32
08 99,9 [4F193610] [5B35AB04] CRC32
09 99,7 [1C6A2DBE] [75817848] CRC32
10 99,7 [46506FA0] [0AB40527] CRC32
11 99,9 [C0EA056E] [8641BC0E] CRC32
12 99,9 [AF4066F4] [3F515991] CRC32
13 99,9 [DCB5C90C] [6F943C96] CRC32
14 99,9 [EFD8C65B] [4510E6DF] CRC32
15 99,9 [986E2E57] [84CD783C] CRC32
16 99,9 [1682AFF0] [917E36F3] CRC32
17 86,1 [5F737210] [D4C1F622] CRC32

foobar2000 1.2 / Dynamic Range Meter 1.1.1
log date: 2017-04-07 16:29:48

––––––––––––––––––––––––––––––––––––––––
Analyzed: Bruce Springsteen / Tracks (Disc 2)
––––––––––––––––––––––––––––––––––––––––

DR Peak RMS Duration Track
––––––––––––––––––––––––––––––––––––––––
DR9 -0.12 dB -10.21 dB 3:48 01-Restless Nights
DR11 0.00 dB -13.68 dB 3:18 02-A Good Man Is Hard To Find (Pittsburgh)
DR9 0.00 dB -10.24 dB 3:55 03-Roulette
DR10 0.00 dB -11.13 dB 3:35 04-Dollhouse
DR7 -0.07 dB -8.27 dB 3:46 05-Where The Bands Are
DR8 0.00 dB -9.51 dB 4:04 06-Loose Ends
DR9 0.00 dB -9.62 dB 4:19 07-Living On The Edge Of The World
DR9 0.00 dB -11.15 dB 4:54 08-Wages Of Sin
DR8 -0.03 dB -8.94 dB 4:31 09-Take 'Em As They Come
DR8 -0.02 dB -8.99 dB 3:42 10-Be True
DR10 0.00 dB -10.75 dB 2:47 11-Ricky Wants A Man Of Her Own
DR8 0.00 dB -9.45 dB 3:23 12-I Wanna Be With You
DR9 0.00 dB -10.10 dB 3:23 13-Mary Lou
DR10 0.00 dB -13.01 dB 4:31 14-Stolen Car
DR9 0.00 dB -11.56 dB 3:11 15-Born In The U.S.A.
DR9 0.00 dB -11.80 dB 1:53 16-Johnny Bye-Bye
DR13 -1.29 dB -16.60 dB 3:52 17-Shut Out The Light
––––––––––––––––––––––––––––––––––––––––

Number of tracks: 17
Official DR value: DR9

Samplerate: 44100 Hz
Channels: 2
Bits per sample: 16
Bitrate: 846 kbps
Codec: FLAC
================================================================================


EAC extraction logfile from 13. May 2007, 21:19 for CD
Bruce Springsteen / Tracks (Disc 3)

Used drive : SONY DVD-ROM DDU1615 Adapter: 1 ID: 1
Read mode : Secure with NO C2, accurate stream, disable cache
Read offset correction : 6
Overread into Lead-In and Lead-Out : No

Used output format : Internal WAV Routines
44.100 Hz; 16 Bit; Stereo

Other options :
Fill up missing offset samples with silence : Yes
Delete leading and trailing silent blocks : No
Installed external ASPI interface


Track 1
Filename F:\Bruce Springsteen - Tracks (1998) [FLAC] {4 CD Box Set}\Disc 3 of 4\01 - Cynthia.wav

Pre-gap length 0:00:02.00

Peak level 99.9 %
Track quality 100.0 %
Test CRC 4FDDEBFF
Copy CRC 4FDDEBFF
Copy OK

Track 2
Filename F:\Bruce Springsteen - Tracks (1998) [FLAC] {4 CD Box Set}\Disc 3 of 4\02 - My Love Will Not Let You Down.wav

Pre-gap length 0:00:01.86

Peak level 95.1 %
Track quality 99.9 %
Test CRC 6949D736
Copy CRC 6949D736
Copy OK

Track 3
Filename F:\Bruce Springsteen - Tracks (1998) [FLAC] {4 CD Box Set}\Disc 3 of 4\03 - This Hard Land.wav

Pre-gap length 0:00:02.60

Peak level 99.9 %
Track quality 100.0 %
Test CRC B0D5035A
Copy CRC B0D5035A
Copy OK

Track 4
Filename F:\Bruce Springsteen - Tracks (1998) [FLAC] {4 CD Box Set}\Disc 3 of 4\04 - Frankie.wav

Pre-gap length 0:00:03.46

Peak level 99.9 %
Track quality 99.9 %
Test CRC 4A357E36
Copy CRC 4A357E36
Copy OK

Track 5
Filename F:\Bruce Springsteen - Tracks (1998) [FLAC] {4 CD Box Set}\Disc 3 of 4\05 - TV Movie.wav

Pre-gap length 0:00:02.66

Peak level 99.7 %
Track quality 99.9 %
Test CRC BE9F04E5
Copy CRC BE9F04E5
Copy OK

Track 6
Filename F:\Bruce Springsteen - Tracks (1998) [FLAC] {4 CD Box Set}\Disc 3 of 4\06 - Stand On It.wav

Pre-gap length 0:00:01.20

Peak level 99.7 %
Track quality 100.0 %
Test CRC E8FD9DC4
Copy CRC E8FD9DC4
Copy OK

Track 7
Filename F:\Bruce Springsteen - Tracks (1998) [FLAC] {4 CD Box Set}\Disc 3 of 4\07 - Lion's Den.wav

Pre-gap length 0:00:01.06

Peak level 99.9 %
Track quality 100.0 %
Test CRC AF441638
Copy CRC AF441638
Copy OK

Track 8
Filename F:\Bruce Springsteen - Tracks (1998) [FLAC] {4 CD Box Set}\Disc 3 of 4\08 - Car Wash.wav

Pre-gap length 0:00:01.13

Peak level 99.9 %
Track quality 99.9 %
Test CRC 8BEF7B52
Copy CRC 8BEF7B52
Copy OK

Track 9
Filename F:\Bruce Springsteen - Tracks (1998) [FLAC] {4 CD Box Set}\Disc 3 of 4\09 - Rockaway The Days.wav

Pre-gap length 0:00:02.50

Peak level 99.9 %
Track quality 100.0 %
Test CRC CF8DD257
Copy CRC CF8DD257
Copy OK

Track 10
Filename F:\Bruce Springsteen - Tracks (1998) [FLAC] {4 CD Box Set}\Disc 3 of 4\10 - Brothers Under The Bridges ('83).wav

Pre-gap length 0:00:02.76

Peak level 99.9 %
Track quality 100.0 %
Test CRC 0AFC4279
Copy CRC 0AFC4279
Copy OK

Track 11
Filename F:\Bruce Springsteen - Tracks (1998) [FLAC] {4 CD Box Set}\Disc 3 of 4\11 - Man At The Top.wav

Pre-gap length 0:00:02.40

Peak level 99.9 %
Track quality 100.0 %
Test CRC 75AD0498
Copy CRC 75AD0498
Copy OK

Track 12
Filename F:\Bruce Springsteen - Tracks (1998) [FLAC] {4 CD Box Set}\Disc 3 of 4\12 - Pink Cadillac.wav

Pre-gap length 0:00:04.64

Peak level 99.9 %
Track quality 100.0 %
Test CRC 528CAD6B
Copy CRC 528CAD6B
Copy OK

Track 13
Filename F:\Bruce Springsteen - Tracks (1998) [FLAC] {4 CD Box Set}\Disc 3 of 4\13 - Two For The Road.wav

Pre-gap length 0:00:03.22

Peak level 84.7 %
Track quality 100.0 %
Test CRC 86220F22
Copy CRC 86220F22
Copy OK

Track 14
Filename F:\Bruce Springsteen - Tracks (1998) [FLAC] {4 CD Box Set}\Disc 3 of 4\14 - Janey Don't You Lose Heart.wav

Pre-gap length 0:00:02.56

Peak level 99.9 %
Track quality 99.9 %
Test CRC A167F993
Copy CRC A167F993
Copy OK

Track 15
Filename F:\Bruce Springsteen - Tracks (1998) [FLAC] {4 CD Box Set}\Disc 3 of 4\15 - When You Need Me.wav

Pre-gap length 0:00:03.60

Peak level 95.9 %
Track quality 100.0 %
Test CRC 3C5CF219
Copy CRC 3C5CF219
Copy OK

Track 16
Filename F:\Bruce Springsteen - Tracks (1998) [FLAC] {4 CD Box Set}\Disc 3 of 4\16 - The Wish.wav

Pre-gap length 0:00:02.93

Peak level 99.9 %
Track quality 99.9 %
Test CRC 2E3F96FB
Copy CRC 2E3F96FB
Copy OK

Track 17
Filename F:\Bruce Springsteen - Tracks (1998) [FLAC] {4 CD Box Set}\Disc 3 of 4\17 - The Honeymooners.wav

Pre-gap length 0:00:04.56

Peak level 91.8 %
Track quality 100.0 %
Test CRC 533A5444
Copy CRC 533A5444
Copy OK

Track 18
Filename F:\Bruce Springsteen - Tracks (1998) [FLAC] {4 CD Box Set}\Disc 3 of 4\18 - Lucky Man.wav

Pre-gap length 0:00:03.06

Peak level 99.9 %
Track quality 99.3 %
Test CRC DEB130FD
Copy CRC DEB130FD
Copy OK

No errors occured


End of status report

[CUETools log; Date: 06.04.2017 17:20:37; Version: 2.1.6]
HDCD: peak extend: some, transient filter: none, gain: none
[CTDB TOCID: Q_uPGrxrudg7nX1905zw4v1ZOPk-] found.
Track | CTDB Status
1 | (84/86) Accurately ripped
2 | (85/86) Accurately ripped
3 | (85/86) Accurately ripped
4 | (84/86) Accurately ripped
5 | (86/86) Accurately ripped
6 | (86/86) Accurately ripped
7 | (86/86) Accurately ripped
8 | (86/86) Accurately ripped
9 | (85/86) Accurately ripped
10 | (85/86) Accurately ripped
11 | (86/86) Accurately ripped
12 | (84/86) Accurately ripped
13 | (86/86) Accurately ripped
14 | (86/86) Accurately ripped
15 | (85/86) Accurately ripped
16 | (85/86) Accurately ripped
17 | (86/86) Accurately ripped
18 | (84/86) Accurately ripped
[AccurateRip ID: 002edac5-026426c9-050fd512] found.
Track [ CRC | V2 ] Status
01 [0f9989ef|599bc68f] (027+048/145) Accurately ripped
02 [dee1feca|3d4fc88c] (027+048/145) Accurately ripped
03 [cbb5f303|cba16e06] (027+049/147) Accurately ripped
04 [1f4a2938|231559b3] (026+049/146) Accurately ripped
05 [329cffc3|b08fab76] (026+049/146) Accurately ripped
06 [cd9dc51e|9ea17bbd] (027+049/149) Accurately ripped
07 [8047a55c|c2c44f0b] (027+049/146) Accurately ripped
08 [6a6cb801|4cd5c3d0] (028+049/149) Accurately ripped
09 [78a3097b|64ba58f3] (027+049/148) Accurately ripped
10 [d5ef9297|56160bb9] (027+049/148) Accurately ripped
11 [a504e0b2|36a05ba6] (027+049/148) Accurately ripped
12 [6bbfdd0e|6fcae480] (027+049/148) Accurately ripped
13 [c4efc24e|35f3610f] (027+049/147) Accurately ripped
14 [38083478|91e43a71] (025+049/145) Accurately ripped
15 [8eb92e11|df38d9f9] (026+049/146) Accurately ripped
16 [e717d617|3c6bf90d] (028+048/147) Accurately ripped
17 [caf64a60|6a96d11f] (028+049/148) Accurately ripped
18 [e041ee9d|b210faa9] (027+049/144) Accurately ripped
Offsetted by -525:
01 [7350981e] (002/145) Accurately ripped
02 [dc933c12] (002/145) Accurately ripped
03 [8807395e] (002/147) Accurately ripped
04 [d447af0f] (002/146) Accurately ripped
05 [245bba07] (002/146) Accurately ripped
06 [0110657e] (002/149) Accurately ripped
07 [35d7b0ca] (002/146) Accurately ripped
08 [1a67bd87] (002/149) Accurately ripped
09 [9e9fc2e9] (002/148) Accurately ripped
10 [7596c9d3] (002/148) Accurately ripped
11 [32c6a5bc] (002/148) Accurately ripped
12 [8baf596a] (002/148) Accurately ripped
13 [27deb8ff] (002/147) Accurately ripped
14 [b4c6e094] (002/145) Accurately ripped
15 [7c95bcbf] (002/146) Accurately ripped
16 [68da1a7c] (002/147) Accurately ripped
17 [e700f930] (002/148) Accurately ripped
18 [756777b1] (002/144) Accurately ripped
Offsetted by -282:
01 [e66343fe] (007/145) Accurately ripped
02 [f193032f] (007/145) Accurately ripped
03 [8de3bb44] (007/147) Accurately ripped
04 [325068d7] (007/146) Accurately ripped
05 [3c76c416] (006/146) Accurately ripped
06 [8c1630b6] (007/149) Accurately ripped
07 [6b5e28e8] (006/146) Accurately ripped
08 [3c031df1] (007/149) Accurately ripped
09 [a3f13e69] (007/148) Accurately ripped
10 [674c7117] (007/148) Accurately ripped
11 [27778eaa] (007/148) Accurately ripped
12 [99e2b8bb] (007/148) Accurately ripped
13 [4924ec18] (006/147) Accurately ripped
14 [5c6cf8af] (007/145) Accurately ripped
15 [898b8ad3] (006/146) Accurately ripped
16 [36abb8df] (007/147) Accurately ripped
17 [f0a0e0c0] (007/148) Accurately ripped
18 [d8abf36e] (005/144) Accurately ripped
Offsetted by -209:
01 [70a661c4] (002/145) Accurately ripped
02 [451d07c2] (002/145) Accurately ripped
03 [7b159b6f] (002/147) Accurately ripped
04 [4503c6c9] (002/146) Accurately ripped
05 [f61c6d6f] (002/146) Accurately ripped
06 [41adce05] (002/149) Accurately ripped
07 [74cc6835] (002/146) Accurately ripped
08 [ac81297d] (002/149) Accurately ripped
09 [bee73cd7] (002/148) Accurately ripped
10 [076f8b17] (002/148) Accurately ripped
11 [1c3ff3a5] (002/148) Accurately ripped
12 [6a51dcfa] (002/148) Accurately ripped
13 [9de21412] (002/147) Accurately ripped
14 [f6c64620] (002/145) Accurately ripped
15 [a26e25dd] (002/146) Accurately ripped
16 [38bf241f] (002/147) Accurately ripped
17 [2f94125a] (002/148) Accurately ripped
18 [8952e45b] (002/144) Accurately ripped
Offsetted by 145:
01 [9da240c4] (016/145) Accurately ripped
02 [45ddfef5] (016/145) Accurately ripped
03 [9c55d642] (016/147) Accurately ripped
04 [f58c3008] (016/146) Accurately ripped
05 [72d539d7] (017/146) Accurately ripped
06 [5c672334] (017/149) Accurately ripped
07 [e0c052a3] (017/146) Accurately ripped
08 [4eb7979f] (017/149) Accurately ripped
09 [c209c4fc] (017/148) Accurately ripped
10 [29afd978] (017/148) Accurately ripped
11 [7a93c0cf] (017/148) Accurately ripped
12 [0abce91b] (017/148) Accurately ripped
13 [671668e3] (017/147) Accurately ripped
14 [fe962d28] (016/145) Accurately ripped
15 [42628930] (017/146) Accurately ripped
16 [f3f1ad6d] (016/147) Accurately ripped
17 [c85e1c8a] (016/148) Accurately ripped
18 [93f2d5da] (016/144) Accurately ripped
Offsetted by 433:
01 [0139342f] (003/145) Accurately ripped
02 [c96cfe4a] (003/145) Accurately ripped
03 [2c821b40] (003/147) Accurately ripped
04 [c99ed0b5] (003/146) Accurately ripped
05 [6f17f7b9] (003/146) Accurately ripped
06 [24a8de91] (003/149) Accurately ripped
07 [46000e7e] (003/146) Accurately ripped
08 [634af63a] (003/149) Accurately ripped
09 [0e6996bd] (003/148) Accurately ripped
10 [a5b2a284] (003/148) Accurately ripped
11 [64d9fc10] (003/148) Accurately ripped
12 [2f58865b] (003/148) Accurately ripped
13 [080a8225] (003/147) Accurately ripped
14 [68bb281e] (003/145) Accurately ripped
15 [8f1c9400] (003/146) Accurately ripped
16 [1a20c8f1] (003/147) Accurately ripped
17 [0b154446] (003/148) Accurately ripped
18 [73fc9bf4] (003/144) Accurately ripped
Offsetted by 536:
01 [8ad8d7c7] (010/145) Accurately ripped
02 [f1526350] (010/145) Accurately ripped
03 [14c45f30] (011/147) Accurately ripped
04 [2a1dcec2] (011/146) Accurately ripped
05 [4ca4cb78] (011/146) Accurately ripped
06 [9c5c8160] (011/149) Accurately ripped
07 [d53aba4c] (010/146) Accurately ripped
08 [57babf58] (011/149) Accurately ripped
09 [a7ff9719] (011/148) Accurately ripped
10 [3f40db00] (011/148) Accurately ripped
11 [a3d341c1] (011/148) Accurately ripped
12 [340f6984] (010/148) Accurately ripped
13 [ec26bb50] (011/147) Accurately ripped
14 [e689ae29] (010/145) Accurately ripped
15 [1f8fa261] (011/146) Accurately ripped
16 [1a9f81cb] (011/147) Accurately ripped
17 [fdeab7d6] (011/148) Accurately ripped
18 [20fdf691] (011/144) Accurately ripped
Offsetted by -667:
01 [55d88f3a] (000/145) No match (V2 was not tested)
02 [eae75f31] (000/145) No match (V2 was not tested)
03 [879c36c9] (000/147) No match (V2 was not tested)
04 [401339d0] (000/146) No match (V2 was not tested)
05 [90257e51] (000/146) No match (V2 was not tested)
06 [45069e3b] (000/149) No match (V2 was not tested)
07 [b8a79bbd] (000/146) No match (V2 was not tested)
08 [71b980db] (000/149) No match (V2 was not tested)
09 [f6b3a686] (000/148) No match (V2 was not tested)
10 [73db9a8a] (000/148) No match (V2 was not tested)
11 [9b2ce554] (000/148) No match (V2 was not tested)
12 [eace4945] (000/148) No match (V2 was not tested)
13 [faac315b] (000/147) No match (V2 was not tested)
14 [61c6350e] (000/145) No match (V2 was not tested)
15 [ed526375] (000/146) No match (V2 was not tested)
16 [8e43776a] (000/147) No match (V2 was not tested)
17 [04d9ee6e] (000/148) No match (V2 was not tested)
18 [8a9fad73] (000/144) No match (V2 was not tested)

Track Peak [ CRC32 ] [W/O NULL] [ LOG ]
– 99,9 [D11F9E24] [BB65C7A4]
01 99,9 [4FDDEBFF] [17B7A52E] CRC32
02 95,1 [6949D736] [D8DE7F63] CRC32
03 99,9 [B0D5035A] [EDCD02D8] CRC32
04 99,9 [4A357E36] [21E83143] CRC32
05 99,7 [BE9F04E5] [C2A92930] CRC32
06 99,7 [E8FD9DC4] [124C441E] CRC32
07 99,9 [AF441638] [C89C56EF] CRC32
08 99,9 [8BEF7B52] [1D28C1ED] CRC32
09 99,9 [CF8DD257] [2F9BB3A5] CRC32
10 99,9 [0AFC4279] [34F0B9B0] CRC32
11 99,9 [75AD0498] [F6D2F1D4] CRC32
12 99,9 [528CAD6B] [F0E07E53] CRC32
13 84,7 [86220F22] [F1ED7B30] CRC32
14 99,9 [A167F993] [31E289D9] CRC32
15 95,9 [3C5CF219] [EFF9D026] CRC32
16 99,9 [2E3F96FB] [D4A27A88] CRC32
17 91,8 [533A5444] [410B71ED] CRC32
18 99,9 [DEB130FD] [D37DAE2F] CRC32

foobar2000 1.2 / Dynamic Range Meter 1.1.1
log date: 2017-04-07 16:30:16

––––––––––––––––––––––––––––––––––––––––
Analyzed: Bruce Springsteen / Tracks (Disc 3)
––––––––––––––––––––––––––––––––––––––––

DR Peak RMS Duration Track
––––––––––––––––––––––––––––––––––––––––
DR11 0.00 dB -12.39 dB 4:16 01-Cynthia
DR9 -0.43 dB -10.82 dB 4:27 02-My Love Will Not Let You Down
DR10 0.00 dB -11.54 dB 4:50 03-This Hard Land
DR10 0.00 dB -11.79 dB 7:25 04-Frankie
DR10 -0.02 dB -11.23 dB 2:46 05-TV Movie
DR10 -0.02 dB -10.65 dB 3:07 06-Stand On It
DR9 0.00 dB -10.34 dB 2:19 07-Lion's Den
DR9 0.00 dB -10.98 dB 2:09 08-Car Wash
DR10 0.00 dB -11.91 dB 4:43 09-Rockaway The Days
DR10 0.00 dB -10.73 dB 5:08 10-Brothers Under The Bridges ('83)
DR10 0.00 dB -11.26 dB 3:24 11-Man At The Top
DR9 0.00 dB -9.56 dB 3:37 12-Pink Cadillac
DR12 -1.44 dB -16.60 dB 2:00 13-Two For The Road
DR9 0.00 dB -10.70 dB 3:28 14-Janey Don't You Lose Heart
DR11 -0.36 dB -13.67 dB 2:58 15-When You Need Me
DR9 0.00 dB -11.42 dB 5:19 16-The Wish
DR12 -0.73 dB -16.28 dB 2:08 17-The Honeymooners
DR11 0.00 dB -13.08 dB 3:31 18-Lucky Man
––––––––––––––––––––––––––––––––––––––––

Number of tracks: 18
Official DR value: DR10

Samplerate: 44100 Hz
Channels: 2
Bits per sample: 16
Bitrate: 821 kbps
Codec: FLAC
================================================================================


EAC extraction logfile from 13. May 2007, 21:38 for CD
Bruce Springsteen / Tracks (Disc 4)

Used drive : SONY DVD-ROM DDU1615 Adapter: 1 ID: 1
Read mode : Secure with NO C2, accurate stream, disable cache
Read offset correction : 6
Overread into Lead-In and Lead-Out : No

Used output format : Internal WAV Routines
44.100 Hz; 16 Bit; Stereo

Other options :
Fill up missing offset samples with silence : Yes
Delete leading and trailing silent blocks : No
Installed external ASPI interface


Track 1
Filename F:\Bruce Springsteen - Tracks (1998) [FLAC] {4 CD Box Set}\Disc 4 of 4\01 - Leavin' Train.wav

Pre-gap length 0:00:02.00

Peak level 99.9 %
Track quality 100.0 %
Test CRC C3D21048
Copy CRC C3D21048
Copy OK

Track 2
Filename F:\Bruce Springsteen - Tracks (1998) [FLAC] {4 CD Box Set}\Disc 4 of 4\02 - Seven Angels.wav

Pre-gap length 0:00:02.10

Peak level 99.9 %
Track quality 100.0 %
Test CRC 037AFA80
Copy CRC 037AFA80
Copy OK

Track 3
Filename F:\Bruce Springsteen - Tracks (1998) [FLAC] {4 CD Box Set}\Disc 4 of 4\03 - Gave It A Name.wav

Pre-gap length 0:00:02.33

Peak level 99.9 %
Track quality 100.0 %
Test CRC EE4B23A4
Copy CRC EE4B23A4
Copy OK

Track 4
Filename F:\Bruce Springsteen - Tracks (1998) [FLAC] {4 CD Box Set}\Disc 4 of 4\04 - Sad Eyes.wav

Pre-gap length 0:00:04.04

Peak level 99.9 %
Track quality 100.0 %
Test CRC 625BF98C
Copy CRC 625BF98C
Copy OK

Track 5
Filename F:\Bruce Springsteen - Tracks (1998) [FLAC] {4 CD Box Set}\Disc 4 of 4\05 - My Lover Man.wav

Pre-gap length 0:00:02.33

Peak level 99.9 %
Track quality 100.0 %
Test CRC 5CFEADA4
Copy CRC 5CFEADA4
Copy OK

Track 6
Filename F:\Bruce Springsteen - Tracks (1998) [FLAC] {4 CD Box Set}\Disc 4 of 4\06 - Over The Rise.wav

Pre-gap length 0:00:03.22

Peak level 99.9 %
Track quality 99.9 %
Test CRC 1BDCB851
Copy CRC 1BDCB851
Copy OK

Track 7
Filename F:\Bruce Springsteen - Tracks (1998) [FLAC] {4 CD Box Set}\Disc 4 of 4\07 - When The Lights Go Out.wav

Pre-gap length 0:00:02.66

Peak level 99.9 %
Track quality 100.0 %
Test CRC 564547BB
Copy CRC 564547BB
Copy OK

Track 8
Filename F:\Bruce Springsteen - Tracks (1998) [FLAC] {4 CD Box Set}\Disc 4 of 4\08 - Loose Change.wav

Pre-gap length 0:00:02.73

Peak level 99.9 %
Track quality 100.0 %
Test CRC 0EEACB6D
Copy CRC 0EEACB6D
Copy OK

Track 9
Filename F:\Bruce Springsteen - Tracks (1998) [FLAC] {4 CD Box Set}\Disc 4 of 4\09 - Trouble In Paradise.wav

Pre-gap length 0:00:03.62

Peak level 99.9 %
Track quality 100.0 %
Test CRC F6575742
Copy CRC F6575742
Copy OK

Track 10
Filename F:\Bruce Springsteen - Tracks (1998) [FLAC] {4 CD Box Set}\Disc 4 of 4\10 - Happy.wav

Pre-gap length 0:00:05.60

Peak level 96.2 %
Track quality 100.0 %
Test CRC 11714978
Copy CRC 11714978
Copy OK

Track 11
Filename F:\Bruce Springsteen - Tracks (1998) [FLAC] {4 CD Box Set}\Disc 4 of 4\11 - Part Man, Part Monkey.wav

Pre-gap length 0:00:02.17

Peak level 99.9 %
Track quality 100.0 %
Test CRC 50E5F390
Copy CRC 50E5F390
Copy OK

Track 12
Filename F:\Bruce Springsteen - Tracks (1998) [FLAC] {4 CD Box Set}\Disc 4 of 4\12 - Goin' Cali.wav

Pre-gap length 0:00:02.29

Peak level 82.9 %
Track quality 100.0 %
Test CRC 74DDF611
Copy CRC 74DDF611
Copy OK

Track 13
Filename F:\Bruce Springsteen - Tracks (1998) [FLAC] {4 CD Box Set}\Disc 4 of 4\13 - Back In Your Arms.wav

Pre-gap length 0:00:04.90

Peak level 99.9 %
Track quality 100.0 %
Test CRC A5074427
Copy CRC A5074427
Copy OK

Track 14
Filename F:\Bruce Springsteen - Tracks (1998) [FLAC] {4 CD Box Set}\Disc 4 of 4\14 - Brothers Under The Bridge.wav

Pre-gap length 0:00:06.53

Peak level 99.9 %
Track quality 100.0 %
Test CRC 34F397DC
Copy CRC 34F397DC
Copy OK

No errors occured


End of status report

[CUETools log; Date: 06.04.2017 17:21:24; Version: 2.1.6]
HDCD: peak extend: some, transient filter: none, gain: none
[CTDB TOCID: JqTk614xzOvp_U2R1_6WMkZ5DiM-] found.
Track | CTDB Status
1 | (95/95) Accurately ripped
2 | (94/95) Accurately ripped
3 | (95/95) Accurately ripped
4 | (95/95) Accurately ripped
5 | (94/95) Accurately ripped
6 | (94/95) Accurately ripped
7 | (95/95) Accurately ripped
8 | (95/95) Accurately ripped
9 | (95/95) Accurately ripped
10 | (95/95) Accurately ripped
11 | (95/95) Accurately ripped
12 | (95/95) Accurately ripped
13 | (95/95) Accurately ripped
14 | (95/95) Accurately ripped
[AccurateRip ID: 001b05f7-01233358-e30cf60e] found.
Track [ CRC | V2 ] Status
01 [d4342c21|7380508b] (012+019/158) Accurately ripped
02 [08ee3044|f536f0fe] (012+020/159) Accurately ripped
03 [051a254a|7ce02904] (013+019/159) Accurately ripped
04 [77cddafe|2691215c] (013+019/155) Accurately ripped
05 [77af4476|fea10755] (013+019/158) Accurately ripped
06 [32ed08c8|dc8c5c2f] (013+019/160) Accurately ripped
07 [e6be66a6|2ceb09a3] (013+019/160) Accurately ripped
08 [f2a14ddc|6d7f6912] (013+019/160) Accurately ripped
09 [249ff918|53eb795f] (013+019/158) Accurately ripped
10 [ecaa77f6|ae0bf6a9] (014+019/159) Accurately ripped
11 [b1ba4920|6dc82d8c] (013+020/160) Accurately ripped
12 [ccd688dd|7e3338aa] (013+019/158) Accurately ripped
13 [2d41c964|94552a05] (014+019/159) Accurately ripped
14 [dccc62c6|7aa86dba] (013+019/155) Accurately ripped
Offsetted by -1358:
01 [3e84dc48] (024/158) Accurately ripped
02 [66d99192] (024/159) Accurately ripped
03 [f600953f] (024/159) Accurately ripped
04 [d94979a8] (024/155) Accurately ripped
05 [1d6a830b] (024/158) Accurately ripped
06 [c62ff0e5] (025/160) Accurately ripped
07 [fbb27405] (025/160) Accurately ripped
08 [1d776cea] (025/160) Accurately ripped
09 [ca7836e6] (025/158) Accurately ripped
10 [d77d0a79] (024/159) Accurately ripped
11 [1ab76822] (025/160) Accurately ripped
12 [6b670d33] (024/158) Accurately ripped
13 [f1a3d0f9] (024/159) Accurately ripped
14 [8268a9c1] (025/155) Accurately ripped
Offsetted by -1191:
01 [0a65e958] (006/158) Accurately ripped
02 [3e576c98] (006/159) Accurately ripped
03 [29a7a7b9] (006/159) Accurately ripped
04 [5e2398cc] (006/155) Accurately ripped
05 [20ff5a3b] (006/158) Accurately ripped
06 [096c795e] (006/160) Accurately ripped
07 [2452993e] (006/160) Accurately ripped
08 [82d6bc9b] (006/160) Accurately ripped
09 [e584f11c] (006/158) Accurately ripped
10 [4733c4c4] (006/159) Accurately ripped
11 [cd16851e] (006/160) Accurately ripped
12 [2da39b67] (006/158) Accurately ripped
13 [ea20fefb] (006/159) Accurately ripped
14 [d15b9133] (006/155) Accurately ripped
Offsetted by -926:
01 [0b075ac3] (007/158) Accurately ripped
02 [f70ad670] (007/159) Accurately ripped
03 [0419809d] (007/159) Accurately ripped
04 [a8654c58] (007/155) Accurately ripped
05 [0238a58d] (007/158) Accurately ripped
06 [0442f9b5] (007/160) Accurately ripped
07 [08491169] (007/160) Accurately ripped
08 [7975a23e] (007/160) Accurately ripped
09 [dbe0288b] (007/158) Accurately ripped
10 [33c9dee7] (007/159) Accurately ripped
11 [6d86d6db] (007/160) Accurately ripped
12 [cc4ea2a4] (007/158) Accurately ripped
13 [1c9e96fa] (007/159) Accurately ripped
14 [e4105f9a] (007/155) Accurately ripped
Offsetted by -358:
01 [05e809cc] (008/158) Accurately ripped
02 [6897b0fa] (008/159) Accurately ripped
03 [941d5913] (008/159) Accurately ripped
04 [e5dae9bc] (008/155) Accurately ripped
05 [d73c9e04] (008/158) Accurately ripped
06 [182e1ba6] (008/160) Accurately ripped
07 [ed74af16] (008/160) Accurately ripped
08 [9090fe0d] (008/160) Accurately ripped
09 [33df9735] (008/158) Accurately ripped
10 [fb956e27] (008/159) Accurately ripped
11 [283f3441] (008/160) Accurately ripped
12 [da55512d] (008/158) Accurately ripped
13 [d2e0ae5a] (008/159) Accurately ripped
14 [cce3aabc] (008/155) Accurately ripped
Offsetted by -127:
01 [c3248cc2] (004/158) Accurately ripped
02 [344610f9] (004/159) Accurately ripped
03 [3d32046a] (004/159) Accurately ripped
04 [8e5639c2] (004/155) Accurately ripped
05 [fd8ca65a] (004/158) Accurately ripped
06 [111afbde] (004/160) Accurately ripped
07 [5419bf77] (004/160) Accurately ripped
08 [60eadbc4] (004/160) Accurately ripped
09 [8566261b] (004/158) Accurately ripped
10 [dbb20d8e] (004/159) Accurately ripped
11 [e81478d1] (004/160) Accurately ripped
12 [69a0284d] (004/158) Accurately ripped
13 [30500bbc] (004/159) Accurately ripped
14 [03a3a0d1] (004/155) Accurately ripped
Offsetted by -18:
01 [7297ae08] (002/158) Accurately ripped
02 [dc6ff9ef] (002/159) Accurately ripped
03 [89fa0f5a] (002/159) Accurately ripped
04 [301d70b9] (002/155) Accurately ripped
05 [0001eb48] (002/158) Accurately ripped
06 [6914b358] (002/160) Accurately ripped
07 [d8f68e97] (002/160) Accurately ripped
08 [dbb2230a] (002/160) Accurately ripped
09 [30f0c87f] (002/158) Accurately ripped
10 [edb1ff04] (002/159) Accurately ripped
11 [f43f81c5] (002/160) Accurately ripped
12 [1291b377] (002/158) Accurately ripped
13 [88e5c12a] (002/159) Accurately ripped
14 [6940c1ea] (002/155) Accurately ripped
Offsetted by 46:
01 [8b0b13d3] (011/158) Accurately ripped
02 [4f6900af] (011/159) Accurately ripped
03 [661dc65f] (011/159) Accurately ripped
04 [493c0bf3] (010/155) Accurately ripped
05 [18d47cbb] (010/158) Accurately ripped
06 [225dc1dd] (011/160) Accurately ripped
07 [7903f48a] (011/160) Accurately ripped
08 [23454f0b] (011/160) Accurately ripped
09 [0da8ec73] (010/158) Accurately ripped
10 [7916c823] (011/159) Accurately ripped
11 [ee5c5c69] (009/160) Accurately ripped
12 [e3dc0c0f] (010/158) Accurately ripped
13 [20118905] (011/159) Accurately ripped
14 [409353ea] (010/155) Accurately ripped
Offsetted by -1027:
01 [bb8dd899] (000/158) No match (V2 was not tested)
02 [7199ca26] (000/159) No match (V2 was not tested)
03 [0ba6fa36] (000/159) No match (V2 was not tested)
04 [2e195674] (000/155) No match (V2 was not tested)
05 [3a581180] (000/158) No match (V2 was not tested)
06 [a2619503] (000/160) No match (V2 was not tested)
07 [8d86b6ed] (000/160) No match (V2 was not tested)
08 [97f0023e] (000/160) No match (V2 was not tested)
09 [36696bc7] (000/158) No match (V2 was not tested)
10 [876b18c7] (000/159) No match (V2 was not tested)
11 [23af76ee] (000/160) No match (V2 was not tested)
12 [a3b5b83c] (000/158) No match (V2 was not tested)
13 [f2633083] (000/159) No match (V2 was not tested)
14 [1aa072f4] (000/155) No match (V2 was not tested)
Offsetted by -523:
01 [4332989f] (002/158) Accurately ripped
02 [c46ce81d] (002/159) Accurately ripped
03 [4f346c87] (002/159) Accurately ripped
04 [4d8b94fc] (000/155) No match (V2 was not tested)
05 [fe7e5ee0] (002/158) Accurately ripped
06 [4031e114] (002/160) Accurately ripped
07 [99100f53] (002/160) Accurately ripped
08 [1cbb2fd4] (002/160) Accurately ripped
09 [712f8ba4] (002/158) Accurately ripped
10 [ba82e139] (002/159) Accurately ripped
11 [ecbe7952] (002/160) Accurately ripped
12 [03d8996e] (002/158) Accurately ripped
13 [ada221a9] (002/159) Accurately ripped
14 [00350d5e] (002/155) Accurately ripped
Offsetted by -215:
01 [d9c873fc] (000/158) No match (V2 was not tested)
02 [cfb93401] (000/159) No match (V2 was not tested)
03 [d94682ab] (000/159) No match (V2 was not tested)
04 [c03320e0] (000/155) No match (V2 was not tested)
05 [42bb397e] (000/158) No match (V2 was not tested)
06 [2800f6e5] (000/160) No match (V2 was not tested)
07 [aa53ede2] (000/160) No match (V2 was not tested)
08 [bc88a926] (000/160) No match (V2 was not tested)
09 [d3b7d786] (000/158) No match (V2 was not tested)
10 [f1fcfdf4] (000/159) No match (V2 was not tested)
11 [6323354d] (000/160) No match (V2 was not tested)
12 [178abf82] (000/158) No match (V2 was not tested)
13 [93f7dd05] (000/159) No match (V2 was not tested)
14 [5b363ea1] (000/155) No match (V2 was not tested)

Track Peak [ CRC32 ] [W/O NULL] [ LOG ]
– 99,9 [1B97D990] [46D1387F]
01 99,9 [C3D21048] [AE445EA7] CRC32
02 99,9 [037AFA80] [8ABA2849] CRC32
03 99,9 [EE4B23A4] [9D692139] CRC32
04 99,9 [625BF98C] [7D5E2C49] CRC32
05 99,9 [5CFEADA4] [1E1726DD] CRC32
06 99,9 [1BDCB851] [C282063A] CRC32
07 99,9 [564547BB] [84A517A2] CRC32
08 99,9 [0EEACB6D] [28D2558A] CRC32
09 99,9 [F6575742] [999EBB70] CRC32
10 96,2 [11714978] [421C1F37] CRC32
11 99,9 [50E5F390] [ED24EE74] CRC32
12 82,9 [74DDF611] [2AE25921] CRC32
13 99,9 [A5074427] [8727ED7A] CRC32
14 99,9 [34F397DC] [FA6DC485] CRC32

foobar2000 1.2 / Dynamic Range Meter 1.1.1
log date: 2017-04-07 16:30:36

––––––––––––––––––––––––––––––––––––––––
Analyzed: Bruce Springsteen / Tracks (Disc 4)
––––––––––––––––––––––––––––––––––––––––

DR Peak RMS Duration Track
––––––––––––––––––––––––––––––––––––––––
DR9 0.00 dB -10.58 dB 4:07 01-Leavin' Train
DR8 0.00 dB -9.75 dB 3:28 02-Seven Angels
DR11 0.00 dB -12.73 dB 2:52 03-Gave It A Name
DR10 0.00 dB -12.18 dB 3:50 04-Sad Eyes
DR8 0.00 dB -9.24 dB 4:00 05-My Lover Man
DR11 0.00 dB -12.69 dB 2:40 06-Over The Rise
DR11 0.00 dB -12.54 dB 3:08 07-When The Lights Go Out
DR9 0.00 dB -10.97 dB 4:22 08-Loose Change
DR9 0.00 dB -10.42 dB 4:43 09-Trouble In Paradise
DR8 -0.33 dB -11.21 dB 4:54 10-Happy
DR9 0.00 dB -10.45 dB 4:31 11-Part Man, Part Monkey
DR11 -1.62 dB -13.69 dB 3:04 12-Goin' Cali
DR8 0.00 dB -10.87 dB 4:43 13-Back In Your Arms
DR8 0.00 dB -11.21 dB 4:55 14-Brothers Under The Bridge
––––––––––––––––––––––––––––––––––––––––

Number of tracks: 14
Official DR value: DR9

Samplerate: 44100 Hz
Channels: 2
Bits per sample: 16
Bitrate: 759 kbps
Codec: FLAC
================================================================================

Bruce Springsteen - Tracks (1998) 4CD Box Set [Re-Up]

Bruce Springsteen - Tracks (1998) 4CD Box Set [Re-Up]

Bruce Springsteen - Tracks (1998) 4CD Box Set [Re-Up]

All thanks to original releaser

More interesting music in My Blog