Subcategories
Tags
Language
Tags

Camel - Rainbow's End: An Anthology 1973-1985 (2010) 4 CD Box Set [Re-Up]

Posted By: Designol
Camel - Rainbow's End: An Anthology 1973-1985 (2010) 4 CD Box Set [Re-Up]

Camel - Rainbow's End: An Anthology 1973-1985 (2010) 4 CD Box Set
EAC | WV | Image (Cue&Log) ~ 1.79 Gb | Mp3 (CBR320) ~ 697 Mb
Label: Decca/Universal | # 532 938-2 | Time: 05:04:09 | Scans ~ 380 Mb
Prog-Rock, Art Rock, Psychedelic Rock, Canterbury Scene, Space Rock

2010 four CD anthology from the British Progressive Rock band, the most comprehensive overview of their career, focusing on Camel's long association with Decca which yielded the group's best loved and most significant work. Rainbow's End features key album tracks from Camel, Mirage, The Snow Goose, Moonmadness, Rain Dances, Breathless, I Can See Your House From Here and Nude, plus rare studio and live recordings made for Decca Records and the BBC. Housed in a hard-back book package, the lavish booklet contains previously unseen photographs, memorabilia and essay by Mark Powell. One of Decca's later signings during the first `progressive' age which began in the late '60s, Camel would prove to be one of the label's most commercially successful bands and one of the most enduring. Unlike many of their contemporaries, Camel have survived over three decades in the music business and still command a loyal and devoted following throughout the world, both in concert and on record.

Largely the vision of keyboard player Peter Bardens and gifted guitarist Andrew Latimer, when Camel arrived on the scene in 1973 they kept things relatively straight with a progged-up West Coast rock, breezy guitar and keyboard solos over relatively untroubled but usually quite detailed backing.

Like others of their ilk, in concert they were up for showboating on an epic scale as evidenced by Homage to the God of Light. Doors-like organ extrapolation and what sounds like the more accessible parts of Pink Floyd’s Ummagumma are stretched across a 19-minute flight of fancy.

Their real breakthrough was their 1975 concept album Music Inspired by The Snow Goose – a suite of tunes as English as a clotted cream tea and in places just as sweet. The truly cohesive nature of the work is slightly undermined here, being sliced and diced in a compilation. Best to check out the album’s most recent reissue to get the full effect.

Perhaps the obvious weakness in some of their early albums is the lack of a convincing vocal that’s the equal of their instrumental technique. Whilst Latimer’s vocals have an agreeable wistfulness, Bardens handles task with all the grace of a bloke who’s been pushed in front of a microphone because nobody else wanted the job. From 1977‘s Rain Dances (where Brian Eno makes a surprise cameo appearance) through to 1978‘s Breathless, this problem is solved to some extent with the recruitment of ex-Caravan/Hatfield and the North bassist and singer, Richard Sinclair.

With ex-King Crimson sax player Mel Collins also along for the ride the sparks really fly; Collins and Latimer were quite a force to be reckoned with. The examples here, culled from the expanded reissue of 1978’s A Live Record, have Camel sounding closer to the knotted jazz-rock musculature of Bundles-era Soft Machine than their whimsical reveries of yore.
Personnel difficulties and record company demands for commercial product eventually hobbled a group whose principal strengths lay in melodic anthems, romantic flourishes and good old-fashioned musicianship. Aside from a few previously unreleased tracks from BBC sessions, long-term fans will know all this anyway. Those new to Camel, though, will find Rainbow’s End to be an excellent and worthy primer.

Sid Smith, BBC Music

Camel - Rainbow's End: An Anthology 1973-1985 (2010) 4 CD Box Set [Re-Up]






Camel - Rainbow's End: An Anthology 1973-1985 (2010) 4 CD Box Set [Re-Up]


CD1 (1:13:34)

01. Slow Yourself Down (4:48)
02. Never Let Go (6:23)
03. Curiosity (5:54)
04. Mystic Queen (5:39)
05. Nimrodel / The Procession / The White Rider (9:17)
06. Freefall (5:53)
07. Earthrise (6:41)
08. Lady Fantasy (Original Mix) (13:01)
09. Liggmg At Louis' (5:50)
10. Arabaluba (6:55)
11. Supertwister (3:14)

Exact Audio Copy V0.99 prebeta 5 from 4. May 2009

Отчёт EAC об извлечении, выполненном 19. ноября 2010, 0:32

Camel / Rainbow's End CD1

Дисковод: HL-DT-STDVDRAM GSA-H60N Adapter: 2 ID: 0

Режим чтения : Достоверность
Использование точного потока : Да
Отключение кэша аудио : Да
Использование указателей C2 : Нет

Коррекция смещения при чтении : 667
Способность читать области Lead-in и Lead-out : Нет
Заполнение пропущенных сэмплов тишиной : Да
Удаление блоков с тишиной в начале и конце : Нет
При вычислениях CRC использовались нулевые сэмплы : Да
Интерфейс : Встроенный Win32-интерфейс для Win NT/2000

Выходной формат : Внутренние WAV-операции
Формат сэмплов : 44.100 Гц; 16 бит; стерео


TOC извлечённого CD

Трек | Старт | Длительность | Начальный сектор | Конечный сектор
––––––––––––––––––––––––––––––––––-
1 | 0:00.00 | 4:47.70 | 0 | 21594
2 | 4:47.70 | 6:22.47 | 21595 | 50291
3 | 11:10.42 | 5:53.44 | 50292 | 76810
4 | 17:04.11 | 5:39.25 | 76811 | 102260
5 | 22:43.36 | 9:17.03 | 102261 | 144038
6 | 32:00.39 | 5:52.60 | 144039 | 170498
7 | 37:53.24 | 6:40.74 | 170499 | 200572
8 | 44:34.23 | 13:01.03 | 200573 | 259150
9 | 57:35.26 | 5:49.45 | 259151 | 285370
10 | 63:24.71 | 6:54.60 | 285371 | 316480
11 | 70:19.56 | 3:14.31 | 316481 | 331061


Характеристики диапазона извлечения и сообщения об ошибках

Выбранный диапазон

Имя файла C:\Documents and Settings\Администратор\Рабочий стол\Rip by ALLexxess\2010 Rainbow's End (4CD Box Set Decca Records)\CD1\Camel - Rainbow's End CD1.wav

Пиковый уровень 98.8 %
Качество диапазона 99.9 %
CRC теста 1DA7864F
CRC копии 1DA7864F
Копирование… OK

Ошибок не произошло


AccurateRip: сводка

Трек 1 нет в базе данных
Трек 2 нет в базе данных
Трек 3 нет в базе данных
Трек 4 нет в базе данных
Трек 5 нет в базе данных
Трек 6 нет в базе данных
Трек 7 нет в базе данных
Трек 8 нет в базе данных
Трек 9 нет в базе данных
Трек 10 нет в базе данных
Трек 11 нет в базе данных

Ни одного трека нет в базе AccurateRip

Конец отчёта

[CUETools log; Date: 17.11.2017 2:54:29; Version: 2.1.4]
[CTDB TOCID: bUiTqW8CGcKfDHRmy07yCy_EzyU-] found.
Track | CTDB Status
1 | (29/30) Accurately ripped
2 | (30/30) Accurately ripped
3 | (30/30) Accurately ripped
4 | (30/30) Accurately ripped
5 | (30/30) Accurately ripped
6 | (30/30) Accurately ripped
7 | (30/30) Accurately ripped
8 | (30/30) Accurately ripped
9 | (30/30) Accurately ripped
10 | (30/30) Accurately ripped
11 | (30/30) Accurately ripped
[AccurateRip ID: 001de0f7-010834d7-9c113e0b] found.
Track [ CRC | V2 ] Status
01 [3b16bd07|1b5e73fe] (08+25/33) Accurately ripped
02 [b864d76c|cc0efb73] (08+25/33) Accurately ripped
03 [b3841433|f2438b87] (08+25/33) Accurately ripped
04 [d93bd8e9|03b5e127] (08+25/33) Accurately ripped
05 [1629a860|99f5bd7a] (08+25/33) Accurately ripped
06 [c3c186f3|e49031ab] (08+25/33) Accurately ripped
07 [a1d30556|d8458ecd] (08+26/34) Accurately ripped
08 [6a64b08e|79b015ac] (08+25/33) Accurately ripped
09 [7ff3cfa4|e52cf69a] (08+26/34) Accurately ripped
10 [5e49c756|7893a71e] (08+26/34) Accurately ripped
11 [aed9872d|1b2750ba] (08+26/34) Accurately ripped

Track Peak [ CRC32 ] [W/O NULL] [ LOG ]
– 98,8 [1DA7864F] [9AC6DEB6] CRC32
01 98,8 [24B3066B] [B9DE0A81]
02 98,8 [D6F5CA1F] [126149E3]
03 98,8 [536A4720] [9784607A]
04 98,8 [ED7428B2] [81B5303B]
05 98,8 [99A0219D] [9A7F514C]
06 98,8 [FBEA3EDE] [DCAE60FD]
07 98,8 [68E5216A] [6A747EF9]
08 98,8 [DF778E78] [5ABFF381]
09 98,8 [22CDA0F3] [E8864219]
10 98,8 [53B87211] [5BE1DBB0]
11 98,8 [AF6766C7] [D1E3AEFC]

foobar2000 1.2 / Dynamic Range Meter 1.1.1
log date: 2017-11-17 02:27:25

––––––––––––––––––––––––––––––––––––––––
Analyzed: Camel / Rainbow's End CD1
––––––––––––––––––––––––––––––––––––––––

DR Peak RMS Duration Track
––––––––––––––––––––––––––––––––––––––––
DR10 -0.10 dB -12.75 dB 4:48 01-Slow Yourself Down
DR9 -0.10 dB -12.68 dB 6:23 02-Never Let Go
DR12 -0.10 dB -15.11 dB 5:54 03-Curiosity
DR12 -0.10 dB -15.67 dB 5:39 04-Mystic Queen
DR10 -0.10 dB -12.46 dB 9:17 05-Nimrodel / The Procession / The White Rider
DR11 -0.10 dB -12.65 dB 5:53 06-Freefall
DR9 -0.10 dB -11.02 dB 6:41 07-Earthrise
DR12 -0.10 dB -13.97 dB 13:01 08-Lady Fantasy (Original Mix)
DR14 -0.10 dB -16.62 dB 5:50 09-Liggmg At Louis'
DR11 -0.10 dB -13.35 dB 6:55 10-Arabaluba
DR12 -0.10 dB -14.36 dB 3:14 11-Supertwister
––––––––––––––––––––––––––––––––––––––––

Number of tracks: 11
Official DR value: DR11

Samplerate: 44100 Hz
Channels: 2
Bits per sample: 16
Bitrate: 877 kbps
Codec: WavPack
================================================================================




Camel - Rainbow's End: An Anthology 1973-1985 (2010) 4 CD Box Set [Re-Up]

CD2 (1:18:24)

01. Homage To The God Of Light (19:04)
02. The Great Marsh (2:03)
03. Rhayader (3:02)
04. Rhayader Goes To Town (5:22)
05. Preparation (4:11)
06. Dunkirk (5:30)
07. Aristillus (1:57)
08. A Song Within A Song (7:14)
09. Air Born (5:03)
10. Spirit Of The Water (2:06)
11. Chord Change (6:55)
12. Another Night (6:30)
13. First Light (4:59)
14. Elke (4:27)

Exact Audio Copy V0.99 prebeta 5 from 4. May 2009

Отчёт EAC об извлечении, выполненном 19. ноября 2010, 13:27

Camel / Rainbow's End CD2

Дисковод: HL-DT-STDVDRAM GSA-H60N Adapter: 2 ID: 0

Режим чтения : Достоверность
Использование точного потока : Да
Отключение кэша аудио : Да
Использование указателей C2 : Нет

Коррекция смещения при чтении : 667
Способность читать области Lead-in и Lead-out : Нет
Заполнение пропущенных сэмплов тишиной : Да
Удаление блоков с тишиной в начале и конце : Нет
При вычислениях CRC использовались нулевые сэмплы : Да
Интерфейс : Встроенный Win32-интерфейс для Win NT/2000

Выходной формат : Внутренние WAV-операции
Формат сэмплов : 44.100 Гц; 16 бит; стерео


TOC извлечённого CD

Трек | Старт | Длительность | Начальный сектор | Конечный сектор
––––––––––––––––––––––––––––––––––-
1 | 0:00.00 | 19:03.74 | 0 | 85798
2 | 19:03.74 | 2:02.56 | 85799 | 95004
3 | 21:06.55 | 3:02.00 | 95005 | 108654
4 | 24:08.55 | 5:22.19 | 108655 | 132823
5 | 29:30.74 | 4:10.58 | 132824 | 151631
6 | 33:41.57 | 5:30.24 | 151632 | 176405
7 | 39:12.06 | 1:57.16 | 176406 | 185196
8 | 41:09.22 | 7:14.31 | 185197 | 217777
9 | 48:23.53 | 5:03.08 | 217778 | 240510
10 | 53:26.61 | 2:05.72 | 240511 | 249957
11 | 55:32.58 | 6:55.11 | 249958 | 281093
12 | 62:27.69 | 6:30.02 | 281094 | 310345
13 | 68:57.71 | 4:59.13 | 310346 | 332783
14 | 73:57.09 | 4:26.60 | 332784 | 352793


Характеристики диапазона извлечения и сообщения об ошибках

Выбранный диапазон

Имя файла C:\Documents and Settings\Администратор\Рабочий стол\Rip by ALLexxess\2010 Rainbow's End (4CD Box Set Decca Records)\CD2\Camel - Rainbow's End CD2.wav

Пиковый уровень 98.8 %
Качество диапазона 100.0 %
CRC теста 5448BD5A
CRC копии 5448BD5A
Копирование… OK

Ошибок не произошло


AccurateRip: сводка

Трек 1 нет в базе данных
Трек 2 нет в базе данных
Трек 3 нет в базе данных
Трек 4 нет в базе данных
Трек 5 нет в базе данных
Трек 6 нет в базе данных
Трек 7 нет в базе данных
Трек 8 нет в базе данных
Трек 9 нет в базе данных
Трек 10 нет в базе данных
Трек 11 нет в базе данных
Трек 12 нет в базе данных
Трек 13 нет в базе данных
Трек 14 нет в базе данных

Ни одного трека нет в базе AccurateRip

Конец отчёта

[CUETools log; Date: 17.11.2017 2:55:37; Version: 2.1.4]
[CTDB TOCID: no4PQ9aLp7dyDu0MnrwoT_KGHGw-] found.
Track | CTDB Status
1 | (28/29) Accurately ripped
2 | (29/29) Accurately ripped
3 | (29/29) Accurately ripped
4 | (29/29) Accurately ripped
5 | (29/29) Accurately ripped
6 | (29/29) Accurately ripped
7 | (29/29) Accurately ripped
8 | (29/29) Accurately ripped
9 | (29/29) Accurately ripped
10 | (29/29) Accurately ripped
11 | (29/29) Accurately ripped
12 | (29/29) Accurately ripped
13 | (29/29) Accurately ripped
14 | (29/29) Accurately ripped
[AccurateRip ID: 002c914f-01c47ec6-c2125f0e] found.
Track [ CRC | V2 ] Status
01 [3c76b940|a323570d] (08+24/32) Accurately ripped
02 [5610fa50|b2d8a250] (08+24/32) Accurately ripped
03 [96cedf4c|ba634852] (08+25/33) Accurately ripped
04 [b695d3e2|4b2400e4] (08+25/33) Accurately ripped
05 [6327fc04|4c7ba25c] (08+26/34) Accurately ripped
06 [0cbc0953|ff233e86] (08+26/34) Accurately ripped
07 [989768a5|7110f56a] (08+24/32) Accurately ripped
08 [933769de|ccfd8688] (08+24/32) Accurately ripped
09 [c62a9b48|d2103569] (08+25/33) Accurately ripped
10 [4e9c30be|6cfe445f] (08+24/32) Accurately ripped
11 [c924e6e9|7ce5c322] (08+26/34) Accurately ripped
12 [b8c5984c|b9d1749b] (08+25/33) Accurately ripped
13 [ce114f3b|180481b6] (08+26/34) Accurately ripped
14 [cc865208|379a8973] (08+24/32) Accurately ripped

Track Peak [ CRC32 ] [W/O NULL] [ LOG ]
– 98,8 [5448BD5A] [ADE606B2] CRC32
01 98,8 [0B6CE427] [25BBF3ED]
02 98,8 [3F1150BE] [A4885752]
03 98,8 [DF2BB78C] [BE99757B]
04 98,8 [C7526351] [1D18AFE6]
05 43,7 [BE8D0D44] [465B087B]
06 98,8 [64A4A614] [65C41A46]
07 87,5 [69955FF9] [58DFF689]
08 97,1 [0A163E6A] [C3F3362E]
09 98,8 [4C3C08EB] [DEB063BF]
10 88,7 [53F0CF36] [BA4828D3]
11 98,8 [BB99176D] [A3A69940]
12 98,8 [9F99CC7A] [CDD10D3C]
13 97,1 [F91B8F49] [C3FA3374]
14 61,9 [CAE1F355] [3BCDF579]

foobar2000 1.2 / Dynamic Range Meter 1.1.1
log date: 2017-11-17 02:28:08

––––––––––––––––––––––––––––––––––––––––
Analyzed: Camel / Rainbow's End CD2
––––––––––––––––––––––––––––––––––––––––

DR Peak RMS Duration Track
––––––––––––––––––––––––––––––––––––––––
DR9 -0.10 dB -12.55 dB 19:04 01-Homage To The God Of Light
DR11 -0.10 dB -17.72 dB 2:03 02-The Great Marsh
DR9 -0.10 dB -11.05 dB 3:02 03-Rhayader
DR12 -0.10 dB -13.81 dB 5:22 04-Rhayader Goes To Town
DR13 -7.18 dB -23.92 dB 4:11 05-Preparation
DR10 -0.10 dB -12.82 dB 5:30 06-Dunkirk
DR9 -1.15 dB -11.24 dB 1:57 07-Aristillus
DR9 -0.25 dB -12.11 dB 7:14 08-A Song Within A Song
DR11 -0.10 dB -14.32 dB 5:03 09-Air Born
DR11 -1.04 dB -17.12 dB 2:06 10-Spirit Of The Water
DR11 -0.10 dB -13.09 dB 6:55 11-Chord Change
DR12 -0.10 dB -13.54 dB 6:30 12-Another Night
DR10 -0.25 dB -14.03 dB 4:59 13-First Light
DR9 -4.15 dB -17.10 dB 4:27 14-Elke
––––––––––––––––––––––––––––––––––––––––

Number of tracks: 14
Official DR value: DR10

Samplerate: 44100 Hz
Channels: 2
Bits per sample: 16
Bitrate: 807 kbps
Codec: WavPack
================================================================================




Camel - Rainbow's End: An Anthology 1973-1985 (2010) 4 CD Box Set [Re-Up]


CD3 (1:15:50)

01. Tell Me (4:09)
02. Metrognome (5:01)
03. Unevensong (5:36)
04. Lunar Sea (9:01)
05. Rain Dances (2:40)
06. Echoes (7:19)
07. Starlight Ride (3:19)
08. Breathless (4:18)
09. Rainbow's End (Single Version) (3:01)
10. Survival (1:13)
11. Hymn To Her (5:36)
12. Ice (10:13)
13. City Life (4:39)
14. Nude (0:23)
15. Drafted (4:22)
16. Lies (5:00)

Exact Audio Copy V0.99 prebeta 5 from 4. May 2009

Отчёт EAC об извлечении, выполненном 19. ноября 2010, 14:53

Camel / Rainbow's End CD3

Дисковод: HL-DT-STDVDRAM GSA-H60N Adapter: 2 ID: 0

Режим чтения : Достоверность
Использование точного потока : Да
Отключение кэша аудио : Да
Использование указателей C2 : Нет

Коррекция смещения при чтении : 667
Способность читать области Lead-in и Lead-out : Нет
Заполнение пропущенных сэмплов тишиной : Да
Удаление блоков с тишиной в начале и конце : Нет
При вычислениях CRC использовались нулевые сэмплы : Да
Интерфейс : Встроенный Win32-интерфейс для Win NT/2000

Выходной формат : Внутренние WAV-операции
Формат сэмплов : 44.100 Гц; 16 бит; стерео


TOC извлечённого CD

Трек | Старт | Длительность | Начальный сектор | Конечный сектор
––––––––––––––––––––––––––––––––––-
1 | 0:00.00 | 4:08.63 | 0 | 18662
2 | 4:08.63 | 5:01.04 | 18663 | 41241
3 | 9:09.67 | 5:35.56 | 41242 | 66422
4 | 14:45.48 | 9:01.08 | 66423 | 107005
5 | 23:46.56 | 2:39.43 | 107006 | 118973
6 | 26:26.24 | 7:18.55 | 118974 | 151878
7 | 33:45.04 | 3:18.68 | 151879 | 166796
8 | 37:03.72 | 4:18.14 | 166797 | 186160
9 | 41:22.11 | 3:00.48 | 186161 | 199708
10 | 44:22.59 | 1:13.16 | 199709 | 205199
11 | 45:36.00 | 5:36.28 | 205200 | 230427
12 | 51:12.28 | 10:12.52 | 230428 | 276379
13 | 61:25.05 | 4:39.28 | 276380 | 297332
14 | 66:04.33 | 0:22.72 | 297333 | 299054
15 | 66:27.30 | 4:22.19 | 299055 | 318723
16 | 70:49.49 | 4:59.71 | 318724 | 341219


Характеристики диапазона извлечения и сообщения об ошибках

Выбранный диапазон

Имя файла C:\Documents and Settings\Администратор\Рабочий стол\Rip by ALLexxess\2010 Rainbow's End (4CD Box Set Decca Records)\CD3\Camel - Rainbow's End CD3.wav

Пиковый уровень 98.8 %
Качество диапазона 99.9 %
CRC теста 1541EBCE
CRC копии 1541EBCE
Копирование… OK

Ошибок не произошло


AccurateRip: сводка

Трек 1 нет в базе данных
Трек 2 нет в базе данных
Трек 3 нет в базе данных
Трек 4 нет в базе данных
Трек 5 нет в базе данных
Трек 6 нет в базе данных
Трек 7 нет в базе данных
Трек 8 нет в базе данных
Трек 9 нет в базе данных
Трек 10 нет в базе данных
Трек 11 нет в базе данных
Трек 12 нет в базе данных
Трек 13 нет в базе данных
Трек 14 нет в базе данных
Трек 15 нет в базе данных
Трек 16 нет в базе данных

Ни одного трека нет в базе AccurateRip

Конец отчёта

[CUETools log; Date: 17.11.2017 2:56:41; Version: 2.1.4]
[CTDB TOCID: 20fD3zF.hY0IxgsXObMGeQ6tcoI-] found.
Track | CTDB Status
1 | (25/25) Accurately ripped
2 | (25/25) Accurately ripped
3 | (25/25) Accurately ripped
4 | (25/25) Accurately ripped
5 | (25/25) Accurately ripped
6 | (25/25) Accurately ripped
7 | (25/25) Accurately ripped
8 | (25/25) Accurately ripped
9 | (25/25) Accurately ripped
10 | (25/25) Accurately ripped
11 | (21/25) Accurately ripped
12 | (21/25) Accurately ripped
13 | (25/25) Accurately ripped
14 | (25/25) Accurately ripped
15 | (25/25) Accurately ripped
16 | (25/25) Accurately ripped
[AccurateRip ID: 002e292a-0223f08e-0611c510] found.
Track [ CRC | V2 ] Status
01 [9b0aa522|43d835a1] (08+25/33) Accurately ripped
02 [50e42875|69a2a2f8] (08+25/33) Accurately ripped
03 [2aa77f8b|48a6bd94] (08+25/33) Accurately ripped
04 [ee19529c|19e83149] (08+24/32) Accurately ripped
05 [96220e4b|37ad0cee] (08+25/33) Accurately ripped
06 [1dc78af5|ced35787] (08+25/33) Accurately ripped
07 [e8e2c2df|28bb413f] (08+26/34) Accurately ripped
08 [87ddb853|400f42c1] (08+26/34) Accurately ripped
09 [6e28f66b|84c88138] (08+26/34) Accurately ripped
10 [1b1a3371|f7e6c560] (08+25/33) Accurately ripped
11 [2a6d3f4f|9c6597d5] (08+22/30) Accurately ripped
12 [b483cab7|33113e4c] (08+22/30) Accurately ripped
13 [f0be3071|c7ccca46] (08+24/32) Accurately ripped
14 [14dc00fa|f66dbb3f] (08+24/32) Accurately ripped
15 [34f50959|4d262b1f] (08+25/33) Accurately ripped
16 [26020d4b|0241d5cf] (08+25/33) Accurately ripped

Track Peak [ CRC32 ] [W/O NULL] [ LOG ]
– 98,8 [1541EBCE] [CC701E13] CRC32
01 78,2 [4E66D87C] [6A60FF86]
02 98,8 [08D8DEC6] [FFD72BD5]
03 98,8 [10D5BA12] [CA14CF83]
04 98,8 [D0F5FD5A] [FB76E9FB]
05 98,8 [10D59865] [5EFE53D7]
06 96,0 [EC8AC5CE] [1F882F54]
07 80,0 [710F4669] [468BE041]
08 98,8 [A63D512E] [66A72EB5]
09 98,8 [B302FDBB] [6DCDE315]
10 61,8 [674675F3] [AE8921B6]
11 98,8 [E9D4622F] [DAA1FC33]
12 98,8 [52D18614] [1F5818F7]
13 98,8 [2081547E] [8E9D820A]
14 20,5 [77DFCD71] [26033933]
15 98,8 [D0BF010C] [F90CE98E]
16 98,8 [20E2CB03] [B0F2ADE9]

foobar2000 1.2 / Dynamic Range Meter 1.1.1
log date: 2017-11-17 02:28:56

––––––––––––––––––––––––––––––––––––––––
Analyzed: Camel / Rainbow's End CD3
––––––––––––––––––––––––––––––––––––––––

DR Peak RMS Duration Track
––––––––––––––––––––––––––––––––––––––––
DR10 -2.13 dB -15.69 dB 4:09 01-Tell Me
DR10 -0.10 dB -12.85 dB 5:01 02-Metrognome
DR10 -0.10 dB -12.76 dB 5:36 03-Unevensong
DR11 -0.10 dB -13.83 dB 9:01 04-Lunar Sea
DR11 -0.10 dB -15.47 dB 2:40 05-Rain Dances
DR10 -0.35 dB -12.25 dB 7:19 06-Echoes
DR12 -1.93 dB -16.49 dB 3:19 07-Starlight Ride
DR11 -0.10 dB -13.90 dB 4:18 08-Breathless
DR11 -0.10 dB -15.83 dB 3:01 09-Rainbow's End (Single Version)
DR10 -4.18 dB -17.39 dB 1:13 10-Survival
DR11 -0.10 dB -13.17 dB 5:36 11-Hymn To Her
DR11 -0.10 dB -15.13 dB 10:13 12-Ice
DR11 -0.10 dB -13.63 dB 4:39 13-City Life
DR8 -13.76 dB -31.67 dB 0:23 14-Nude
DR10 -0.10 dB -14.01 dB 4:22 15-Drafted
DR13 -0.10 dB -14.53 dB 5:00 16-Lies
––––––––––––––––––––––––––––––––––––––––

Number of tracks: 16
Official DR value: DR11

Samplerate: 44100 Hz
Channels: 2
Bits per sample: 16
Bitrate: 814 kbps
Codec: WavPack
================================================================================




Camel - Rainbow's End: An Anthology 1973-1985 (2010) 4 CD Box Set [Re-Up]


CD4 (1:16:21)

01. Docks (4:10)
02. Beached (3:35)
03. Captured (3:20)
04. Summer Lightning (5:37)
05. Sasquatch (4:43)
06. Heroes (4:49)
07. Selva (3:33)
08. A Heart's Desire (1:11)
09. End Piece (2:53)
10. In The Arms Of Waltzing Fraulines (2:19)
11. Cloak And Dagger Man (3:54)
12. Stationary Traveller (5:34)
13. Long Goodbyes (5:16)
14. Pressure Points (7:17)
15. West Berlin (5:18)
16. Fingertips (4:32)
17. Rhayader (2:28)
18. Rhayader Goes To Town (5:52)

Exact Audio Copy V0.99 prebeta 5 from 4. May 2009

Отчёт EAC об извлечении, выполненном 19. ноября 2010, 19:06

Camel / Rainbow's End CD4

Дисковод: HL-DT-STDVDRAM GSA-H60N Adapter: 2 ID: 0

Режим чтения : Достоверность
Использование точного потока : Да
Отключение кэша аудио : Да
Использование указателей C2 : Нет

Коррекция смещения при чтении : 667
Способность читать области Lead-in и Lead-out : Нет
Заполнение пропущенных сэмплов тишиной : Да
Удаление блоков с тишиной в начале и конце : Нет
При вычислениях CRC использовались нулевые сэмплы : Да
Интерфейс : Встроенный Win32-интерфейс для Win NT/2000

Выходной формат : Внутренние WAV-операции
Формат сэмплов : 44.100 Гц; 16 бит; стерео


TOC извлечённого CD

Трек | Старт | Длительность | Начальный сектор | Конечный сектор
––––––––––––––––––––––––––––––––––-
1 | 0:00.00 | 4:10.31 | 0 | 18780
2 | 4:10.31 | 3:35.28 | 18781 | 34933
3 | 7:45.59 | 3:20.29 | 34934 | 49962
4 | 11:06.13 | 5:36.62 | 49963 | 75224
5 | 16:43.00 | 4:43.25 | 75225 | 96474
6 | 21:26.25 | 4:49.04 | 96475 | 118153
7 | 26:15.29 | 3:33.02 | 118154 | 134130
8 | 29:48.31 | 1:10.65 | 134131 | 139445
9 | 30:59.21 | 2:52.42 | 139446 | 152387
10 | 33:51.63 | 2:18.50 | 152388 | 162787
11 | 36:10.38 | 3:53.70 | 162788 | 180332
12 | 40:04.33 | 5:34.05 | 180333 | 205387
13 | 45:38.38 | 5:16.21 | 205388 | 229108
14 | 50:54.59 | 7:17.03 | 229109 | 261886
15 | 58:11.62 | 5:17.57 | 261887 | 285718
16 | 63:29.44 | 4:31.66 | 285719 | 306109
17 | 68:01.35 | 2:28.16 | 306110 | 317225
18 | 70:29.51 | 5:51.60 | 317226 | 343610


Характеристики диапазона извлечения и сообщения об ошибках

Выбранный диапазон

Имя файла C:\Documents and Settings\Администратор\Рабочий стол\Rip by ALLexxess\2010 Rainbow's End (4CD Box Set Decca Records)\CD4\Camel - Rainbow's End CD4.wav

Пиковый уровень 98.8 %
Качество диапазона 100.0 %
CRC теста BF62E14B
CRC копии BF62E14B
Копирование… OK

Ошибок не произошло


AccurateRip: сводка

Трек 1 нет в базе данных
Трек 2 нет в базе данных
Трек 3 нет в базе данных
Трек 4 нет в базе данных
Трек 5 нет в базе данных
Трек 6 нет в базе данных
Трек 7 нет в базе данных
Трек 8 нет в базе данных
Трек 9 нет в базе данных
Трек 10 нет в базе данных
Трек 11 нет в базе данных
Трек 12 нет в базе данных
Трек 13 нет в базе данных
Трек 14 нет в базе данных
Трек 15 нет в базе данных
Трек 16 нет в базе данных
Трек 17 нет в базе данных
Трек 18 нет в базе данных

Ни одного трека нет в базе AccurateRip

Конец отчёта

[CUETools log; Date: 17.11.2017 2:57:47; Version: 2.1.4]
[CTDB TOCID: I.sjL9ou8.tSmBOleDWz.WWP5eg-] found.
Track | CTDB Status
1 | (29/29) Accurately ripped
2 | (29/29) Accurately ripped
3 | (29/29) Accurately ripped
4 | (29/29) Accurately ripped
5 | (29/29) Accurately ripped
6 | (29/29) Accurately ripped
7 | (29/29) Accurately ripped
8 | (29/29) Accurately ripped
9 | (29/29) Accurately ripped
10 | (29/29) Accurately ripped
11 | (29/29) Accurately ripped
12 | (29/29) Accurately ripped
13 | (29/29) Accurately ripped
14 | (29/29) Accurately ripped
15 | (29/29) Accurately ripped
16 | (29/29) Accurately ripped
17 | (29/29) Accurately ripped
18 | (26/29) Accurately ripped
[AccurateRip ID: 002f7af4-027d1112-f211e512] found.
Track [ CRC | V2 ] Status
01 [91fb141c|6cdf6bbc] (08+26/34) Accurately ripped
02 [2eaff888|9d04d48f] (08+24/32) Accurately ripped
03 [53601353|c1f1ed40] (08+25/33) Accurately ripped
04 [328bf959|924b253e] (08+25/33) Accurately ripped
05 [d2fa649a|5441b061] (08+26/34) Accurately ripped
06 [534e1ae5|40bc868a] (08+25/33) Accurately ripped
07 [840b1861|43890420] (08+26/34) Accurately ripped
08 [e489ba2b|c5081eae] (08+25/33) Accurately ripped
09 [c3a0f38a|57f74722] (08+25/33) Accurately ripped
10 [d0dc0a63|62b53085] (08+26/34) Accurately ripped
11 [461c3c86|f51b9cf9] (08+25/33) Accurately ripped
12 [aa9bbee4|6e3aedfb] (08+26/34) Accurately ripped
13 [5a332d24|6c46695f] (08+25/33) Accurately ripped
14 [d1e81826|c2e97a49] (08+25/33) Accurately ripped
15 [dbaa2e87|7fcbfa49] (08+25/33) Accurately ripped
16 [b8abe6ae|de0d16cf] (08+26/34) Accurately ripped
17 [a2979af7|a93f30b7] (08+26/34) Accurately ripped
18 [51c3038c|3397b8a6] (08+24/32) Accurately ripped

Track Peak [ CRC32 ] [W/O NULL] [ LOG ]
– 98,8 [BF62E14B] [A96D0963] CRC32
01 98,8 [899B803E] [B7609D32]
02 98,8 [1649C23B] [B49D4DD6]
03 98,8 [CE6ED590] [97CC1882]
04 98,8 [712DF584] [B30DC3CC]
05 98,8 [43A80DE5] [3FDF9A10]
06 98,8 [32A517FA] [C07C9A3F]
07 71,8 [25E06BC6] [044995A0]
08 60,8 [1A81D41D] [DD2E4555]
09 96,6 [25D471D3] [58B83776]
10 98,8 [DFD800FF] [503362DC]
11 98,8 [24A5EA86] [E69084A8]
12 98,8 [26DF04FF] [224280C4]
13 98,8 [E5C5D33A] [1C3C29AF]
14 98,8 [80FD43F0] [FD0B10A8]
15 98,8 [AD193138] [6C5DA57C]
16 98,8 [368EA07D] [9A037E50]
17 98,8 [DD0D4EB8] [A95CBA3E]
18 98,8 [4184577B] [227267E7]

foobar2000 1.2 / Dynamic Range Meter 1.1.1
log date: 2017-11-17 02:29:35

––––––––––––––––––––––––––––––––––––––––
Analyzed: Camel / Rainbow's End CD4
––––––––––––––––––––––––––––––––––––––––

DR Peak RMS Duration Track
––––––––––––––––––––––––––––––––––––––––
DR9 -0.10 dB -10.88 dB 4:10 01-Docks
DR9 -0.10 dB -10.89 dB 3:35 02-Beached
DR11 -0.10 dB -12.82 dB 3:20 03-Captured
DR10 -0.10 dB -11.40 dB 5:37 04-Summer Lightning
DR10 -0.10 dB -12.59 dB 4:43 05-Sasquatch
DR11 -0.10 dB -15.31 dB 4:49 06-Heroes
DR10 -2.88 dB -14.89 dB 3:33 07-Selva
DR9 -4.31 dB -18.04 dB 1:11 08-A Heart's Desire
DR9 -0.30 dB -13.58 dB 2:53 09-End Piece
DR10 -0.10 dB -13.38 dB 2:19 10-In The Arms Of Waltzing Fraulines
DR11 -0.10 dB -12.55 dB 3:54 11-Cloak And Dagger Man
DR12 -0.10 dB -16.07 dB 5:34 12-Stationary Traveller
DR12 -0.10 dB -14.49 dB 5:16 13-Long Goodbyes
DR10 -0.10 dB -14.29 dB 7:17 14-Pressure Points
DR11 -0.10 dB -13.78 dB 5:18 15-West Berlin
DR12 -0.10 dB -13.55 dB 4:32 16-Fingertips
DR9 -0.10 dB -10.83 dB 2:28 17-Rhayader
DR9 -0.10 dB -11.21 dB 5:52 18-Rhayader Goes To Town
––––––––––––––––––––––––––––––––––––––––

Number of tracks: 18
Official DR value: DR10

Samplerate: 44100 Hz
Channels: 2
Bits per sample: 16
Bitrate: 870 kbps
Codec: WavPack
================================================================================