Tags
Language
Tags

Captain Sensible - Albums Collection 1982-2003 (7CD)

Posted By: Designol
Captain Sensible - Albums Collection 1982-2003 (7CD)

Captain Sensible - Albums Collection 1982-2003 (7CD)
EAC | FLAC | Tracks (Cue&Log) ~ 3.1 Gb | Mp3 (CBR320) ~ 1.19 Gb | Scans included
New Wave, Punk Rock, Psychedelic Rock, Show Tune, Alternative | Time: 07:46:47

Raymond Ian Burns (born 24 April 1954), known by the stage name Captain Sensible, is an English singer, songwriter and guitarist. Sensible co-founded the punk rock band the Damned, originally playing bass before switching to guitar. He embarked on a solo career during the 1980s, following a UK number one hit with his cover of "Happy Talk". Sensible's distinctive appearance includes a red beret and sunglasses, typically with white frames.

Best known as a co-founder (with Chris Miller, aka Rat Scabies) of the punk band the Damned, Raymond Burns, aka Captain Sensible, is one of the most beguiling and talented individuals to emerge from the punk era. Ironically, he never sought a separate career from that of the Damned, but success with a series of singles, coupled with extended periods of inactivity by the band, made it a foregone conclusion that he would become a star in his own right. In the early '80s, Captain Sensible put together a group of his own called King, which lasted all of three months before breaking up. He later sang on the single "Jet Boy Jet Girl" and appeared on Johnny Moped's Cycledelic album. He was signed to A&M as a solo artist, and had a number one British hit with the old musical number "Happy Talk." He followed it up with an original, "Glad It's All Over," an antiwar song about the Falklands; for a time, he was also hooked up with Robyn Hitchcock. By this time, his status as a member of the Damned made him a regular topic of coverage in the British music press, and he became well-known for various beliefs, including devoted vegetarianism and an opposition to war, which he presented in bitingly satirical fashion.

Captain Sensible proved more charming than any other veteran of the punk scene. His 1985 vegetarian-oriented single "Wot! No Meat?" was a success, and over the years he also recorded a series of albums, The Power of Love (1983), Revolution Now (1989), and The Universe of Geoffrey Brown (1993), that were good sellers and critical favorites, though only in England – in an era in which the Damned were little more than a cult act on the other side of the Atlantic, Captain Sensible barely registered on anyone's radar screen in America. He and his band – Paul Gray on bass, Malcolm Dixon on organ and synthesizer, and Garrie Dreadful on drums – became famous for the reckless abandon and prodigious musicianship of their live shows, which were spiced by the Captain's savage wit. In 1994 he released Live at the Milky Way, the best album of his solo career and one of the finest live albums of the era, followed by Meathead in 1995 and Mad Cows & Englishmen in 1996. With his reputation secured in particular by Live at the Milky Way, Captain Sensible remained a fan favorite even while once again joining the ranks of the Damned in the 21st century, appearing on such Damned discs as 2001's Grave Disorder and 2008's So, Who's Paranoid?

Bruce Eder, Allmusic.com

Captain Sensible - Albums Collection 1982-2003 (7CD)





Captain Sensible - Albums Collection 1982-2003 (7CD)

Captain Sensible - Women And Captains First (1982) Japanese Remastered 2007
EAC | FLAC | Tracks (Cue&Log) ~ 442 Mb | Mp3 (CBR320) ~ 165 Mb | Scans included
Label: A&M, Universal Japan, K.K. | # UICY-93257 | Time: 01:01:48

Captain Sensible (aka Ray Burns) was always the biggest joker in the Damned, the brashest boys of the first wave of British punk, and when he launched his solo career in 1982, it seemed to many like a grand prank, with a punch line even the Good Captain never expected – his first album on his own, Women and Captains First, was a genuine hit, with his synth pop cover of Rodgers & Hammerstein's "Happy Talk" going all the way to number one on the U.K. singles charts. Sensible certainly isn't afraid to aim for a good laugh on Women and Captains First, but part of the idea behind the album was to show he could do more than just straightforward punk rock, and there's no arguing he succeeded. If the proto-rap of "Wot" and the domestic squalor of "A Nice Cup of Tea" are comic, they're also well-crafted pop tunes that deliver the goods, and two numbers written with Robyn Hitchcock, "Croydon" and "Brenda, Pts. 1 & 2," are smart and atmospheric with a faint psychedelic edge (and "Croydon" reveals a subtle but clear John Lennon influence). And if "Happy Talk" sounds a bit like the afterthought it was, the trad jazz arrangement of "Nobody's Sweetheart" is an effective bit of retro fun and Sensible carries off the vocal with élan. However, most of Women and Captains First is dominated by synthesizers, drum machines, and breathy female backing vocals, giving the album a slick and instantly recognizable '80s sound that has dated far worse than anything on Damned Damned Damned, and Sensible's often underappreciated guitar work sometimes gets lost in the mix. Women and Captains First confirms Captain Sensible was a talented entertainer, a better-than-average songwriter, and a capable singer with some unexpected tricks, but in retrospect, it's a shame he didn't get to produce the set as well and buff off a little excess polish.

Review by Mark Deming, Allmusic.com


Tracklist:

01. Wot (4:49)
02. A Nice Cup Of Tea (3:24)
03. Brenda (Part 1 & 2) (7:39)
04. Yanks With Guns (4:34)
05. Happy Talk (3:32)
06. Martha The Mouth (3:56)
07. Nobody's Sweetheart (3:22)
08. (What D'Ya Give) The Man Who's Gotten Everything (4:23)
09. Who Is Melody Lee, Sid? (1:56)
10. Gimme A Uniform (3:57)
11. Croydon (5:03)

Bonus Tracks:
12. Wot (12" Mix) (5:46)
13. Strawberry Dross (9:28)


Exact Audio Copy V0.99 prebeta 4 from 23. January 2008

EAC extraction logfile from 16. September 2008, 18:40

Captain Sensible / Women And Captains First (UICY-93257 Japan)

Used drive : PLEXTOR CD-R PX-W5224A Adapter: 1 ID: 1

Read mode : Secure
Utilize accurate stream : Yes
Defeat audio cache : Yes
Make use of C2 pointers : No

Read offset correction : 30
Overread into Lead-In and Lead-Out : Yes
Fill up missing offset samples with silence : Yes
Delete leading and trailing silent blocks : No
Null samples used in CRC calculations : Yes
Used interface : Installed external ASPI interface
Gap handling : Appended to previous track

Used output format : Internal WAV Routines
Sample format : 44.100 Hz; 16 Bit; Stereo


TOC of the extracted CD

Track | Start | Length | Start sector | End sector
––––––––––––––––––––––––––––-
1 | 0:00.00 | 4:48.54 | 0 | 21653
2 | 4:48.54 | 3:23.53 | 21654 | 36931
3 | 8:12.32 | 7:39.26 | 36932 | 71382
4 | 15:51.58 | 4:34.20 | 71383 | 91952
5 | 20:26.03 | 3:31.58 | 91953 | 107835
6 | 23:57.61 | 3:55.52 | 107836 | 125512
7 | 27:53.38 | 3:21.53 | 125513 | 140640
8 | 31:15.16 | 4:23.09 | 140641 | 160374
9 | 35:38.25 | 1:55.67 | 160375 | 169066
10 | 37:34.17 | 3:57.37 | 169067 | 186878
11 | 41:31.54 | 5:02.58 | 186879 | 209586
12 | 46:34.37 | 5:46.17 | 209587 | 235553
13 | 52:20.54 | 9:27.50 | 235554 | 278128


Track 1

Filename C:\DAE\Captain Sensible - Women And Captains First (UICY-93257)\01 Wot.wav

Pre-gap length 0:00:02.00

Peak level 99.8 %
Track quality 100.0 %
Test CRC 9BB79A67
Copy CRC 9BB79A67
Track not present in AccurateRip database
Copy OK

Track 2

Filename C:\DAE\Captain Sensible - Women And Captains First (UICY-93257)\02 A Nice Cup Of Tea.wav

Peak level 99.8 %
Track quality 100.0 %
Test CRC 7BA468BD
Copy CRC 7BA468BD
Track not present in AccurateRip database
Copy OK

Track 3

Filename C:\DAE\Captain Sensible - Women And Captains First (UICY-93257)\03 Brenda (Part 1 & 2).wav

Peak level 99.8 %
Track quality 100.0 %
Test CRC AFF6D972
Copy CRC AFF6D972
Track not present in AccurateRip database
Copy OK

Track 4

Filename C:\DAE\Captain Sensible - Women And Captains First (UICY-93257)\04 Yanks With Guns.wav

Peak level 99.8 %
Track quality 99.9 %
Test CRC D846617D
Copy CRC D846617D
Track not present in AccurateRip database
Copy OK

Track 5

Filename C:\DAE\Captain Sensible - Women And Captains First (UICY-93257)\05 Happy Talk.wav

Peak level 99.8 %
Track quality 100.0 %
Test CRC 9CF7320A
Copy CRC 9CF7320A
Track not present in AccurateRip database
Copy OK

Track 6

Filename C:\DAE\Captain Sensible - Women And Captains First (UICY-93257)\06 Martha The Mouth.wav

Pre-gap length 0:00:02.62

Peak level 99.8 %
Track quality 100.0 %
Test CRC 6C0176B2
Copy CRC 6C0176B2
Track not present in AccurateRip database
Copy OK

Track 7

Filename C:\DAE\Captain Sensible - Women And Captains First (UICY-93257)\07 Nobody's Sweetheart.wav

Pre-gap length 0:00:00.62

Peak level 99.8 %
Track quality 100.0 %
Test CRC A8460BFF
Copy CRC A8460BFF
Track not present in AccurateRip database
Copy OK

Track 8

Filename C:\DAE\Captain Sensible - Women And Captains First (UICY-93257)\08 (What D'Ya Give) The Man Who's Gotten Everything.wav

Pre-gap length 0:00:02.09

Peak level 99.8 %
Track quality 100.0 %
Test CRC E11B5F75
Copy CRC E11B5F75
Track not present in AccurateRip database
Copy OK

Track 9

Filename C:\DAE\Captain Sensible - Women And Captains First (UICY-93257)\09 Who Is Melody Lee, Sid.wav

Pre-gap length 0:00:01.10

Peak level 99.8 %
Track quality 99.9 %
Test CRC 7F46396B
Copy CRC 7F46396B
Track not present in AccurateRip database
Copy OK

Track 10

Filename C:\DAE\Captain Sensible - Women And Captains First (UICY-93257)\10 Gimme A Uniform.wav

Peak level 99.8 %
Track quality 100.0 %
Test CRC 6CC92622
Copy CRC 6CC92622
Track not present in AccurateRip database
Copy OK

Track 11

Filename C:\DAE\Captain Sensible - Women And Captains First (UICY-93257)\11 Croydon.wav

Peak level 99.8 %
Track quality 100.0 %
Test CRC 65781E44
Copy CRC 65781E44
Track not present in AccurateRip database
Copy OK

Track 12

Filename C:\DAE\Captain Sensible - Women And Captains First (UICY-93257)\12 Wot (12'' Mix).wav

Pre-gap length 0:00:02.62

Peak level 99.8 %
Track quality 100.0 %
Test CRC 51C4EF3C
Copy CRC 51C4EF3C
Track not present in AccurateRip database
Copy OK

Track 13

Filename C:\DAE\Captain Sensible - Women And Captains First (UICY-93257)\13 Strawberry Dross.wav

Pre-gap length 0:00:02.62

Peak level 99.8 %
Track quality 100.0 %
Test CRC C699AB6C
Copy CRC C699AB6C
Track not present in AccurateRip database
Copy OK


None of the tracks are present in the AccurateRip database

No errors occurred

End of status report

foobar2000 1.2 / Dynamic Range Meter 1.1.1
log date: 2020-02-16 04:30:27

––––––––––––––––––––––––––––––––––––––––
Analyzed: Captain Sensible / Women And Captains First (UICY-93257 Japan)
––––––––––––––––––––––––––––––––––––––––

DR Peak RMS Duration Track
––––––––––––––––––––––––––––––––––––––––
DR10 -0.01 dB -13.19 dB 4:49 01-Wot
DR10 -0.01 dB -12.99 dB 3:24 02-A Nice Cup Of Tea
DR9 -0.01 dB -10.82 dB 7:39 03-Brenda (Part 1 & 2)
DR8 -0.01 dB -10.02 dB 4:34 04-Yanks With Guns
DR9 -0.01 dB -11.32 dB 3:32 05-Happy Talk
DR7 -0.01 dB -8.96 dB 3:56 06-Martha The Mouth
DR7 -0.01 dB -8.80 dB 3:22 07-Nobody's Sweetheart
DR8 -0.01 dB -10.21 dB 4:23 08-(What D'Ya Give) The Man Who's Gotten Everything
DR12 -0.01 dB -13.64 dB 1:56 09-Who Is Melody Lee, Sid?
DR8 -0.01 dB -10.22 dB 3:57 10-Gimme A Uniform
DR9 -0.01 dB -12.47 dB 5:03 11-Croydon
DR8 -0.01 dB -10.54 dB 5:46 12-Wot (12" Mix)
DR8 -0.01 dB -10.50 dB 9:28 13-Strawberry Dross
––––––––––––––––––––––––––––––––––––––––

Number of tracks: 13
Official DR value: DR9

Samplerate: 44100 Hz
Channels: 2
Bits per sample: 16
Bitrate: 824 kbps
Codec: FLAC
================================================================================




Captain Sensible - Albums Collection 1982-2003 (7CD)

Captain Sensible - Power Of Love (1983) Japanese Remastered 2007
EAC | FLAC | Tracks (Cue&Log) ~ 401 Mb | Mp3 (CBR320) ~ 135 Mb | Scans included
Label: A&M, Universal Japan, K.K. | # UICY-93258 | Time: 00:49:28

When Captain Sensible's first solo album, 1982's Women and Captains First, became a major hit after his synth pop cover of "Happy Talk" went to number one on the singles charts, it validated his very real talents as a songwriter and multi-instrumentalist, while also suggesting that listeners were eager to accept that Sensible was more than just the cheerful loon from the Damned. This was both a good and a bad thing; Sensible certainly had the talent to do more than folks expected from him prior to Women and Captains First, but on his second solo effort, 1983's The Power of Love, the playful side that made many of his songs so appealing fell by the wayside, and instead the album was a straightforward and overly slick exercise in electro-processed pop that seems to be vying to play on the same level as the Human League or Duran Duran, with Tony Mansfield's production so slick and clean you could fry an egg on it. The supper-class twiticisms of "Royal Rave Up" are practically the only sign of the funny side of Captain Sensible, and while a few of the songs are quite good (especially three written in collaboration with Robyn Hitchcock), the most effective bit of whimsy comes from a cover of the Pink Floyd rarity "It Would Be So Nice." "Thanks for the Night" sounds like it was tailor-made for the Damned (it later popped up in their live repertoire), but the drum machine and bits of electronic detritus that dot the mix spoil what could have been a potent dose of rock & roll, and while dance beats dominate a number of these tracks, the cumulative effect falls somewhere between languid and simply lazy. Like his first solo set, The Power of Love made it clear Captain Sensible could do more than smash it up with the Damned, but it robs his music of much of its charm and personality along the way, doing no one involved any favors.

Review by Mark Deming, Allmusic.com


Tracklist:

01. I'm A Spider (4:14)
02. I Love Her (2:40)
03. Stop The World (4:36)
04. Sir Donald's Son (2:57)
05. It's Hard To Believe I'm Not (3:10)
06. Thanks For The Night (4:13)
07. Glad It's All Over (4:07)
08. Royal Rave Up (5:08)
09. Secrets (4:34)
10. It Would Be So Nice (3:42)
11. The Power Of Love (3:56)
12. I Love You (2:34)
13. There Are More Snakes Than Ladders (3:37)


Exact Audio Copy V0.99 prebeta 4 from 23. January 2008

EAC extraction logfile from 16. September 2008, 19:03

Captain Sensible / The Power Of Love (UICY-93258 Japan)

Used drive : PLEXTOR CD-R PX-W5224A Adapter: 1 ID: 1

Read mode : Secure
Utilize accurate stream : Yes
Defeat audio cache : Yes
Make use of C2 pointers : No

Read offset correction : 30
Overread into Lead-In and Lead-Out : Yes
Fill up missing offset samples with silence : Yes
Delete leading and trailing silent blocks : No
Null samples used in CRC calculations : Yes
Used interface : Installed external ASPI interface
Gap handling : Appended to previous track

Used output format : Internal WAV Routines
Sample format : 44.100 Hz; 16 Bit; Stereo


TOC of the extracted CD

Track | Start | Length | Start sector | End sector
––––––––––––––––––––––––––––-
1 | 0:00.00 | 4:14.25 | 0 | 19074
2 | 4:14.25 | 2:40.35 | 19075 | 31109
3 | 6:54.60 | 4:35.40 | 31110 | 51774
4 | 11:30.25 | 2:56.67 | 51775 | 65041
5 | 14:27.17 | 3:09.47 | 65042 | 79263
6 | 17:36.64 | 4:12.47 | 79264 | 98210
7 | 21:49.36 | 4:07.27 | 98211 | 116762
8 | 25:56.63 | 5:07.58 | 116763 | 139845
9 | 31:04.46 | 4:34.12 | 139846 | 160407
10 | 35:38.58 | 3:41.73 | 160408 | 177055
11 | 39:20.56 | 3:56.03 | 177056 | 194758
12 | 43:16.59 | 2:34.07 | 194759 | 206315
13 | 45:50.66 | 3:37.02 | 206316 | 222592


Track 1

Filename C:\DAE\Captain Sensible - The Power Of Love (UICY-93258)\01 I'm A Spider.wav

Pre-gap length 0:00:02.00

Peak level 99.8 %
Track quality 99.9 %
Test CRC 85AA2EAC
Copy CRC 85AA2EAC
Track not present in AccurateRip database
Copy OK

Track 2

Filename C:\DAE\Captain Sensible - The Power Of Love (UICY-93258)\02 I Love Her.wav

Pre-gap length 0:00:02.27

Peak level 99.8 %
Track quality 100.0 %
Test CRC 2BF78528
Copy CRC 2BF78528
Track not present in AccurateRip database
Copy OK

Track 3

Filename C:\DAE\Captain Sensible - The Power Of Love (UICY-93258)\03 Stop The World.wav

Pre-gap length 0:00:02.51

Peak level 99.8 %
Track quality 100.0 %
Test CRC FD95D3AF
Copy CRC FD95D3AF
Track not present in AccurateRip database
Copy OK

Track 4

Filename C:\DAE\Captain Sensible - The Power Of Love (UICY-93258)\04 Sir Donald's Son.wav

Pre-gap length 0:00:01.23

Peak level 99.8 %
Track quality 100.0 %
Test CRC E6130650
Copy CRC E6130650
Track not present in AccurateRip database
Copy OK

Track 5

Filename C:\DAE\Captain Sensible - The Power Of Love (UICY-93258)\05 It's Hard To Believe I'm Not.wav

Peak level 99.8 %
Track quality 100.0 %
Test CRC 806005DA
Copy CRC 806005DA
Track not present in AccurateRip database
Copy OK

Track 6

Filename C:\DAE\Captain Sensible - The Power Of Love (UICY-93258)\06 Thanks For The Night.wav

Peak level 99.8 %
Track quality 100.0 %
Test CRC 8E1A4600
Copy CRC 8E1A4600
Track not present in AccurateRip database
Copy OK

Track 7

Filename C:\DAE\Captain Sensible - The Power Of Love (UICY-93258)\07 Glad It's All Over.wav

Pre-gap length 0:00:01.61

Peak level 99.8 %
Track quality 99.9 %
Test CRC F0118071
Copy CRC F0118071
Track not present in AccurateRip database
Copy OK

Track 8

Filename C:\DAE\Captain Sensible - The Power Of Love (UICY-93258)\08 Royal Rave Up.wav

Pre-gap length 0:00:01.45

Peak level 99.8 %
Track quality 100.0 %
Test CRC 4E2512CF
Copy CRC 4E2512CF
Track not present in AccurateRip database
Copy OK

Track 9

Filename C:\DAE\Captain Sensible - The Power Of Love (UICY-93258)\09 Secrets.wav

Peak level 99.8 %
Track quality 100.0 %
Test CRC 78C8C82F
Copy CRC 78C8C82F
Track not present in AccurateRip database
Copy OK

Track 10

Filename C:\DAE\Captain Sensible - The Power Of Love (UICY-93258)\10 It Would Be So Nice.wav

Pre-gap length 0:00:00.64

Peak level 99.8 %
Track quality 100.0 %
Test CRC A5C3D36A
Copy CRC A5C3D36A
Track not present in AccurateRip database
Copy OK

Track 11

Filename C:\DAE\Captain Sensible - The Power Of Love (UICY-93258)\11 The Power Of Love.wav

Pre-gap length 0:00:02.31

Peak level 99.8 %
Track quality 100.0 %
Test CRC E8DFD07D
Copy CRC E8DFD07D
Track not present in AccurateRip database
Copy OK

Track 12

Filename C:\DAE\Captain Sensible - The Power Of Love (UICY-93258)\12 I Love You.wav

Pre-gap length 0:00:00.44

Peak level 99.8 %
Track quality 100.0 %
Test CRC 0D65BDE9
Copy CRC 0D65BDE9
Track not present in AccurateRip database
Copy OK

Track 13

Filename C:\DAE\Captain Sensible - The Power Of Love (UICY-93258)\13 There Are More Snakes Than Ladders.wav

Pre-gap length 0:00:00.62

Peak level 99.8 %
Track quality 100.0 %
Test CRC 77558F5B
Copy CRC 77558F5B
Track not present in AccurateRip database
Copy OK


None of the tracks are present in the AccurateRip database

No errors occurred

End of status report

foobar2000 1.2 / Dynamic Range Meter 1.1.1
log date: 2020-02-16 04:28:11

––––––––––––––––––––––––––––––––––––––––
Analyzed: Captain Sensible / The Power Of Love (UICY-93258 Japan)
––––––––––––––––––––––––––––––––––––––––

DR Peak RMS Duration Track
––––––––––––––––––––––––––––––––––––––––
DR7 -0.01 dB -7.86 dB 4:14 01-I'm A Spider
DR5 -0.01 dB -7.01 dB 2:40 02-I Love Her
DR6 -0.01 dB -6.96 dB 4:36 03-Stop The World
DR7 -0.01 dB -10.22 dB 2:57 04-Sir Donald's Son
DR6 -0.01 dB -7.34 dB 3:10 05-It's Hard To Believe I'm Not
DR6 -0.01 dB -7.01 dB 4:13 06-Thanks For The Night
DR7 -0.01 dB -8.61 dB 4:07 07-Glad It's All Over
DR7 -0.01 dB -7.80 dB 5:08 08-Royal Rave Up
DR6 -0.01 dB -6.97 dB 4:34 09-Secrets
DR9 -0.01 dB -10.90 dB 3:42 10-It Would Be So Nice
DR5 -0.01 dB -6.72 dB 3:56 11-The Power Of Love
DR7 -0.01 dB -9.91 dB 2:34 12-I Love You
DR6 -0.01 dB -7.52 dB 3:37 13-There Are More Snakes Than Ladders
––––––––––––––––––––––––––––––––––––––––

Number of tracks: 13
Official DR value: DR6

Samplerate: 44100 Hz
Channels: 2
Bits per sample: 16
Bitrate: 1012 kbps
Codec: FLAC
================================================================================




Captain Sensible - Albums Collection 1982-2003 (7CD)

Captain Sensible - Revolution Now (1989)
EAC | FLAC | Tracks (Cue&Log) ~ 512 Mb | Mp3 (CBR320) ~ 186 Mb | Scans included
Label: Humbug (Trident Music Intl.) | # BAH 3 | Time: 01:16:15

Captain Sensible has repeatedly demonstrated that he's not interested in confining himself to easy categories in his solo work. For many performers, this ambition would be considered a virtue. But when your songs and talent aren't particularly distinguished, the result sounds more irritatingly confusing than impressive. The Captain plays '80s British dance rock, neo-psychedelia, and White-boy soul, sometimes in the same song; he links many of his tracks with sound bites of an experimental nature. If he just settled down into neo-psychedelia (his strongest suit), this would sound better; the frequent chilly synthesizers are especially bothersome. There are some nice bits of melody here and there, but you get the uneasy feeling that eclecticism is being used as a cover for the lack of killer material or a compelling lyrical thread.

Review by Richie Unterberger, Allmusic.com


Tracklist:

01. Missing The Boat (4:31)
02. Smash It Up (Pt.4) (3:25)
03. The Toys Take Over (3:45)
04. S.2. (2:41)
05. A Riot On Eastbourne Pier (4:35)
06. Wake Up (You're Only Dreaming) (6:24)
07. Green Light (4:50)
08. Lib 2/3 (2:50)
09. Revolution Now (5:10)
10. Phone-In (3:48)
11. I Get So Excited (4:47)
12. Vosene (3:04)
13. The Kamikaze Millionaire (6:57)
14. Exploding Heads And Teapots (Past Their Prime) (4:05)
15. The Coward Of Treason Cove (15:21)


Exact Audio Copy V0.99 prebeta 4 from 23. January 2008

EAC extraction logfile from 19. September 2008, 10:39

Captain Sensible / Revolution Now

Used drive : PLEXTOR CD-R PX-W5224A Adapter: 1 ID: 1

Read mode : Secure
Utilize accurate stream : Yes
Defeat audio cache : Yes
Make use of C2 pointers : No

Read offset correction : 30
Overread into Lead-In and Lead-Out : Yes
Fill up missing offset samples with silence : Yes
Delete leading and trailing silent blocks : No
Null samples used in CRC calculations : Yes
Used interface : Installed external ASPI interface
Gap handling : Appended to previous track

Used output format : Internal WAV Routines
Sample format : 44.100 Hz; 16 Bit; Stereo


TOC of the extracted CD

Track | Start | Length | Start sector | End sector
––––––––––––––––––––––––––––-
1 | 0:00.00 | 4:31.32 | 0 | 20356
2 | 4:31.32 | 3:25.00 | 20357 | 35731
3 | 7:56.32 | 3:44.70 | 35732 | 52601
4 | 11:41.27 | 2:41.08 | 52602 | 64684
5 | 14:22.35 | 4:35.12 | 64685 | 85321
6 | 18:57.47 | 6:23.68 | 85322 | 114114
7 | 25:21.40 | 4:50.00 | 114115 | 135864
8 | 30:11.40 | 2:50.35 | 135865 | 148649
9 | 33:02.00 | 5:10.25 | 148650 | 171924
10 | 38:12.25 | 3:48.10 | 171925 | 189034
11 | 42:00.35 | 4:46.57 | 189035 | 210541
12 | 46:47.17 | 3:04.28 | 210542 | 224369
13 | 49:51.45 | 6:57.05 | 224370 | 255649
14 | 56:48.50 | 4:05.15 | 255650 | 274039
15 | 60:53.65 | 15:21.10 | 274040 | 343124


Track 1

Filename C:\DAE\Captain Sensible - Revolution Now (BAH 3)\01 Missing The Boat.wav

Pre-gap length 0:00:02.00

Peak level 99.3 %
Track quality 100.0 %
Test CRC 16A3E0CD
Copy CRC 16A3E0CD
Track not present in AccurateRip database
Copy OK

Track 2

Filename C:\DAE\Captain Sensible - Revolution Now (BAH 3)\02 Smash It Up (Pt.4).wav

Peak level 99.3 %
Track quality 100.0 %
Test CRC E5EE73DC
Copy CRC E5EE73DC
Track not present in AccurateRip database
Copy OK

Track 3

Filename C:\DAE\Captain Sensible - Revolution Now (BAH 3)\03 The Toys Take Over.wav

Peak level 99.3 %
Track quality 100.0 %
Test CRC F681D0AA
Copy CRC F681D0AA
Track not present in AccurateRip database
Copy OK

Track 4

Filename C:\DAE\Captain Sensible - Revolution Now (BAH 3)\04 S.2..wav

Peak level 92.6 %
Track quality 100.0 %
Test CRC DA5DFE2B
Copy CRC DA5DFE2B
Track not present in AccurateRip database
Copy OK

Track 5

Filename C:\DAE\Captain Sensible - Revolution Now (BAH 3)\05 A Riot On Eastbourne Pier.wav

Peak level 99.0 %
Track quality 100.0 %
Test CRC 8D41B51A
Copy CRC 8D41B51A
Track not present in AccurateRip database
Copy OK

Track 6

Filename C:\DAE\Captain Sensible - Revolution Now (BAH 3)\06 Wake Up (You're Only Dreaming).wav

Peak level 99.3 %
Track quality 100.0 %
Test CRC 778E723A
Copy CRC 778E723A
Track not present in AccurateRip database
Copy OK

Track 7

Filename C:\DAE\Captain Sensible - Revolution Now (BAH 3)\07 Green Light.wav

Peak level 99.3 %
Track quality 100.0 %
Test CRC BE97032E
Copy CRC BE97032E
Track not present in AccurateRip database
Copy OK

Track 8

Filename C:\DAE\Captain Sensible - Revolution Now (BAH 3)\08 Lib 2-3.wav

Peak level 73.6 %
Track quality 100.0 %
Test CRC DDB61AFE
Copy CRC DDB61AFE
Track not present in AccurateRip database
Copy OK

Track 9

Filename C:\DAE\Captain Sensible - Revolution Now (BAH 3)\09 Revolution Now.wav

Peak level 99.3 %
Track quality 100.0 %
Test CRC 85807571
Copy CRC 85807571
Track not present in AccurateRip database
Copy OK

Track 10

Filename C:\DAE\Captain Sensible - Revolution Now (BAH 3)\10 Phone-In.wav

Peak level 99.3 %
Track quality 99.9 %
Test CRC A84ED47D
Copy CRC A84ED47D
Track not present in AccurateRip database
Copy OK

Track 11

Filename C:\DAE\Captain Sensible - Revolution Now (BAH 3)\11 I Get So Excited.wav

Peak level 90.7 %
Track quality 100.0 %
Test CRC B20AA136
Copy CRC B20AA136
Track not present in AccurateRip database
Copy OK

Track 12

Filename C:\DAE\Captain Sensible - Revolution Now (BAH 3)\12 Vosene.wav

Peak level 89.8 %
Track quality 100.0 %
Test CRC 721E3A19
Copy CRC 721E3A19
Track not present in AccurateRip database
Copy OK

Track 13

Filename C:\DAE\Captain Sensible - Revolution Now (BAH 3)\13 The Kamikaze Millionaire.wav

Peak level 93.1 %
Track quality 99.9 %
Test CRC 08B4DB3A
Copy CRC 08B4DB3A
Track not present in AccurateRip database
Copy OK

Track 14

Filename C:\DAE\Captain Sensible - Revolution Now (BAH 3)\14 Exploding Heads And Teapots (Past Their Prime).wav

Peak level 92.5 %
Track quality 100.0 %
Test CRC 0485399F
Copy CRC 0485399F
Track not present in AccurateRip database
Copy OK

Track 15

Filename C:\DAE\Captain Sensible - Revolution Now (BAH 3)\15 The Coward Of Treason Cove.wav

Peak level 83.7 %
Track quality 99.9 %
Test CRC AD148A2B
Copy CRC AD148A2B
Track not present in AccurateRip database
Copy OK


None of the tracks are present in the AccurateRip database

No errors occurred

End of status report

foobar2000 1.2 / Dynamic Range Meter 1.1.1
log date: 2020-02-16 04:27:39

––––––––––––––––––––––––––––––––––––––––
Analyzed: Captain Sensible / Revolution Now
––––––––––––––––––––––––––––––––––––––––

DR Peak RMS Duration Track
––––––––––––––––––––––––––––––––––––––––
DR13 -0.06 dB -14.95 dB 4:31 01-Missing The Boat
DR9 -0.06 dB -10.93 dB 3:25 02-Smash It Up (Pt.4)
DR10 -0.06 dB -13.06 dB 3:45 03-The Toys Take Over
DR9 -0.66 dB -12.26 dB 2:41 04-S.2.
DR10 -0.08 dB -12.42 dB 4:35 05-A Riot On Eastbourne Pier
DR11 -0.06 dB -13.84 dB 6:24 06-Wake Up (You're Only Dreaming)
DR13 -0.06 dB -14.60 dB 4:50 07-Green Light
DR12 -2.65 dB -17.22 dB 2:50 08-Lib 2/3
DR10 -0.06 dB -12.71 dB 5:10 09-Revolution Now
DR9 -0.06 dB -11.97 dB 3:48 10-Phone-In
DR9 -0.84 dB -11.87 dB 4:47 11-I Get So Excited
DR10 -0.93 dB -15.35 dB 3:04 12-Vosene
DR9 -0.61 dB -12.10 dB 6:57 13-The Kamikaze Millionaire
DR9 -0.67 dB -11.81 dB 4:05 14-Exploding Heads And Teapots (Past Their Prime)
DR9 -1.55 dB -12.87 dB 15:21 15-The Coward Of Treason Cove
––––––––––––––––––––––––––––––––––––––––

Number of tracks: 15
Official DR value: DR10

Samplerate: 44100 Hz
Channels: 2
Bits per sample: 16
Bitrate: 843 kbps
Codec: FLAC
================================================================================




Captain Sensible - Albums Collection 1982-2003 (7CD)

Captain Sensible - The Universe Of Geoffrey Brown (1993)
EAC | FLAC | Tracks (Cue&Log) ~ 367 Mb | Mp3 (CBR320) ~ 176 Mb | Scans included
Label: Humbug | # BAH 4 | Time: 00:51:11

A Captain Sensible LP is a rare event. Since his first two albums appeared in 1981 and 1982 while he was still in the Damned, only 1989's Revolution Now and this new effort have been released. Not that it's completely his fault; this new work was completed over two years ago – it stinks when a legend of this ability can't find someone willing to issue an already recorded album. Nonetheless, the good Captain doesn't fail us and never has. While not as strong as Revolution Now, all of his usual goofy, nostalgic neo-psychedelic guitar tricks and surprisingly crafted pop tunes are in place and sound 1993 despite his most retro prank yet: "Damned" if this isn't a concept album about one Geoffrey Brown, whose sedate corporate life is turned topsy-turvy when now-extinct aliens start leaving warning messages on his computer screen about our similar self-inflicted demise. The concept is amusing, listening to Brown's wife, co-workers, and friends abandon him as a crackpot only for the government to recognize his value in the end. It combines two common Sensible themes: our own self-destructive impulses and the ostracizing of folks who go against accepted practices and actually dare to use their own brains; can there be any other truly lasting positive message from the supposedly (not really) nihilistic (actually really fun) punk days that loony-tunes like Sensible helped found? And such glitzy tunes as "Holiday in My Heart," "Street of Shame," and the title track claw their way into your affections in a few plays. The man can write – like his pal Robyn Hitchcock, only much more consistently and without the nonsense lyrics, Sensible loves a pop song, knows one when he hears one or writes one, and has 30 years of great pop song riffs and styles stored in his brain to compose his own. Ever since the Damned's masterful Strawberries revealed his prowess, he's been loved by those in the know: He's one-third ridiculous clown, one-third lovable English eccentric incapable of growing old, and one-third (barely noticed as a result) great artist. Sensible has made some of the happiest, most enjoyable tunes around ever by a musician so scoffed at, and this is another ambitious yet modest gem from a true personality original.

Review by Jack Rabid, Allmusic.com


Tracklist:

01. Holiday In My Heart (6:51)
02. Come On Geoffrey Brown (7:20)
03. Gettin To Me (3:48)
04. Street Ogf Shame (3:57)
05. Geoff Loosens His Tie (5:48)
06. Home (4:16)
07. Govt. Dirty Tricks Dep. WC1 (1:49)
08. Life Up In The Stars (5:48)
09. The Message (3:21)
10. A Trip To Cornwall (3:22)
11. The Universe Of Geoffrey Brown (4:52)


Exact Audio Copy V0.99 prebeta 5 from 4. May 2009

EAC extraction logfile from 23. June 2011, 9:34

Captain Sensible / The Universe Of Geoffrey Brown

Used drive : Optiarc DVD RW AD-7200A Adapter: 1 ID: 0

Read mode : Secure
Utilize accurate stream : Yes
Defeat audio cache : Yes
Make use of C2 pointers : No

Read offset correction : 48
Overread into Lead-In and Lead-Out : Yes
Fill up missing offset samples with silence : Yes
Delete leading and trailing silent blocks : No
Null samples used in CRC calculations : Yes
Used interface : Installed external ASPI interface
Gap handling : Appended to previous track

Used output format : User Defined Encoder
Selected bitrate : 1024 kBit/s
Quality : High
Add ID3 tag : No
Command line compressor : C:\Program Files\Exact Audio Copy\FLAC\FLAC.EXE
Additional command line options : -8 -V -T "ARTIST=%a" -T "TITLE=%t" -T "ALBUM=%g" -T "DATE=%y" -T "TRACKNUMBER=%n" -T "GENRE=%m" -T "COMMENT=%e" %s -o %d


TOC of the extracted CD

Track | Start | Length | Start sector | End sector
––––––––––––––––––––––––––––-
1 | 0:00.32 | 6:51.20 | 32 | 30876
2 | 6:51.52 | 7:19.60 | 30877 | 63861
3 | 14:11.37 | 3:48.05 | 63862 | 80966
4 | 17:59.42 | 3:56.50 | 80967 | 98716
5 | 21:56.17 | 5:47.60 | 98717 | 124801
6 | 27:44.02 | 4:16.28 | 124802 | 144029
7 | 32:00.30 | 1:48.50 | 144030 | 152179
8 | 33:49.05 | 5:48.05 | 152180 | 178284
9 | 39:37.10 | 3:20.42 | 178285 | 193326
10 | 42:57.52 | 3:22.00 | 193327 | 208476
11 | 46:19.52 | 4:52.15 | 208477 | 230391


Track 1

Filename K:\Capture\CDex Compress\Captain Sensible - [01] Holiday In My Heart.wav

Pre-gap length 0:00:02.42

Peak level 92.5 %
Track quality 100.0 %
Test CRC 41A07302
Copy CRC 41A07302
Cannot be verified as accurate (confidence 5) [608DF8DF], AccurateRip returned [0ACE7CDB]
Copy OK

Track 2

Filename K:\Capture\CDex Compress\Captain Sensible - [02] Come On Geoffrey Brown.wav

Peak level 94.5 %
Track quality 100.0 %
Test CRC E9647EF7
Copy CRC E9647EF7
Accurately ripped (confidence 2) [4B7D4AFD]
Copy OK

Track 3

Filename K:\Capture\CDex Compress\Captain Sensible - [03] Gettin To Me.wav

Pre-gap length 0:00:00.01

Peak level 94.5 %
Track quality 100.0 %
Test CRC 46ECD089
Copy CRC 46ECD089
Accurately ripped (confidence 2) [1A7E1052]
Copy OK

Track 4

Filename K:\Capture\CDex Compress\Captain Sensible - [04] Street Ogf Shame.wav

Pre-gap length 0:00:00.01

Peak level 94.5 %
Track quality 99.9 %
Test CRC 7B44B861
Copy CRC 7B44B861
Cannot be verified as accurate (confidence 4) [91FD74C4], AccurateRip returned [38253D0D]
Copy OK

Track 5

Filename K:\Capture\CDex Compress\Captain Sensible - [05] Geoff Loosens His Tie.wav

Pre-gap length 0:00:00.53

Peak level 94.5 %
Track quality 99.9 %
Test CRC B8615CFB
Copy CRC B8615CFB
Cannot be verified as accurate (confidence 4) [153B67BC], AccurateRip returned [5373889E]
Copy OK

Track 6

Filename K:\Capture\CDex Compress\Captain Sensible - [06] Home.wav

Peak level 94.5 %
Track quality 99.9 %
Test CRC 4931A1BE
Copy CRC 4931A1BE
Cannot be verified as accurate (confidence 4) [17398C2E], AccurateRip returned [1B113206]
Copy OK

Track 7

Filename K:\Capture\CDex Compress\Captain Sensible - [07] Govt. Dirty Tricks Dep. WC1.wav

Pre-gap length 0:00:00.01

Peak level 64.8 %
Track quality 99.5 %
Test CRC 4B0BBE31
Copy CRC 4B0BBE31
Cannot be verified as accurate (confidence 4) [AEC888E4], AccurateRip returned [285753AF]
Copy OK

Track 8

Filename K:\Capture\CDex Compress\Captain Sensible - [08] Life Up In The Stars.wav

Pre-gap length 0:00:00.01

Peak level 94.5 %
Track quality 99.9 %
Test CRC 37AD91CE
Copy CRC 37AD91CE
Cannot be verified as accurate (confidence 4) [0E70B25A], AccurateRip returned [6DC2C1BB]
Copy OK

Track 9

Filename K:\Capture\CDex Compress\Captain Sensible - [09] The Message.wav

Pre-gap length 0:00:00.01

Peak level 94.5 %
Track quality 99.9 %
Test CRC 96D35711
Copy CRC 96D35711
Cannot be verified as accurate (confidence 4) [6B0E2EB5], AccurateRip returned [04DBE7E8]
Copy OK

Track 10

Filename K:\Capture\CDex Compress\Captain Sensible - [10] A Trip To Cornwall.wav

Pre-gap length 0:00:00.01

Peak level 94.5 %
Track quality 99.6 %
Test CRC 94AE87B8
Copy CRC 94AE87B8
Cannot be verified as accurate (confidence 4) [91F63B73], AccurateRip returned [40CD99B8]
Copy OK

Track 11

Filename K:\Capture\CDex Compress\Captain Sensible - [11] The Universe Of Geoffrey Brown.wav

Peak level 94.5 %
Track quality 99.5 %
Test CRC 2E3E2EFC
Copy CRC 2E3E2EFC
Cannot be verified as accurate (confidence 4) [9879DA8C], AccurateRip returned [045BA6BC]
Copy OK


2 track(s) accurately ripped
9 track(s) could not be verified as accurate

Some tracks could not be verified as accurate

No errors occurred

End of status report

foobar2000 1.2 / Dynamic Range Meter 1.1.1
log date: 2020-02-16 04:29:17

––––––––––––––––––––––––––––––––––––––––
Analyzed: Captain Sensible / The Universe Of Geoffrey Brown
––––––––––––––––––––––––––––––––––––––––

DR Peak RMS Duration Track
––––––––––––––––––––––––––––––––––––––––
DR10 -0.68 dB -14.38 dB 6:51 01/11-Holiday In My Heart
DR9 -0.49 dB -12.36 dB 7:20 02/11-Come On Geoffrey Brown
DR12 -0.49 dB -16.21 dB 3:48 03/11-Gettin To Me
DR10 -0.49 dB -11.80 dB 3:57 04/11-Street Ogf Shame
DR11 -0.49 dB -14.43 dB 5:48 05/11-Geoff Loosens His Tie
DR9 -0.49 dB -11.77 dB 4:16 06/11-Home
DR10 -3.76 dB -16.66 dB 1:49 07/11-Govt. Dirty Tricks Dep. WC1
DR8 -0.49 dB -11.91 dB 5:48 08/11-Life Up In The Stars
DR9 -0.49 dB -10.22 dB 3:21 09/11-The Message
DR9 -0.49 dB -12.56 dB 3:22 10/11-A Trip To Cornwall
DR8 -0.49 dB -10.53 dB 4:52 11/11-The Universe Of Geoffrey Brown
––––––––––––––––––––––––––––––––––––––––

Number of tracks: 11
Official DR value: DR10

Samplerate: 44100 Hz
Channels: 2
Bits per sample: 16
Bitrate: 933 kbps
Codec: FLAC
================================================================================




Captain Sensible - Albums Collection 1982-2003 (7CD)

Captain Sensible - Meathead (1995) 2CDs
EAC | FLAC | Tracks (Cue&Log) ~ 918 Mb | Mp3 (CBR320) ~ 378 Mb | Scans included
Label: Humbug | # BAH 14 | Time: 02:30:36

Sensible calls this his White Album in the liner notes, but next to the Captain, the Beatles were haiku poets in their moderation. It's a sprawling mess of a record, spread over two CDs and two-and-a-half hours. This may be pure conjecture, but Sensible also seems to be taking a Zappa-like approach to his work with his combination of so many elements: bouncy London pop, Pink Floydish spacy electronics, found sound bites from TV shows, grating bulldozer guitar riffs, dainty orchestral violins, and silly lyrics about space travel. Often he seems to want to shock or jolt the listener out of complacency with repeated monster guitar licks or spoken dialogue; if the goal is to irritate, he succeeds all too well (as in the bit where a woman sneezes over – and over – and over). The listener ends up being not so much dazzled as exhausted, or worse, fed up with his apparent value of cocky experimentation over cogent, humane statements. Here's a little secret: if you just want the kernel of Sensible's melodious pop sensibility and none of the extraneous nonsense, head straight to the excellent, sophisticated, and witty records of one of his occasional songwriting partners, Martin Newell.

Review by Richie Unterberger, Allmusic.com


Tracklist:

CD1:

01. Sally Blue Shoes (6:52)
02. Rough Justice (5:26)
03. Bare Arm Situations (3:06)
04. The Love Policeman (5:07)
05. Crazy Fish (4:40)
06. Elephant Dung (1:50)
07. Hammond Solo (5:54)
08. Zaro Nebula Part 1 (5:24)
09. Zaro Nebula Part 2 (4:47)
10. Zaro Nebula Part 3 (2:53)
11. Zaro Nebula Part 4 (5:02)
12. Freedom (2:27)
13. Eric Clapton's Wallet (2:01)
14. Pasties (2:02)
15. Love Thing (4:53)
16. Bruce Forsythe (8:00)
17. Flip Flop World (5:21)
18. Pompous Overture (2:43)

CD2:

01. Aliens Of The Lord (3:02)
02. Space Shuttle (5:33)
03. A Brief Hiccup (1:01)
04. Meathead (6:21)
05. Honeymoon In Acapulco (6:35)
06. Can You Hear Me (4:01)
07. The Snow Queen (excerpt) (2:47)
08. Business Trip To Saturn (15:59)
09. Inventing The Wheel (5:09)
10. The Last Train (3:46)
11. Festival Radio Jingles (0:34)
12. Aliens? We Are The Aliens (4:08)
13. Stabilizer Jam (4:55)
14. Plastic Arcade (8:17)


Exact Audio Copy V1.0 beta 3 from 29. August 2011

EAC extraction logfile from 30. October 2011, 9:30

Captain Sensible / Meathead (Disc 1)

Used drive : HL-DT-STDVDRAM GSA-T40N Adapter: 1 ID: 0

Read mode : Secure
Utilize accurate stream : Yes
Defeat audio cache : Yes
Make use of C2 pointers : No

Read offset correction : 667
Overread into Lead-In and Lead-Out : No
Fill up missing offset samples with silence : Yes
Delete leading and trailing silent blocks : No
Null samples used in CRC calculations : Yes
Used interface : Native Win32 interface for Win NT & 2000
Gap handling : Appended to previous track

Used output format : User Defined Encoder
Selected bitrate : 1024 kBit/s
Quality : High
Add ID3 tag : No
Command line compressor : C:\Program Files\Exact Audio Copy\Flac\flac.exe
Additional command line options : -8 -V -T "ARTIST=%artist%" -T "TITLE=%title%" -T "ALBUM=%albumtitle%" -T "DATE=%year%" -T "TRACKNUMBER=%tracknr%" -T "GENRE=%genre%" -T "PERFORMER=%albuminterpret%" -T "COMPOSER=%composer%" %haslyrics%–tag-from-file=LYRICS="%lyricsfile%"%haslyrics% -T "ALBUMARTIST=%albumartist%" -T "ALBUM ARTIST=%albumartist%" -T "DISCNUMBER=%cdnumber%" -T "TOTALDISCS=%totalcds%" -T "TOTALTRACKS=%numtracks%" -T "COMMENT=EAC V1.0 beta 2, Secure Mode, Test & Copy, AccurateRip, FLAC -8" %source% -o %dest%


TOC of the extracted CD

Track | Start | Length | Start sector | End sector
––––––––––––––––––––––––––––-
1 | 0:00.33 | 6:51.52 | 33 | 30909
2 | 6:52.10 | 5:26.33 | 30910 | 55392
3 | 12:18.43 | 3:05.40 | 55393 | 69307
4 | 15:24.08 | 5:07.37 | 69308 | 92369
5 | 20:31.45 | 4:40.33 | 92370 | 113402
6 | 25:12.03 | 1:50.20 | 113403 | 121672
7 | 27:02.23 | 5:53.47 | 121673 | 148194
8 | 32:55.70 | 5:23.73 | 148195 | 172492
9 | 38:19.68 | 4:47.27 | 172493 | 194044
10 | 43:07.20 | 2:52.43 | 194045 | 206987
11 | 45:59.63 | 5:02.30 | 206988 | 229667
12 | 51:02.18 | 2:26.67 | 229668 | 240684
13 | 53:29.10 | 2:01.03 | 240685 | 249762
14 | 55:30.13 | 2:02.25 | 249763 | 258937
15 | 57:32.38 | 4:52.55 | 258938 | 280892
16 | 62:25.18 | 8:00.12 | 280893 | 316904
17 | 70:25.30 | 5:21.20 | 316905 | 340999
18 | 75:46.50 | 2:42.55 | 341000 | 353204


Track 1

Filename E:\Video\Audio\Captain Sensible - [01] Sally Blue Shoes.wav

Pre-gap length 0:00:02.44

Peak level 96.8 %
Extraction speed 2.5 X
Track quality 99.9 %
Test CRC 9D44FF8E
Copy CRC 9D44FF8E
Accurately ripped (confidence 2) [EDCC98B8] (AR v1)
Copy OK

Track 2

Filename E:\Video\Audio\Captain Sensible - [02] Rough Justice.wav

Pre-gap length 0:00:00.56

Peak level 96.8 %
Extraction speed 3.0 X
Track quality 100.0 %
Test CRC 0AD66936
Copy CRC 0AD66936
Accurately ripped (confidence 2) [3BB10EE9] (AR v1)
Copy OK

Track 3

Filename E:\Video\Audio\Captain Sensible - [03] Bare Arm Situations.wav

Peak level 81.8 %
Extraction speed 2.9 X
Track quality 100.0 %
Test CRC 21C79BBA
Copy CRC 21C79BBA
Accurately ripped (confidence 2) [77D62445] (AR v1)
Copy OK

Track 4

Filename E:\Video\Audio\Captain Sensible - [04] The Love Policeman.wav

Peak level 96.8 %
Extraction speed 3.4 X
Track quality 100.0 %
Test CRC 5E0A14CD
Copy CRC 5E0A14CD
Accurately ripped (confidence 2) [3ADA6532] (AR v1)
Copy OK

Track 5

Filename E:\Video\Audio\Captain Sensible - [05] Crazy Fish.wav

Pre-gap length 0:00:00.02

Peak level 96.8 %
Extraction speed 3.5 X
Track quality 100.0 %
Test CRC DF906145
Copy CRC DF906145
Accurately ripped (confidence 2) [F7BF69B1] (AR v1)
Copy OK

Track 6

Filename E:\Video\Audio\Captain Sensible - [06] Elephant Dung.wav

Peak level 96.8 %
Extraction speed 3.1 X
Track quality 100.0 %
Test CRC 392C931D
Copy CRC 392C931D
Accurately ripped (confidence 2) [AADB979C] (AR v1)
Copy OK

Track 7

Filename E:\Video\Audio\Captain Sensible - [07] Hammond Solo.wav

Peak level 87.8 %
Extraction speed 3.9 X
Track quality 100.0 %
Test CRC 04B0D1B4
Copy CRC 04B0D1B4
Accurately ripped (confidence 2) [A0AD14D2] (AR v1)
Copy OK

Track 8

Filename E:\Video\Audio\Captain Sensible - [08] Zaro Nebula Part 1.wav

Pre-gap length 0:00:00.76

Peak level 83.8 %
Extraction speed 4.1 X
Track quality 100.0 %
Test CRC A070FD4B
Copy CRC A070FD4B
Accurately ripped (confidence 2) [B66BA7A4] (AR v1)
Copy OK

Track 9

Filename E:\Video\Audio\Captain Sensible - [09] Zaro Nebula Part 2.wav

Peak level 96.8 %
Extraction speed 4.2 X
Track quality 100.0 %
Test CRC 4EA07317
Copy CRC 4EA07317
Accurately ripped (confidence 2) [6D19DC8A] (AR v1)
Copy OK

Track 10

Filename E:\Video\Audio\Captain Sensible - [10] Zaro Nebula Part 3.wav

Peak level 70.5 %
Extraction speed 4.0 X
Track quality 100.0 %
Test CRC 72CC7315
Copy CRC 72CC7315
Accurately ripped (confidence 2) [207DB481] (AR v1)
Copy OK

Track 11

Filename E:\Video\Audio\Captain Sensible - [11] Zaro Nebula Part 4.wav

Peak level 66.5 %
Extraction speed 4.4 X
Track quality 100.0 %
Test CRC 8BDA21D6
Copy CRC 8BDA21D6
Accurately ripped (confidence 2) [B70F634D] (AR v1)
Copy OK

Track 12

Filename E:\Video\Audio\Captain Sensible - [12] Freedom.wav

Peak level 66.7 %
Extraction speed 4.1 X
Track quality 100.0 %
Test CRC 9294DBEC
Copy CRC 9294DBEC
Accurately ripped (confidence 2) [BBB2FF89] (AR v1)
Copy OK

Track 13

Filename E:\Video\Audio\Captain Sensible - [13] Eric Clapton's Wallet.wav

Peak level 59.7 %
Extraction speed 3.9 X
Track quality 100.0 %
Test CRC 226E518A
Copy CRC 226E518A
Accurately ripped (confidence 2) [13AD2C29] (AR v1)
Copy OK

Track 14

Filename E:\Video\Audio\Captain Sensible - [14] Pasties.wav

Peak level 66.6 %
Extraction speed 4.1 X
Track quality 100.0 %
Test CRC 672E761E
Copy CRC 672E761E
Accurately ripped (confidence 2) [E3174250] (AR v1)
Copy OK

Track 15

Filename E:\Video\Audio\Captain Sensible - [15] Love Thing.wav

Peak level 93.3 %
Extraction speed 4.8 X
Track quality 100.0 %
Test CRC 8DBF2300
Copy CRC 8DBF2300
Accurately ripped (confidence 2) [BA5A0A4C] (AR v1)
Copy OK

Track 16

Filename E:\Video\Audio\Captain Sensible - [16] Bruce Forsythe.wav

Peak level 69.7 %
Extraction speed 5.3 X
Track quality 100.0 %
Test CRC 532B5A55
Copy CRC 532B5A55
Accurately ripped (confidence 2) [058528A2] (AR v1)
Copy OK

Track 17

Filename E:\Video\Audio\Captain Sensible - [17] Flip Flop World.wav

Peak level 95.9 %
Extraction speed 5.2 X
Track quality 100.0 %
Test CRC 9B48BB06
Copy CRC 9B48BB06
Accurately ripped (confidence 2) [0B928D04] (AR v1)
Copy OK

Track 18

Filename E:\Video\Audio\Captain Sensible - [18] Pompous Overture.wav

Pre-gap length 0:00:01.56

Peak level 91.3 %
Extraction speed 4.8 X
Track quality 100.0 %
Test CRC 35AAD9FE
Copy CRC 35AAD9FE
Accurately ripped (confidence 2) [21BDBF09] (AR v1)
Copy OK


All tracks accurately ripped

No errors occurred

End of status report

==== Log checksum AA1FBA59324D2A8963944F1ABFB89B68B22171C3635622A74C5CB6411D17AB3B ====

foobar2000 1.2 / Dynamic Range Meter 1.1.1
log date: 2020-02-16 04:32:16

––––––––––––––––––––––––––––––––––––––––
Analyzed: Captain Sensible / Meathead (Disc 1)
––––––––––––––––––––––––––––––––––––––––

DR Peak RMS Duration Track
––––––––––––––––––––––––––––––––––––––––
DR13 -0.27 dB -15.00 dB 6:52 01-Sally Blue Shoes
DR12 -0.27 dB -13.81 dB 5:26 02-Rough Justice
DR11 -1.74 dB -17.87 dB 3:06 03-Bare Arm Situations
DR10 -0.27 dB -12.97 dB 5:07 04-The Love Policeman
DR11 -0.27 dB -13.03 dB 4:40 05-Crazy Fish
DR13 -0.27 dB -15.77 dB 1:50 06-Elephant Dung
DR12 -1.13 dB -18.84 dB 5:54 07-Hammond Solo
DR13 -1.53 dB -17.10 dB 5:24 08-Zaro Nebula Part 1
DR12 -0.27 dB -13.39 dB 4:47 09-Zaro Nebula Part 2
DR10 -3.03 dB -18.70 dB 2:53 10-Zaro Nebula Part 3
DR12 -3.54 dB -17.60 dB 5:02 11-Zaro Nebula Part 4
DR13 -3.52 dB -20.07 dB 2:27 12-Freedom
DR11 -4.47 dB -18.31 dB 2:01 13-Eric Clapton's Wallet
DR11 -3.52 dB -17.94 dB 2:02 14-Pasties
DR12 -0.60 dB -15.40 dB 4:53 15-Love Thing
DR11 -3.13 dB -16.71 dB 8:00 16-Bruce Forsythe
DR11 -0.36 dB -15.22 dB 5:21 17-Flip Flop World
DR12 -0.79 dB -16.34 dB 2:43 18-Pompous Overture
––––––––––––––––––––––––––––––––––––––––

Number of tracks: 18
Official DR value: DR12

Samplerate: 44100 Hz
Channels: 2
Bits per sample: 16
Bitrate: 816 kbps
Codec: FLAC
================================================================================


Exact Audio Copy V1.0 beta 3 from 29. August 2011

EAC extraction logfile from 30. October 2011, 12:49

Captain Sensible / Meathead (Disc 2)

Used drive : HL-DT-STDVDRAM GSA-T40N Adapter: 1 ID: 0

Read mode : Secure
Utilize accurate stream : Yes
Defeat audio cache : Yes
Make use of C2 pointers : No

Read offset correction : 667
Overread into Lead-In and Lead-Out : No
Fill up missing offset samples with silence : Yes
Delete leading and trailing silent blocks : No
Null samples used in CRC calculations : Yes
Used interface : Native Win32 interface for Win NT & 2000
Gap handling : Appended to previous track

Used output format : User Defined Encoder
Selected bitrate : 1024 kBit/s
Quality : High
Add ID3 tag : No
Command line compressor : C:\Program Files\Exact Audio Copy\Flac\flac.exe
Additional command line options : -8 -V -T "ARTIST=%artist%" -T "TITLE=%title%" -T "ALBUM=%albumtitle%" -T "DATE=%year%" -T "TRACKNUMBER=%tracknr%" -T "GENRE=%genre%" -T "PERFORMER=%albuminterpret%" -T "COMPOSER=%composer%" %haslyrics%–tag-from-file=LYRICS="%lyricsfile%"%haslyrics% -T "ALBUMARTIST=%albumartist%" -T "ALBUM ARTIST=%albumartist%" -T "DISCNUMBER=%cdnumber%" -T "TOTALDISCS=%totalcds%" -T "TOTALTRACKS=%numtracks%" -T "COMMENT=EAC V1.0 beta 2, Secure Mode, Test & Copy, AccurateRip, FLAC -8" %source% -o %dest%


TOC of the extracted CD

Track | Start | Length | Start sector | End sector
––––––––––––––––––––––––––––-
1 | 0:00.33 | 3:01.50 | 33 | 13657
2 | 3:02.08 | 5:32.52 | 13658 | 38609
3 | 8:34.60 | 1:01.00 | 38610 | 43184
4 | 9:35.60 | 6:21.10 | 43185 | 71769
5 | 15:56.70 | 6:34.65 | 71770 | 101384
6 | 22:31.60 | 4:00.60 | 101385 | 119444
7 | 26:32.45 | 2:46.68 | 119445 | 131962
8 | 29:19.38 | 15:58.57 | 131963 | 203869
9 | 45:18.20 | 5:09.20 | 203870 | 227064
10 | 50:27.40 | 3:46.15 | 227065 | 244029
11 | 54:13.55 | 0:33.40 | 244030 | 246544
12 | 54:47.20 | 4:08.18 | 246545 | 265162
13 | 58:55.38 | 4:54.57 | 265163 | 287269
14 | 63:50.20 | 8:16.63 | 287270 | 324532


Track 1

Filename E:\Video\Audio\Captain Sensible - [01] Aliens Of The Lord.wav

Pre-gap length 0:00:02.44

Peak level 96.8 %
Extraction speed 2.3 X
Track quality 100.0 %
Test CRC 67A67754
Copy CRC 67A67754
Track not present in AccurateRip database
Copy OK

Track 2

Filename E:\Video\Audio\Captain Sensible - [02] Space Shuttle.wav

Peak level 96.8 %
Extraction speed 2.8 X
Track quality 100.0 %
Test CRC 1210111A
Copy CRC 1210111A
Track not present in AccurateRip database
Copy OK

Track 3

Filename E:\Video\Audio\Captain Sensible - [03] A Brief Hiccup.wav

Peak level 42.3 %
Extraction speed 1.9 X
Track quality 100.0 %
Test CRC 3C2CFF68
Copy CRC 3C2CFF68
Track not present in AccurateRip database
Copy OK

Track 4

Filename E:\Video\Audio\Captain Sensible - [04] Meathead.wav

Pre-gap length 0:00:00.29

Peak level 96.8 %
Extraction speed 2.9 X
Track quality 99.9 %
Test CRC 763CCFA4
Copy CRC 763CCFA4
Track not present in AccurateRip database
Copy OK

Track 5

Filename E:\Video\Audio\Captain Sensible - [05] Honeymoon In Acapulco.wav

Peak level 86.0 %
Extraction speed 3.5 X
Track quality 100.0 %
Test CRC AB29DF5F
Copy CRC AB29DF5F
Track not present in AccurateRip database
Copy OK

Track 6

Filename E:\Video\Audio\Captain Sensible - [06] Can You Hear Me.wav

Peak level 96.8 %
Extraction speed 3.6 X
Track quality 100.0 %
Test CRC 7BCFE9E7
Copy CRC 7BCFE9E7
Track not present in AccurateRip database
Copy OK

Track 7

Filename E:\Video\Audio\Captain Sensible - [07] The Snow Queen (excerpt).wav

Peak level 76.1 %
Extraction speed 3.4 X
Track quality 100.0 %
Test CRC 143FFFE1
Copy CRC 143FFFE1
Track not present in AccurateRip database
Copy OK

Track 8

Filename E:\Video\Audio\Captain Sensible - [08] Business Trip To Saturn.wav

Pre-gap length 0:00:01.20

Peak level 96.8 %
Extraction speed 4.5 X
Track quality 100.0 %
Test CRC 74A8FBF6
Copy CRC 74A8FBF6
Track not present in AccurateRip database
Copy OK

Track 9

Filename E:\Video\Audio\Captain Sensible - [09] Inventing The Wheel.wav

Pre-gap length 0:00:00.16

Peak level 96.8 %
Extraction speed 4.5 X
Track quality 100.0 %
Test CRC 5E1F4867
Copy CRC 5E1F4867
Track not present in AccurateRip database
Copy OK

Track 10

Filename E:\Video\Audio\Captain Sensible - [10] The Last Train.wav

Peak level 96.8 %
Extraction speed 4.5 X
Track quality 100.0 %
Test CRC 23D90D82
Copy CRC 23D90D82
Track not present in AccurateRip database
Copy OK

Track 11

Filename E:\Video\Audio\Captain Sensible - [11] Festival Radio Jingles.wav

Peak level 58.2 %
Extraction speed 1.5 X
Track quality 99.6 %
Test CRC 6CB44814
Copy CRC 6CB44814
Track not present in AccurateRip database
Copy OK

Track 12

Filename E:\Video\Audio\Captain Sensible - [12] Aliens We Are The Aliens.wav

Peak level 96.8 %
Extraction speed 4.6 X
Track quality 100.0 %
Test CRC 7706384B
Copy CRC 7706384B
Track not present in AccurateRip database
Copy OK

Track 13

Filename E:\Video\Audio\Captain Sensible - [13] Stabilizer Jam.wav

Peak level 96.8 %
Extraction speed 4.9 X
Track quality 100.0 %
Test CRC 4668EEF0
Copy CRC 4668EEF0
Track not present in AccurateRip database
Copy OK

Track 14

Filename E:\Video\Audio\Captain Sensible - [14] Plastic Arcade.wav

Pre-gap length 0:00:00.06

Peak level 96.8 %
Extraction speed 5.4 X
Track quality 100.0 %
Test CRC BE9ED5D7
Copy CRC BE9ED5D7
Track not present in AccurateRip database
Copy OK


None of the tracks are present in the AccurateRip database

No errors occurred

End of status report

==== Log checksum 6214896301AEE02797ADCFB902F2FB202E84A8EE0CC09298F3758B02A31D72A2 ====

foobar2000 1.2 / Dynamic Range Meter 1.1.1
log date: 2020-02-16 07:14:02

––––––––––––––––––––––––––––––––––––––––
Analyzed: Captain Sensible / Meathead (Disc 2)
––––––––––––––––––––––––––––––––––––––––

DR Peak RMS Duration Track
––––––––––––––––––––––––––––––––––––––––
DR14 -0.27 dB -16.68 dB 3:02 01-Aliens Of The Lord
DR11 -0.27 dB -13.30 dB 5:33 02-Space Shuttle
DR12 -7.46 dB -23.24 dB 1:01 03-A Brief Hiccup
DR11 -0.27 dB -14.50 dB 6:21 04-Meathead
DR14 -1.30 dB -19.98 dB 6:35 05-Honeymoon In Acapulco
DR11 -0.27 dB -13.50 dB 4:01 06-Can You Hear Me
DR11 -2.37 dB -17.85 dB 2:47 07-The Snow Queen (excerpt)
DR11 -0.27 dB -14.62 dB 15:59 08-Business Trip To Saturn
DR11 -0.27 dB -13.74 dB 5:09 09-Inventing The Wheel
DR12 -0.27 dB -14.47 dB 3:46 10-The Last Train
DR13 -4.70 dB -21.54 dB 0:34 11-Festival Radio Jingles
DR12 -0.27 dB -14.43 dB 4:08 12-Aliens? We Are The Aliens
DR11 -0.27 dB -13.03 dB 4:55 13-Stabilizer Jam
DR10 -0.27 dB -12.90 dB 8:17 14-Plastic Arcade
––––––––––––––––––––––––––––––––––––––––

Number of tracks: 14
Official DR value: DR12

Samplerate: 44100 Hz
Channels: 2
Bits per sample: 16
Bitrate: 814 kbps
Codec: FLAC
================================================================================




Captain Sensible - Albums Collection 1982-2003 (7CD)

Captain Sensible - The Collection (2003)
EAC | FLAC | Tracks (Cue&Log) ~ 514 Mb | Mp3 (CBR320) ~ 179 Mb | Covers
Label: Spectrum Music | # 063 193-2 | Time: 01:17:28

Before Captain Sensible began his solo career, he was best known as the nutter in the Damned who wore dresses (and sometimes wore nothing at all) while plunking his bass or strumming his guitar. On his own, the dear old Captain was a bona fide pop star with a few U.K. hit singles to his name in 1982 and 1983 and a young new audience completely unimpressed with his punk credentials. His singles, including "Wot," "Glad It's All Over," and "Happy Talk" (all included here), were radio-friendly slices of lighthearted keyboard-based pop brilliantly produced by New Musik's Tony Mansfield. The A&M albums Women and Captains First and The Power of Love were well-crafted eclectic affairs, each containing enough gems to make them recommended purchases. This long overdue 19-track compilation features nearly all of his singles and a good smattering of key album tracks, and will not disappoint those searching for digital versions of some of Cappy's finest moments. Although many may already be familiar with the bigger hits mentioned earlier, the Captain had many more songs that didn't bother the charts but certainly were equally as exciting, including "The Power of Love," "I Love Her," "Martha the Mouth," "Croydon," "I'm a Spider," and more. The songs on display are absolutely ace, with hooks that are uniquely uplifting. Mansfield's warm production features many of his trademark synth and guitar sounds, allowing the songs to soothe and tame the listener into total submission. Underneath it all, though, the listener has to decide whether the Captain was sincere or whether he had his tongue in cheek the whole time. Either way, the Captain's star didn't shine for long and he once again went back to being an on-again, off-again member of the Damned. He is now a punk legend, but he should be remembered for so much more.

Review by Stephen Schnee, Allmusic.com


Tracklist:

01. Happy Talk (3:31)
02. Croydon (4:50)
03. A Nice Cup Of Tea (3:14)
04. Brenda (Parts 1 & 2) (7:27)
05. Yanks With Guns (4:29)
06. Martha The Mouth (3:49)
07. (What D'ya Give) The Man Who's Gotten Everything (4:25)
08. Wot (3:40)
09. Royal Rave Up (5:10)
10. It Would Be So Nice (3:39)
11. The Power Of Love (3:47)
12. I'm A Spider (4:14)
13. I Love Her (2:40)
14. Glad It's All Over (3:59)
15. Stop The World (4:35)
16. Sir Donald's Son (2:59)
17. It's Hard To Believe I'm Not (3:11)
18. Thanks For The Night (4:11)
19. There's More Snakes Than Ladders (3:39)


Exact Audio Copy V0.99 prebeta 3 from 28. July 2007

EAC extraction logfile from 5. May 2009, 19:33

Captain Sensible / The Collection

Used drive : HL-DT-STDVD-RAM GSA-H20N Adapter: 3 ID: 0

Read mode : Secure
Utilize accurate stream : Yes
Defeat audio cache : Yes
Make use of C2 pointers : No

Read offset correction : 102
Overread into Lead-In and Lead-Out : No
Fill up missing offset samples with silence : Yes
Delete leading and trailing silent blocks : No
Null samples used in CRC calculations : Yes
Used interface : Installed external ASPI interface
Gap handling : Appended to previous track

Used output format : Internal WAV Routines
Sample format : 44.100 Hz; 16 Bit; Stereo


TOC of the extracted CD

Track | Start | Length | Start sector | End sector
––––––––––––––––––––––––––––-
1 | 0:00.00 | 3:30.72 | 0 | 15821
2 | 3:30.72 | 4:50.29 | 15822 | 37600
3 | 8:21.26 | 3:13.43 | 37601 | 52118
4 | 11:34.69 | 7:27.29 | 52119 | 85672
5 | 19:02.23 | 4:29.08 | 85673 | 105855
6 | 23:31.31 | 3:48.45 | 105856 | 123000
7 | 27:20.01 | 4:24.46 | 123001 | 142846
8 | 31:44.47 | 3:40.33 | 142847 | 159379
9 | 35:25.05 | 5:10.19 | 159380 | 182648
10 | 40:35.24 | 3:38.41 | 182649 | 199039
11 | 44:13.65 | 3:46.52 | 199040 | 216041
12 | 48:00.42 | 4:13.38 | 216042 | 235054
13 | 52:14.05 | 2:39.63 | 235055 | 247042
14 | 54:53.68 | 3:59.21 | 247043 | 264988
15 | 58:53.14 | 4:34.66 | 264989 | 285604
16 | 63:28.05 | 2:58.68 | 285605 | 299022
17 | 66:26.73 | 3:11.14 | 299023 | 313361
18 | 69:38.12 | 4:11.25 | 313362 | 332211
19 | 73:49.37 | 3:38.72 | 332212 | 348633


Track 1

Filename C:\Documents and Settings\Desktop\EAC\Captain Sensible\The Collection\01 - Happy Talk.wav

Pre-gap length 0:00:02.00

Peak level 86.8 %
Track quality 100.0 %
Test CRC DD034BDD
Copy CRC DD034BDD
Cannot be verified as accurate (confidence 1) [0AC127E8], AccurateRip returned [2F53B113]
Copy OK

Track 2

Filename C:\Documents and Settings\Desktop\EAC\Captain Sensible\The Collection\02 - Croydon.wav

Pre-gap length 0:00:01.58

Peak level 89.3 %
Track quality 100.0 %
Test CRC B14DBD95
Copy CRC B14DBD95
Cannot be verified as accurate (confidence 1) [F8289B52], AccurateRip returned [D5025025]
Copy OK

Track 3

Filename C:\Documents and Settings\Desktop\EAC\Captain Sensible\The Collection\03 - A Nice Cup Of Tea.wav

Pre-gap length 0:00:01.58

Peak level 72.6 %
Track quality 99.9 %
Test CRC 3540FD53
Copy CRC 3540FD53
Cannot be verified as accurate (confidence 1) [99F44C69], AccurateRip returned [633C59B6]
Copy OK

Track 4

Filename C:\Documents and Settings\Desktop\EAC\Captain Sensible\The Collection\04 - Brenda (Parts 1 & 2).wav

Pre-gap length 0:00:01.57

Peak level 86.3 %
Track quality 100.0 %
Test CRC 8EEDE615
Copy CRC 8EEDE615
Cannot be verified as accurate (confidence 1) [A1C03BD4], AccurateRip returned [067D24FB]
Copy OK

Track 5

Filename C:\Documents and Settings\Desktop\EAC\Captain Sensible\The Collection\05 - Yanks With Guns.wav

Pre-gap length 0:00:01.58

Peak level 90.7 %
Track quality 100.0 %
Test CRC 6CA85C0E
Copy CRC 6CA85C0E
Cannot be verified as accurate (confidence 1) [4016810B], AccurateRip returned [DA766F26]
Copy OK

Track 6

Filename C:\Documents and Settings\Desktop\EAC\Captain Sensible\The Collection\06 - Martha The Mouth.wav

Pre-gap length 0:00:01.58

Peak level 92.2 %
Track quality 100.0 %
Test CRC DE948FFB
Copy CRC DE948FFB
Cannot be verified as accurate (confidence 1) [9303A6F7], AccurateRip returned [F8FBD7E1]
Copy OK

Track 7

Filename C:\Documents and Settings\Desktop\EAC\Captain Sensible\The Collection\07 - (What D'Ya Give) The Man Who's Gotten Everything.wav

Pre-gap length 0:00:01.58

Peak level 93.0 %
Track quality 100.0 %
Test CRC 1F73DF18
Copy CRC 1F73DF18
Cannot be verified as accurate (confidence 1) [CCAB90DF], AccurateRip returned [68DCB688]
Copy OK

Track 8

Filename C:\Documents and Settings\Desktop\EAC\Captain Sensible\The Collection\08 - Wot.wav

Pre-gap length 0:00:01.58

Peak level 85.1 %
Track quality 100.0 %
Test CRC 285F89E4
Copy CRC 285F89E4
Cannot be verified as accurate (confidence 1) [25AE594E], AccurateRip returned [63F040E9]
Copy OK

Track 9

Filename C:\Documents and Settings\Desktop\EAC\Captain Sensible\The Collection\09 - Royal Rave Up.wav

Pre-gap length 0:00:01.58

Peak level 96.1 %
Track quality 100.0 %
Test CRC DC26E772
Copy CRC DC26E772
Cannot be verified as accurate (confidence 1) [D499CC8A], AccurateRip returned [BC8B6562]
Copy OK

Track 10

Filename C:\Documents and Settings\Desktop\EAC\Captain Sensible\The Collection\10 - It Would Be So Nice.wav

Pre-gap length 0:00:01.58

Peak level 72.1 %
Track quality 100.0 %
Test CRC C18F70E0
Copy CRC C18F70E0
Cannot be verified as accurate (confidence 1) [DCF26E27], AccurateRip returned [D1F26911]
Copy OK

Track 11

Filename C:\Documents and Settings\Desktop\EAC\Captain Sensible\The Collection\11 - The Power Of Love.wav

Pre-gap length 0:00:01.57

Peak level 89.4 %
Track quality 100.0 %
Test CRC 615CE1B3
Copy CRC 615CE1B3
Cannot be verified as accurate (confidence 1) [187AB513], AccurateRip returned [A09EF4A7]
Copy OK

Track 12

Filename C:\Documents and Settings\Desktop\EAC\Captain Sensible\The Collection\12 - I'm A Spider.wav

Pre-gap length 0:00:01.57

Peak level 84.6 %
Track quality 100.0 %
Test CRC ABDB968C
Copy CRC ABDB968C
Cannot be verified as accurate (confidence 1) [7D7172B4], AccurateRip returned [8575533C]
Copy OK

Track 13

Filename C:\Documents and Settings\Desktop\EAC\Captain Sensible\The Collection\13 - I Love Her.wav

Pre-gap length 0:00:01.56

Peak level 89.5 %
Track quality 100.0 %
Test CRC 271074B7
Copy CRC 271074B7
Cannot be verified as accurate (confidence 1) [FB0141C4], AccurateRip returned [07C91AA5]
Copy OK

Track 14

Filename C:\Documents and Settings\Desktop\EAC\Captain Sensible\The Collection\14 - Glad It's All Over.wav

Pre-gap length 0:00:01.57

Peak level 89.5 %
Track quality 100.0 %
Test CRC E3F4706E
Copy CRC E3F4706E
Cannot be verified as accurate (confidence 1) [8B840DF7], AccurateRip returned [728ABB73]
Copy OK

Track 15

Filename C:\Documents and Settings\Desktop\EAC\Captain Sensible\The Collection\15 - Stop The World.wav

Pre-gap length 0:00:01.57

Peak level 93.6 %
Track quality 100.0 %
Test CRC 7E9143EF
Copy CRC 7E9143EF
Cannot be verified as accurate (confidence 1) [96935369], AccurateRip returned [BDA17182]
Copy OK

Track 16

Filename C:\Documents and Settings\Desktop\EAC\Captain Sensible\The Collection\16 - Sir Donald's Son.wav

Pre-gap length 0:00:01.57

Peak level 70.1 %
Track quality 100.0 %
Test CRC 822A9B05
Copy CRC 822A9B05
Cannot be verified as accurate (confidence 1) [988D80F5], AccurateRip returned [75A77230]
Copy OK

Track 17

Filename C:\Documents and Settings\Desktop\EAC\Captain Sensible\The Collection\17 - It's Hard To Believe I'm Not.wav

Pre-gap length 0:00:01.57

Peak level 83.4 %
Track quality 100.0 %
Test CRC C854EC8D
Copy CRC C854EC8D
Cannot be verified as accurate (confidence 1) [A318602E], AccurateRip returned [415E79BF]
Copy OK

Track 18

Filename C:\Documents and Settings\Desktop\EAC\Captain Sensible\The Collection\18 - Thanks For The Night.wav

Pre-gap length 0:00:01.57

Peak level 85.8 %
Track quality 100.0 %
Test CRC F522E0BF
Copy CRC F522E0BF
Cannot be verified as accurate (confidence 1) [4504204A], AccurateRip returned [A669C015]
Copy OK

Track 19

Filename C:\Documents and Settings\Desktop\EAC\Captain Sensible\The Collection\19 - There's More Snakes Than Ladders.wav

Pre-gap length 0:00:01.58

Peak level 88.8 %
Track quality 100.0 %
Test CRC C8609645
Copy CRC C8609645
Cannot be verified as accurate (confidence 1) [E0D407D4], AccurateRip returned [8A53836D]
Copy OK


No tracks could be verified as accurate
You may have a different pressing from the one(s) in the database

No errors occurred

End of status report

foobar2000 1.2 / Dynamic Range Meter 1.1.1
log date: 2020-02-16 04:31:32

––––––––––––––––––––––––––––––––––––––––
Analyzed: Captain Sensible / The Collection
––––––––––––––––––––––––––––––––––––––––

DR Peak RMS Duration Track
––––––––––––––––––––––––––––––––––––––––
DR13 -1.23 dB -16.53 dB 3:31 01-Happy Talk
DR12 -0.97 dB -15.89 dB 4:50 02-Croydon
DR12 -2.77 dB -18.07 dB 3:14 03-A Nice Cup Of Tea
DR13 -1.27 dB -16.56 dB 7:27 04-Brenda (Parts 1 & 2)
DR13 -0.84 dB -15.84 dB 4:29 05-Yanks With Guns
DR12 -0.70 dB -14.62 dB 3:49 06-Martha The Mouth
DR12 -0.63 dB -15.28 dB 4:25 07-(What D'ya Give) The Man Who's Gotten Everything
DR14 -1.40 dB -17.60 dB 3:40 08-Wot
DR13 -0.34 dB -15.27 dB 5:10 09-Royal Rave Up
DR15 -2.84 dB -19.42 dB 3:39 10-It Would Be So Nice
DR12 -0.97 dB -15.03 dB 3:47 11-The Power Of Love
DR14 -1.45 dB -16.80 dB 4:14 12-I'm A Spider
DR12 -0.96 dB -15.28 dB 2:40 13-I Love Her
DR12 -0.96 dB -15.16 dB 3:59 14-Glad It's All Over
DR13 -0.57 dB -15.39 dB 4:35 15-Stop The World
DR12 -3.08 dB -19.45 dB 2:59 16-Sir Donald's Son
DR13 -1.58 dB -16.55 dB 3:11 17-It's Hard To Believe I'm Not
DR12 -1.32 dB -16.14 dB 4:11 18-Thanks For The Night
DR12 -1.03 dB -14.15 dB 3:39 19-There's More Snakes Than Ladders
––––––––––––––––––––––––––––––––––––––––

Number of tracks: 19
Official DR value: DR13

Samplerate: 44100 Hz
Channels: 2
Bits per sample: 16
Bitrate: 901 kbps
Codec: FLAC
================================================================================




All thanks to original releasers

More interesting music in My Blog