Subcategories

Clannad - In A Lifetime: The Best Of Clannad (2003) 2CD Edition [Re-Up]

Posted By: Designol
Clannad - In A Lifetime: The Best Of Clannad (2003) 2CD Edition [Re-Up]

Clannad - In A Lifetime: The Best Of Clannad (2003) 2CD Edition
EAC | FLAC | Tracks (Cue&Log) ~ 698 Mb | Mp3 (CBR320) ~ 276 Mb | Scans included | 01:55:29
Celtic Folk, New Age, Celtic Pop, Ethnic Fusion, Folk Rock | Label: BMG | # 82876 564022

The Best of Clannad: In a Lifetime is a greatest hits compilation album by Irish folk group Clannad. It contains two new tracks, "Christmas Angels" and "What Will I Do", the latter of which is on the soundtrack to the Kevin Costner film Message in a Bottle. 2003 UK Limited Edition 26-track 2-CD album set comprising of 18-track CD including Theme From Harrys Game In A Lifetime - featuring Bono & duets with Paul Young & Bruce Hornsby plus BONUS 8-track CD featuring their most laid-back tracks & 3 previously unreleased chilled-out remixes & Saltwater by Chicane.

Clannad bridged the gap between traditional Celtic music and pop. Usually, their results were an entrancing, enchanting form of pop that managed to fuse the disparate elements together rather seamlessly. Such fusions have earned the band an international cult of fans.

Taking their name from the Gaelic word for "family," Clannad formed in 1970 when the Brennan family – Maire (vocals, harp), Ciaran (vocals, guitar, bass, keyboards), Pol (guitar, percussion, flute, vocals) – began playing at their father Leo's tavern with two of their uncles, Padraig Duggan (guitar, vocals, mandolin) and Noel Duggan (guitar, vocals). Soon afterward, the group began playing folk festivals in Ireland. They released their self-titled first album in 1973, yet the band didn't earn any widespread success until they toured Germany in 1975. Maire's sister, Enya, joined the group in 1980, but left in 1982, just as the group was beginning to come into some pop success in the U.K. Clannad recorded the theme song for the television program Harry's Game; the single hit number five on the charts and won the band an Ivor Novello Award. The band recorded the soundtrack to the television production Robin of Sherwood in 1984; it won a British Academy Award for best soundtrack the next year. Clannad's success continued in 1986, when U2's Bono was featured on the Top 20 hit "In a Lifetime." The band continued to release albums into the '90s, building their pop following without losing their folk audience. Landmarks, which was issued in early 1997, earned the group their first ever Grammy award, though it also signaled the beginning of a long hiatus from the stage, and an indefinite one in regards to the studio. Compilations like The Best of Clannad: In a Lifetime and solo projects from Noel and Pádraig (The Duggans) and Moya Brennan dominated the front half of the 2000s, culminating in a 2008 world tour that found Clannad traveling as far as Thailand.

Stephen Thomas Erlewine, Allmusic.com

Clannad - In A Lifetime: The Best Of Clannad (2003) 2CD Edition [Re-Up]



Tracklist:

CD1:

01. In A Lifetime (With Bono) (03:09)
02. Theme From Harry's Game (02:30)
03. I Will Find You (Theme From Last Of The Mohicans) (05:18)
04. What Will I Do (From Message In A Bottle) (05:30)
05. Almost Seems (Too Late To Turn) (04:47)
06. Both Sides Now (With Paul Young (04:46)
07. Robin (The Hooded Man) (Theme From Robin Of Sherwood) (02:54)
08. Newgrange (04:06)
09. Of This Land (04:44)
10. Something To Believe In (With Bruce Hornsby (04:47)
11. Caislean Óir (02:11)
12. Trail Of Tears (05:16)
13. Rí Na Cruinne (04:02)
14. Buachaill Ón Éirne (03:11)
15. Sirius (05:35)
16. A Dream In The Night (03:09)
17. Fadó (05:18)
18. Christmas Angels (04:18)

CD2:

01. Saltwater (Mothership Mix) Chicane Featuring Moya Brennan (03:30)
02. Úirchill An Chreagáin (04:24)
03. Croí Cróga (05:02)
04. Na Laethe Bhí (05:22)
05. Dobhar (02:41)
06. Coinleach Glas An Fhómhair (Cantoma Mix) (06:22)
07. Together We (Cantoma Mix) (05:23)
08. Caislean Óir (Planet Heaven Mix) (07:04)


Exact Audio Copy V1.0 beta 3 from 29. August 2011

EAC extraction logfile from 16. June 2014, 16:17

Clannad / In A Lifetime (The Best Of) CD01

Used drive : HL-DT-STDVDRAM GSA-T50L Adapter: 1 ID: 0

Read mode : Secure
Utilize accurate stream : Yes
Defeat audio cache : No
Make use of C2 pointers : No

Read offset correction : 667
Overread into Lead-In and Lead-Out : No
Fill up missing offset samples with silence : Yes
Delete leading and trailing silent blocks : No
Null samples used in CRC calculations : Yes
Used interface : Native Win32 interface for Win NT & 2000
Gap handling : Appended to previous track

Used output format : User Defined Encoder
Selected bitrate : 1024 kBit/s
Quality : High
Add ID3 tag : No
Command line compressor : C:\Program Files\Exact Audio Copy\Flac\flac.exe
Additional command line options : -8 -V -T "ARTIST=%artist%" -T "TITLE=%title%" -T "ALBUM=%albumtitle%" -T "DATE=%year%" -T "TRACKNUMBER=%tracknr%" -T "GENRE=%genre%" -T "PERFORMER=%albuminterpret%" -T "COMPOSER=%composer%" %haslyrics%–tag-from-file=LYRICS="%lyricsfile%"%haslyrics% -T "ALBUMARTIST=%albumartist%" -T "DISCNUMBER=%cdnumber%" -T "TOTALDISCS=%totalcds%" -T "TOTALTRACKS=%numtracks%" -T "COMMENT=%comment%" %source% -o %dest%


TOC of the extracted CD

Track | Start | Length | Start sector | End sector
––––––––––––––––––––––––––––-
1 | 0:00.00 | 3:09.01 | 0 | 14175
2 | 3:09.01 | 2:30.06 | 14176 | 25431
3 | 5:39.07 | 5:18.02 | 25432 | 49283
4 | 10:57.09 | 5:30.41 | 49284 | 74074
5 | 16:27.50 | 4:47.28 | 74075 | 95627
6 | 21:15.03 | 4:46.45 | 95628 | 117122
7 | 26:01.48 | 2:54.43 | 117123 | 130215
8 | 28:56.16 | 4:06.46 | 130216 | 148711
9 | 33:02.62 | 4:44.50 | 148712 | 170061
10 | 37:47.37 | 4:47.46 | 170062 | 191632
11 | 42:35.08 | 2:11.32 | 191633 | 201489
12 | 44:46.40 | 5:16.36 | 201490 | 225225
13 | 50:03.01 | 4:02.15 | 225226 | 243390
14 | 54:05.16 | 3:11.03 | 243391 | 257718
15 | 57:16.19 | 5:35.33 | 257719 | 282876
16 | 62:51.52 | 3:09.04 | 282877 | 297055
17 | 66:00.56 | 5:18.04 | 297056 | 320909
18 | 71:18.60 | 4:18.13 | 320910 | 340272


Track 1

Filename C:\FLAC\01 In A Lifetime (With Bono).wav

Pre-gap length 0:00:02.00

Peak level 98.8 %
Extraction speed 4.2 X
Track quality 100.0 %
Test CRC 3614B1F2
Copy CRC 3614B1F2
Accurately ripped (confidence 29) [B2474F88] (AR v2)
Copy OK

Track 2

Filename C:\FLAC\02 Theme From Harry's Game.wav

Peak level 100.0 %
Extraction speed 4.4 X
Track quality 99.9 %
Test CRC 8C38E5F1
Copy CRC 8C38E5F1
Accurately ripped (confidence 28) [7803B996] (AR v2)
Copy OK

Track 3

Filename C:\FLAC\03 I Will Find You (Theme From Last Of The Mohicans).wav

Pre-gap length 0:00:02.32

Peak level 98.8 %
Extraction speed 4.9 X
Track quality 99.9 %
Test CRC D5F4C464
Copy CRC D5F4C464
Accurately ripped (confidence 29) [58949FC0] (AR v2)
Copy OK

Track 4

Filename C:\FLAC\04 What Will I Do (From Message In A Bottle).wav

Pre-gap length 0:00:01.29

Peak level 88.1 %
Extraction speed 5.4 X
Track quality 100.0 %
Test CRC 3B61040A
Copy CRC 3B61040A
Accurately ripped (confidence 29) [A5F89430] (AR v2)
Copy OK

Track 5

Filename C:\FLAC\05 Almost Seems (Too Late To Turn).wav

Pre-gap length 0:00:00.94

Peak level 98.8 %
Extraction speed 5.8 X
Track quality 100.0 %
Test CRC DF007575
Copy CRC DF007575
Accurately ripped (confidence 29) [F7D5DD87] (AR v2)
Copy OK

Track 6

Filename C:\FLAC\06 Both Sides Now (With Paul Young.wav

Peak level 98.8 %
Extraction speed 6.3 X
Track quality 100.0 %
Test CRC BD6E7DDD
Copy CRC BD6E7DDD
Accurately ripped (confidence 29) [9A5C1F39] (AR v2)
Copy OK

Track 7

Filename C:\FLAC\07 Robin (The Hooded Man) (Theme From Robin Of Sherwood).wav

Pre-gap length 0:00:01.69

Peak level 98.8 %
Extraction speed 6.3 X
Track quality 100.0 %
Test CRC 912CD7D1
Copy CRC 912CD7D1
Accurately ripped (confidence 28) [0FC5B0FF] (AR v2)
Copy OK

Track 8

Filename C:\FLAC\08 Newgrange.wav

Pre-gap length 0:00:01.93

Peak level 100.0 %
Extraction speed 6.6 X
Track quality 100.0 %
Test CRC E47CDB1D
Copy CRC E47CDB1D
Accurately ripped (confidence 28) [5A09843D] (AR v2)
Copy OK

Track 9

Filename C:\FLAC\09 Of This Land.wav

Pre-gap length 0:00:00.85

Peak level 98.8 %
Extraction speed 7.2 X
Track quality 100.0 %
Test CRC CEAE680A
Copy CRC CEAE680A
Accurately ripped (confidence 29) [67890EF9] (AR v2)
Copy OK

Track 10

Filename C:\FLAC\10 Something To Believe In (With Bruce Hornsby.wav

Pre-gap length 0:00:01.96

Peak level 98.8 %
Extraction speed 7.5 X
Track quality 100.0 %
Test CRC 29C43E52
Copy CRC 29C43E52
Accurately ripped (confidence 29) [5382A5B4] (AR v2)
Copy OK

Track 11

Filename C:\FLAC\11 Caislean Óir.wav

Pre-gap length 0:00:01.09

Peak level 98.8 %
Extraction speed 7.2 X
Track quality 100.0 %
Test CRC E62BE0BC
Copy CRC E62BE0BC
Accurately ripped (confidence 29) [B5A941AB] (AR v2)
Copy OK

Track 12

Filename C:\FLAC\12 Trail Of Tears.wav

Pre-gap length 0:00:04.48

Peak level 98.8 %
Extraction speed 7.9 X
Track quality 100.0 %
Test CRC CFBB45AA
Copy CRC CFBB45AA
Accurately ripped (confidence 29) [09BBCA69] (AR v2)
Copy OK

Track 13

Filename C:\FLAC\13 Rí Na Cruinne.wav

Pre-gap length 0:00:00.21

Peak level 98.8 %
Extraction speed 8.0 X
Track quality 100.0 %
Test CRC D32E23BB
Copy CRC D32E23BB
Accurately ripped (confidence 29) [53BB5E25] (AR v2)
Copy OK

Track 14

Filename C:\FLAC\14 Buachaill Ón Éirne.wav

Pre-gap length 0:00:00.84

Peak level 98.8 %
Extraction speed 8.3 X
Track quality 100.0 %
Test CRC B1D8B3B0
Copy CRC B1D8B3B0
Accurately ripped (confidence 29) [84B36E56] (AR v2)
Copy OK

Track 15

Filename C:\FLAC\15 Sirius.wav

Pre-gap length 0:00:00.49

Peak level 98.8 %
Extraction speed 8.6 X
Track quality 100.0 %
Test CRC 082F7657
Copy CRC 082F7657
Accurately ripped (confidence 29) [8E009FC9] (AR v2)
Copy OK

Track 16

Filename C:\FLAC\16 A Dream In The Night.wav

Pre-gap length 0:00:01.94

Peak level 98.8 %
Extraction speed 8.5 X
Track quality 100.0 %
Test CRC B2AF4837
Copy CRC B2AF4837
Accurately ripped (confidence 30) [841E096F] (AR v2)
Copy OK

Track 17

Filename C:\FLAC\17 Fadó.wav

Pre-gap length 0:00:02.73

Peak level 98.8 %
Extraction speed 8.8 X
Track quality 99.9 %
Test CRC 7A357A64
Copy CRC 7A357A64
Accurately ripped (confidence 28) [B323F92A] (AR v2)
Copy OK

Track 18

Filename C:\FLAC\18 Christmas Angels.wav

Pre-gap length 0:00:01.90

Peak level 98.8 %
Extraction speed 9.0 X
Track quality 100.0 %
Test CRC 7D792553
Copy CRC 7D792553
Accurately ripped (confidence 28) [47E35BF2] (AR v2)
Copy OK


All tracks accurately ripped

No errors occurred

End of status report

–– CUETools DB Plugin V2.1.3

[CTDB TOCID: BD2NmuNukW3Ho_Y587KlIyC4vpI-] database access error: The remote name could not be resolved: 'db.cuetools.net'


==== Log checksum 8537F6F0F14CE47B979F45B7EB7918FBEC76BD750972F46F8E6BBB56B1D03CA8 ====

foobar2000 1.2 / Dynamic Range Meter 1.1.1
log date: 2014-07-16 01:05:18

––––––––––––––––––––––––––––––––––––––––
Analyzed: Clannad / In A Lifetime (The Best Of) CD01
––––––––––––––––––––––––––––––––––––––––

DR Peak RMS Duration Track
––––––––––––––––––––––––––––––––––––––––
DR9 -0.10 dB -11.77 dB 3:09 01-In A Lifetime (With Bono)
DR8 0.00 dB -11.72 dB 2:30 02-Theme From Harry's Game
DR9 -0.10 dB -12.20 dB 5:18 03-I Will Find You (Theme From Last Of The Mohicans)
DR8 -1.10 dB -12.36 dB 5:31 04-What Will I Do (From Message In A Bottle)
DR8 -0.10 dB -11.60 dB 4:47 05-Almost Seems (Too Late To Turn)
DR8 -0.10 dB -10.59 dB 4:47 06-Both Sides Now (With Paul Young
DR8 -0.10 dB -10.89 dB 2:55 07-Robin (The Hooded Man) (Theme From Robin Of Sherwood)
DR9 0.00 dB -11.49 dB 4:07 08-Newgrange
DR9 -0.10 dB -10.23 dB 4:45 09-Of This Land
DR8 -0.10 dB -9.83 dB 4:48 10-Something To Believe In (With Bruce Hornsby
DR11 -0.10 dB -13.62 dB 2:11 11-Caislean Óir
DR8 -0.10 dB -10.03 dB 5:16 12-Trail Of Tears
DR9 -0.10 dB -11.24 dB 4:02 13-Rí Na Cruinne
DR11 -0.10 dB -13.15 dB 3:11 14-Buachaill Ón Éirne
DR9 -0.10 dB -11.19 dB 5:35 15-Sirius
DR8 -0.10 dB -9.84 dB 3:09 16-A Dream In The Night
DR8 -0.10 dB -10.40 dB 5:18 17-Fadó
DR7 -0.10 dB -9.31 dB 4:18 18-Christmas Angels
––––––––––––––––––––––––––––––––––––––––

Number of tracks: 18
Official DR value: DR9

Samplerate: 44100 Hz
Channels: 2
Bits per sample: 16
Bitrate: 920 kbps
Codec: FLAC
================================================================================


Exact Audio Copy V1.0 beta 3 from 29. August 2011

EAC extraction logfile from 16. June 2014, 16:57

Clannad / In A Lifetime (The Best Of) CD02

Used drive : HL-DT-STDVDRAM GSA-T50L Adapter: 1 ID: 0

Read mode : Secure
Utilize accurate stream : Yes
Defeat audio cache : No
Make use of C2 pointers : No

Read offset correction : 667
Overread into Lead-In and Lead-Out : No
Fill up missing offset samples with silence : Yes
Delete leading and trailing silent blocks : No
Null samples used in CRC calculations : Yes
Used interface : Native Win32 interface for Win NT & 2000
Gap handling : Appended to previous track

Used output format : User Defined Encoder
Selected bitrate : 1024 kBit/s
Quality : High
Add ID3 tag : No
Command line compressor : C:\Program Files\Exact Audio Copy\Flac\flac.exe
Additional command line options : -8 -V -T "ARTIST=%artist%" -T "TITLE=%title%" -T "ALBUM=%albumtitle%" -T "DATE=%year%" -T "TRACKNUMBER=%tracknr%" -T "GENRE=%genre%" -T "PERFORMER=%albuminterpret%" -T "COMPOSER=%composer%" %haslyrics%–tag-from-file=LYRICS="%lyricsfile%"%haslyrics% -T "ALBUMARTIST=%albumartist%" -T "DISCNUMBER=%cdnumber%" -T "TOTALDISCS=%totalcds%" -T "TOTALTRACKS=%numtracks%" -T "COMMENT=%comment%" %source% -o %dest%


TOC of the extracted CD

Track | Start | Length | Start sector | End sector
––––––––––––––––––––––––––––-
1 | 0:00.00 | 3:30.31 | 0 | 15780
2 | 3:30.31 | 4:24.65 | 15781 | 35645
3 | 7:55.21 | 5:02.27 | 35646 | 58322
4 | 12:57.48 | 5:22.63 | 58323 | 82535
5 | 18:20.36 | 2:41.40 | 82536 | 94650
6 | 21:02.01 | 6:22.51 | 94651 | 123351
7 | 27:24.52 | 5:23.57 | 123352 | 147633
8 | 32:48.34 | 7:04.11 | 147634 | 179444


Track 1

Filename C:\FLAC\01 Saltwater (Mothership Mix) Chicane Featuring Moya Brennan.wav

Pre-gap length 0:00:02.00

Peak level 98.8 %
Extraction speed 2.1 X
Track quality 100.0 %
Test CRC F1FA32A3
Copy CRC F1FA32A3
Accurately ripped (confidence 24) [C110D196] (AR v2)
Copy OK

Track 2

Filename C:\FLAC\02 Úirchill An Chreagáin.wav

Pre-gap length 0:00:04.01

Peak level 92.9 %
Extraction speed 2.3 X
Track quality 100.0 %
Test CRC 01B4B7DB
Copy CRC 01B4B7DB
Accurately ripped (confidence 24) [5FB5D7BD] (AR v2)
Copy OK

Track 3

Filename C:\FLAC\03 Croí Cróga.wav

Pre-gap length 0:00:02.98

Peak level 98.8 %
Extraction speed 2.4 X
Track quality 100.0 %
Test CRC E19105CC
Copy CRC E19105CC
Accurately ripped (confidence 24) [7F9C575D] (AR v2)
Copy OK

Track 4

Filename C:\FLAC\04 Na Laethe Bhí.wav

Pre-gap length 0:00:02.86

Peak level 98.8 %
Extraction speed 2.8 X
Track quality 100.0 %
Test CRC 524175C3
Copy CRC 524175C3
Accurately ripped (confidence 24) [3167EB2E] (AR v2)
Copy OK

Track 5

Filename C:\FLAC\05 Dobhar.wav

Pre-gap length 0:00:02.74

Peak level 100.0 %
Extraction speed 2.8 X
Track quality 100.0 %
Test CRC 6C39ECA5
Copy CRC 6C39ECA5
Accurately ripped (confidence 24) [80F5B992] (AR v2)
Copy OK

Track 6

Filename C:\FLAC\06 Coinleach Glas An Fhómhair (Cantoma Mix).wav

Pre-gap length 0:00:01.84

Peak level 99.3 %
Extraction speed 3.1 X
Track quality 100.0 %
Test CRC D48F5021
Copy CRC D48F5021
Accurately ripped (confidence 24) [CFABDD59] (AR v2)
Copy OK

Track 7

Filename C:\FLAC\07 Together We (Cantoma Mix).wav

Pre-gap length 0:00:02.18

Peak level 99.3 %
Extraction speed 3.4 X
Track quality 100.0 %
Test CRC E0274FF9
Copy CRC E0274FF9
Accurately ripped (confidence 24) [5DC26081] (AR v2)
Copy OK

Track 8

Filename C:\FLAC\08 Caislean Óir (Planet Heaven Mix).wav

Pre-gap length 0:00:03.06

Peak level 99.4 %
Extraction speed 3.5 X
Track quality 100.0 %
Test CRC C7E2EFD2
Copy CRC C7E2EFD2
Accurately ripped (confidence 24) [52AAE45F] (AR v2)
Copy OK


All tracks accurately ripped

No errors occurred

End of status report

–– CUETools DB Plugin V2.1.3

[CTDB TOCID: dzkxfInkyuYJ7vmJnl9uPL0E1Hg-] database access error: The remote name could not be resolved: 'db.cuetools.net'


==== Log checksum DCF466DA3EC83AA8E0A9C153DFE992139CA4705A72DDDF29CDBEB3A36D44A9C1 ====

foobar2000 1.2 / Dynamic Range Meter 1.1.1
log date: 2014-07-16 01:05:32

––––––––––––––––––––––––––––––––––––––––
Analyzed: Clannad / In A Lifetime (The Best Of) CD02
––––––––––––––––––––––––––––––––––––––––

DR Peak RMS Duration Track
––––––––––––––––––––––––––––––––––––––––
DR8 -0.10 dB -10.71 dB 3:30 01-Saltwater (Mothership Mix) Chicane Featuring Moya Brennan
DR10 -0.63 dB -16.63 dB 4:25 02-Úirchill An Chreagáin
DR7 -0.10 dB -8.90 dB 5:02 03-Croí Cróga
DR8 -0.10 dB -10.69 dB 5:23 04-Na Laethe Bhí
DR13 0.00 dB -17.14 dB 2:42 05-Dobhar
DR8 -0.06 dB -9.81 dB 6:23 06-Coinleach Glas An Fhómhair (Cantoma Mix)
DR7 -0.06 dB -9.43 dB 5:24 07-Together We (Cantoma Mix)
DR7 -0.05 dB -9.02 dB 7:04 08-Caislean Óir (Planet Heaven Mix)
––––––––––––––––––––––––––––––––––––––––

Number of tracks: 8
Official DR value: DR8

Samplerate: 44100 Hz
Channels: 2
Bits per sample: 16
Bitrate: 864 kbps
Codec: FLAC
================================================================================

Clannad - In A Lifetime: The Best Of Clannad (2003) 2CD Edition [Re-Up]

Clannad - In A Lifetime: The Best Of Clannad (2003) 2CD Edition [Re-Up]

All thanks to original releaser - only1oe

More interesting music in My Blog