Subcategories
Tags
Language
Tags

VA - Cole Porter Song Book: The Platinum Collection (1998) 2CD

Posted By: Designol
VA - Cole Porter Song Book: The Platinum Collection (1998) 2CD

VA - Cole Porter Song Book: The Platinum Collection (1998) 2CD
EAC | FLAC | Tracks (Cue&Log) ~ 342 Mb | Mp3 (CBR320) ~ 261 Mb | Scans included
Vocal Jazz, Vocal Pop, Standards, Swing | Label: Start | # PC622 | Time: 01:52:03

Cole Porter was one of a handful of American musical colossi. He had the genius to conjure up improbable rhyming lyrics to catchy melodies delivering not only a single song but as often or not a whole conundrum of numbers collected within the sphere of a show. This collection of 40 songs exemplifies the talent of Cole Porter and is a testament (tribute) to his longevity in musical history. Wit, humour, sophistication, rhythmic and key changes are small change to his ability.Who else could win a challenge to produce 'Miss Otis Regrets' after questioned whether he could write lyrics from the next words he heard? The cast of star celebrities in this collection say it all. Sinatra, Bennett,Crosby, Ella, Billie,Nat,Marlene, Judy to name a few. Also, the bigger bands of not so long ago, Nat Gonella, Jack Hylton, Geraldo. These need preservation orders and what better than endorse the master composer Mr Cole Porter? Add this to your collection.

Review by ACB(swansea), Amazon.co.uk

Cole Porter was born the grandson of wealthy Indiana entrepreneur J.O. Cole and demonstrated musical talent from an early age. Porter entered Yale in 1913, joined the glee club and composed fight songs, some of which are still sung at Yale today. Porter's attempt to make it through Harvard Law School proved disappointing, and by 1916 he was in New York trying out his first Broadway show, which closed after only 15 performances. Porter would soon follow it with yet more failures.

In 1917 Cole Porter move to Paris and lived there for much of the 1920s. Though bisexual, in 1919 Porter married, and in 1923 composed his only large-scale "serious" work, the ballet Within the Quota, a piece that anticipated the symphonic jazz genre. In Paris, Porter met songwriter and producer E. Ray Goetz, brother-in-law of Irving Berlin. The first show they wrote together, Paris (1928), finally broke Porter's long losing streak and provided him with his first hit song, "(Let's Do It) Let's Fall in Love." Porter's next production, Fifty Million Frenchman (1929), was a smash and established his reputation. For this show Porter provided both lyrics and music, which would remain his working method for the rest of his career.

Throughout the 1930s Porter maintained a steady stream of Broadway successes, including The Gay Divorce (1932), Anything Goes (1934), Jubilee (1935), and Red, Hot and Blue (1936). Many of the songs for which Porter is best known were written for these productions, such as "Night and Day," "Begin the Beguine," "You're the Top," and "I Get a Kick Out of You." In 1937 Porter was injured in a riding accident, which resulted in the loss of a leg. For Porter this was a devastating setback and it resulted in his withdrawal from the active social life he had previously known. Nonetheless, Porter enjoyed his greatest Broadway successes afterward, with Du Barry Was a Lady (1939), Panama Hattie (1942), and Kiss Me, Kate (1948), which broke all standing box-office records with an unheard of 1,077 performances. Porter also wrote for motion pictures and lived for many years in Hollywood.

With the death of his wife in 1954 Porter began to slow down, and when he lost his other leg in 1958 Porter stopped writing altogether, living out his remaining years in seclusion. Cole Porter was an enormously prolific songwriter; a published collection of his lyrics contains words for more than 800 songs.

Uncle Dave Lewis, Allmusic.com

VA - Cole Porter Song Book: The Platinum Collection (1998) 2CD



Tracklist:

CD1:

01. Frank Sinatra - I've Got You Under My Skin (02:03)
02. Ethel Merman with Johnny Green & His Orchestra - I Get A Kick Out Of You (03:07)
03. Tony Bennett - Anything Goes (02:21)
04. Bing Crosby - You'd Be So Nice To Come Home To (02:09)
05. Ella Fitzgerald - My Heart Belongs To Daddy (03:10)
06. Billie Holiday - Let's Do It (Let's Fall In Love) (02:58)
07. Frank Sinatra - You Do Something To Me (02:40)
08. Nat King Cole - True Love (02:00)
09. Frank Sinatra - Just One Of Those Things (02:16)
10. Marlene Dietrich - You Do Something To Me (02:59)
11. The Mills Brothers - Miss Otis Regrets (03:14)
12. Judy Garland - Love Of My LIfe (03:07)
13. Nelson Eddy - Rosalie (01:15)
14. Frank Sinatra - At Long Last Love (02:09)
15. Al Bowlly with Lew Stone and His Band - How Could We Be Wrong (03:14)
16. Cole Porter - I'm A Gigolo (02:23)
17. Jack Hylton and his Orchestra - They All Fall In Love (03:10)
18. Libby Holman with the Brunswick Studio Orchestra - Love For Sale (03:17)
19. Ambrose and his Orchestra with vocal by Sam Browne - All Through The Night (02:59)
20. Frankie Laine - Don't Fence Me In (03:06)

CD2:

01. Vic Damone - You'd Be So Easy To Love (03:24)
02. Bing Crosby - I Love You (02:38)
03. Billie Holiday - Night And Day (03:03)
04. Frank Sinatra - Begin The Beguine (03:10)
05. Lena Horne - At Long Last Love (02:47)
06. Ethel Merman with Orchestra Conducted by Johnny Green - You're The Top (02:15)
07. Cole Porter - Thank You So Much, Mrs Lowsborough-Goodby (02:25)
08. Nat Gonella and his Orchestra - Blow Gabriel Blow (03:06)
09. Jack Hylton and his Orchestra - Most Gentlemen Don't Like Love (02:16)
10. Jack Hylton and his Orchestra - The Banjo (That Man Joe Play) (02:48)
11. Bill Ternent and his Sweet Rhythm Orchestra - Who Knows? (03:13)
12. Jack Hylton and his Orchestra - Goodby Little Dream, Goodbye (03:19)
13. Victor Silvester and his Ballroom Orchestra - In The Still Of The Night (03:18)
14. Geraldo and his Orchestra - I;Ve Got My Eyes On You (03:10)
15. Nat Gonella and his Georgians - Swingin' The Jinx Away (03:02)
16. Ray Noble and his Orchestra - It's Bad For Me (03:19)
17. Carroll Gibbons and the Savoy Hotel Orpheans - It's D'Lovely (02:48)
18. Jack Hylton and his Orchestra - I'm In Love Again (03:18)
19. Ray Noble and his Orchestra - Experiment (02:23)
20. Geraldo and his Dance Orchestra - Hey, Good-Lookin'! (02:22)


Exact Audio Copy V1.0 beta 3 from 29. August 2011

EAC extraction logfile from 21. October 2014, 10:11

Various / Song Book (The Platinum Collection) CD01

Used drive : HL-DT-STDVDRAM GSA-T50L Adapter: 1 ID: 0

Read mode : Secure
Utilize accurate stream : Yes
Defeat audio cache : No
Make use of C2 pointers : No

Read offset correction : 667
Overread into Lead-In and Lead-Out : No
Fill up missing offset samples with silence : Yes
Delete leading and trailing silent blocks : No
Null samples used in CRC calculations : Yes
Used interface : Native Win32 interface for Win NT & 2000
Gap handling : Appended to previous track

Used output format : User Defined Encoder
Selected bitrate : 1024 kBit/s
Quality : High
Add ID3 tag : No
Command line compressor : C:\Program Files\Exact Audio Copy\Flac\flac.exe
Additional command line options : -8 -V -T "ARTIST=%artist%" -T "TITLE=%title%" -T "ALBUM=%albumtitle%" -T "DATE=%year%" -T "TRACKNUMBER=%tracknr%" -T "GENRE=%genre%" -T "PERFORMER=%albuminterpret%" -T "COMPOSER=%composer%" %haslyrics%–tag-from-file=LYRICS="%lyricsfile%"%haslyrics% -T "ALBUMARTIST=%albumartist%" -T "DISCNUMBER=%cdnumber%" -T "TOTALDISCS=%totalcds%" -T "TOTALTRACKS=%numtracks%" -T "COMMENT=%comment%" %source% -o %dest%


TOC of the extracted CD

Track | Start | Length | Start sector | End sector
––––––––––––––––––––––––––––-
1 | 0:00.00 | 2:03.47 | 0 | 9271
2 | 2:03.47 | 3:07.32 | 9272 | 23328
3 | 5:11.04 | 2:21.13 | 23329 | 33916
4 | 7:32.17 | 2:09.05 | 33917 | 43596
5 | 9:41.22 | 3:10.62 | 43597 | 57908
6 | 12:52.09 | 2:58.64 | 57909 | 71322
7 | 15:50.73 | 2:40.63 | 71323 | 83385
8 | 18:31.61 | 2:00.64 | 83386 | 92449
9 | 20:32.50 | 2:16.66 | 92450 | 102715
10 | 22:49.41 | 2:59.56 | 102716 | 116196
11 | 25:49.22 | 3:14.57 | 116197 | 130803
12 | 29:04.04 | 3:07.06 | 130804 | 144834
13 | 32:11.10 | 1:15.55 | 144835 | 150514
14 | 33:26.65 | 2:09.03 | 150515 | 160192
15 | 35:35.68 | 3:14.45 | 160193 | 174787
16 | 38:50.38 | 2:23.54 | 174788 | 185566
17 | 41:14.17 | 3:10.06 | 185567 | 199822
18 | 44:24.23 | 3:17.62 | 199823 | 214659
19 | 47:42.10 | 2:59.15 | 214660 | 228099
20 | 50:41.25 | 3:06.36 | 228100 | 242085


Track 1

Filename C:\FLAC\01 - Frank Sinatra - I've Got You Under My Skin.wav

Pre-gap length 0:00:02.00

Peak level 74.9 %
Extraction speed 4.2 X
Track quality 100.0 %
Test CRC 9151324B
Copy CRC 9151324B
Cannot be verified as accurate (confidence 3) [62B2B1FA], AccurateRip returned [45D68A8F] (AR v2)
Copy OK

Track 2

Filename C:\FLAC\02 - Ethel Merman with Johnny Green & His Orchestra - I Get A Kick Out Of You.wav

Pre-gap length 0:00:03.74

Peak level 66.8 %
Extraction speed 4.4 X
Track quality 100.0 %
Test CRC EA979714
Copy CRC EA979714
Cannot be verified as accurate (confidence 3) [5690C1AC], AccurateRip returned [607B34DC] (AR v2)
Copy OK

Track 3

Filename C:\FLAC\03 - Tony Bennett - Anything Goes.wav

Pre-gap length 0:00:03.76

Peak level 74.9 %
Extraction speed 2.4 X
Track quality 100.0 %
Test CRC C2F5D166
Copy CRC C2F5D166
Cannot be verified as accurate (confidence 3) [D243A0FD], AccurateRip returned [D9A69581] (AR v2)
Copy OK

Track 4

Filename C:\FLAC\04 - Bing Crosby - You'd Be So Nice To Come Home To.wav

Pre-gap length 0:00:03.76

Peak level 74.9 %
Extraction speed 2.3 X
Track quality 100.0 %
Test CRC 2B567824
Copy CRC 2B567824
Cannot be verified as accurate (confidence 3) [4F56EAA7], AccurateRip returned [625E3D9B] (AR v2)
Copy OK

Track 5

Filename C:\FLAC\05 - Ella Fitzgerald - My Heart Belongs To Daddy.wav

Pre-gap length 0:00:03.76

Peak level 66.8 %
Extraction speed 2.4 X
Track quality 100.0 %
Test CRC 39833AA7
Copy CRC 39833AA7
Cannot be verified as accurate (confidence 3) [502FAFAB], AccurateRip returned [62EDCA42] (AR v2)
Copy OK

Track 6

Filename C:\FLAC\06 - Billie Holiday - Let's Do It (Let's Fall In Love).wav

Pre-gap length 0:00:03.74

Peak level 66.8 %
Extraction speed 2.6 X
Track quality 100.0 %
Test CRC 22E5BC12
Copy CRC 22E5BC12
Cannot be verified as accurate (confidence 3) [9D4A6948], AccurateRip returned [0AC198DC] (AR v2)
Copy OK

Track 7

Filename C:\FLAC\07 - Frank Sinatra - You Do Something To Me.wav

Pre-gap length 0:00:03.76

Peak level 66.8 %
Extraction speed 2.7 X
Track quality 100.0 %
Test CRC 342DB439
Copy CRC 342DB439
Cannot be verified as accurate (confidence 3) [5989EB00], AccurateRip returned [83C649E8] (AR v2)
Copy OK

Track 8

Filename C:\FLAC\08 - Nat King Cole - True Love.wav

Pre-gap length 0:00:03.74

Peak level 74.9 %
Extraction speed 2.7 X
Track quality 99.9 %
Test CRC A6F5495F
Copy CRC A6F5495F
Cannot be verified as accurate (confidence 3) [035F1818], AccurateRip returned [23FE858D] (AR v2)
Copy OK

Track 9

Filename C:\FLAC\09 - Frank Sinatra - Just One Of Those Things.wav

Pre-gap length 0:00:03.74

Peak level 61.6 %
Extraction speed 3.0 X
Track quality 100.0 %
Test CRC F6D2E6A1
Copy CRC F6D2E6A1
Cannot be verified as accurate (confidence 3) [5095788F], AccurateRip returned [F7C25E0C] (AR v2)
Copy OK

Track 10

Filename C:\FLAC\10 - Marlene Dietrich - You Do Something To Me.wav

Pre-gap length 0:00:03.76

Peak level 74.9 %
Extraction speed 3.0 X
Track quality 100.0 %
Test CRC EDEE201A
Copy CRC EDEE201A
Cannot be verified as accurate (confidence 3) [52E4CDC5], AccurateRip returned [1CE55A96] (AR v2)
Copy OK

Track 11

Filename C:\FLAC\11 - The Mills Brothers - Miss Otis Regrets.wav

Pre-gap length 0:00:03.74

Peak level 63.0 %
Extraction speed 3.1 X
Track quality 100.0 %
Test CRC 54B868F5
Copy CRC 54B868F5
Cannot be verified as accurate (confidence 3) [F96E0AED], AccurateRip returned [02DB6052] (AR v2)
Copy OK

Track 12

Filename C:\FLAC\12 - Judy Garland - Love Of My LIfe.wav

Pre-gap length 0:00:03.76

Peak level 66.8 %
Extraction speed 3.3 X
Track quality 100.0 %
Test CRC 1130957D
Copy CRC 1130957D
Cannot be verified as accurate (confidence 3) [D981A4B8], AccurateRip returned [5B41B38B] (AR v2)
Copy OK

Track 13

Filename C:\FLAC\13 - Nelson Eddy - Rosalie.wav

Pre-gap length 0:00:03.76

Peak level 74.9 %
Extraction speed 3.4 X
Track quality 100.0 %
Test CRC 06D01293
Copy CRC 06D01293
Cannot be verified as accurate (confidence 3) [14A86385], AccurateRip returned [A028E10A] (AR v2)
Copy OK

Track 14

Filename C:\FLAC\14 - Frank Sinatra - At Long Last Love.wav

Pre-gap length 0:00:03.74

Peak level 84.1 %
Extraction speed 3.3 X
Track quality 100.0 %
Test CRC F174BDE4
Copy CRC F174BDE4
Cannot be verified as accurate (confidence 3) [DCA4138E], AccurateRip returned [10C46F77] (AR v2)
Copy OK

Track 15

Filename C:\FLAC\15 - Al Bowlly with Lew Stone and His Band - How Could We Be Wrong.wav

Pre-gap length 0:00:03.76

Peak level 74.9 %
Extraction speed 3.6 X
Track quality 100.0 %
Test CRC 4736B941
Copy CRC 4736B941
Cannot be verified as accurate (confidence 3) [E453516D], AccurateRip returned [EE0CFA22] (AR v2)
Copy OK

Track 16

Filename C:\FLAC\16 - Cole Porter - I'm A Gigolo.wav

Pre-gap length 0:00:03.74

Peak level 66.0 %
Extraction speed 3.5 X
Track quality 99.9 %
Test CRC 6500935E
Copy CRC 6500935E
Cannot be verified as accurate (confidence 3) [7595FD22], AccurateRip returned [715D3243] (AR v2)
Copy OK

Track 17

Filename C:\FLAC\17 - Jack Hylton and his Orchestra - They All Fall In Love.wav

Pre-gap length 0:00:03.76

Peak level 74.9 %
Extraction speed 3.7 X
Track quality 100.0 %
Test CRC 1B566E2B
Copy CRC 1B566E2B
Cannot be verified as accurate (confidence 3) [263E0F36], AccurateRip returned [C920B573] (AR v2)
Copy OK

Track 18

Filename C:\FLAC\18 - Libby Holman with the Brunswick Studio Orchestra - Love For Sale.wav

Pre-gap length 0:00:03.74

Peak level 66.8 %
Extraction speed 3.8 X
Track quality 100.0 %
Test CRC 23AA90E6
Copy CRC 23AA90E6
Cannot be verified as accurate (confidence 3) [77C2AFEF], AccurateRip returned [CBC5A60A] (AR v2)
Copy OK

Track 19

Filename C:\FLAC\19 - Ambrose and his Orchestra with vocal by Sam Browne - All Through The Night.wav

Pre-gap length 0:00:03.74

Peak level 84.1 %
Extraction speed 3.9 X
Track quality 100.0 %
Test CRC D51506A2
Copy CRC D51506A2
Cannot be verified as accurate (confidence 3) [550EE579], AccurateRip returned [8FB7D2AE] (AR v2)
Copy OK

Track 20

Filename C:\FLAC\20 - Frankie Laine - Don't Fence Me In.wav

Pre-gap length 0:00:03.76

Peak level 64.5 %
Extraction speed 3.9 X
Track quality 100.0 %
Test CRC 6B618F15
Copy CRC 6B618F15
Cannot be verified as accurate (confidence 3) [A2D58837], AccurateRip returned [36EEABDE] (AR v2)
Copy OK


No tracks could be verified as accurate
You may have a different pressing from the one(s) in the database

No errors occurred

End of status report

–– CUETools DB Plugin V2.1.3

[CTDB TOCID: 88GBYljd3JVJM8yeL5iPfijkItM-] found, Submit result: 88GBYljd3JVJM8yeL5iPfijkItM- has been confirmed
[09dd415d] (2/2) Accurately ripped


==== Log checksum B2E6FF110657726E166D4C20842E18D2224E90B2F64313640C059A44023C2984 ====

––––––––––––––––––––––––––––––

Exact Audio Copy V1.0 beta 3 from 29. August 2011

EAC extraction logfile from 21. October 2014, 10:11

Various / Song Book (The Platinum Collection) CD01

Used drive : HL-DT-STDVDRAM GSA-T50L Adapter: 1 ID: 0

Read mode : Secure
Utilize accurate stream : Yes
Defeat audio cache : No
Make use of C2 pointers : No

Read offset correction : 667
Overread into Lead-In and Lead-Out : No
Fill up missing offset samples with silence : Yes
Delete leading and trailing silent blocks : No
Null samples used in CRC calculations : Yes
Used interface : Native Win32 interface for Win NT & 2000
Gap handling : Appended to previous track

Used output format : User Defined Encoder
Selected bitrate : 1024 kBit/s
Quality : High
Add ID3 tag : No
Command line compressor : C:\Program Files\Exact Audio Copy\Flac\flac.exe
Additional command line options : -8 -V -T "ARTIST=%artist%" -T "TITLE=%title%" -T "ALBUM=%albumtitle%" -T "DATE=%year%" -T "TRACKNUMBER=%tracknr%" -T "GENRE=%genre%" -T "PERFORMER=%albuminterpret%" -T "COMPOSER=%composer%" %haslyrics%–tag-from-file=LYRICS="%lyricsfile%"%haslyrics% -T "ALBUMARTIST=%albumartist%" -T "DISCNUMBER=%cdnumber%" -T "TOTALDISCS=%totalcds%" -T "TOTALTRACKS=%numtracks%" -T "COMMENT=%comment%" %source% -o %dest%


TOC of the extracted CD

Track | Start | Length | Start sector | End sector
––––––––––––––––––––––––––––-
1 | 0:00.00 | 2:03.47 | 0 | 9271
2 | 2:03.47 | 3:07.32 | 9272 | 23328
3 | 5:11.04 | 2:21.13 | 23329 | 33916
4 | 7:32.17 | 2:09.05 | 33917 | 43596
5 | 9:41.22 | 3:10.62 | 43597 | 57908
6 | 12:52.09 | 2:58.64 | 57909 | 71322
7 | 15:50.73 | 2:40.63 | 71323 | 83385
8 | 18:31.61 | 2:00.64 | 83386 | 92449
9 | 20:32.50 | 2:16.66 | 92450 | 102715
10 | 22:49.41 | 2:59.56 | 102716 | 116196
11 | 25:49.22 | 3:14.57 | 116197 | 130803
12 | 29:04.04 | 3:07.06 | 130804 | 144834
13 | 32:11.10 | 1:15.55 | 144835 | 150514
14 | 33:26.65 | 2:09.03 | 150515 | 160192
15 | 35:35.68 | 3:14.45 | 160193 | 174787
16 | 38:50.38 | 2:23.54 | 174788 | 185566
17 | 41:14.17 | 3:10.06 | 185567 | 199822
18 | 44:24.23 | 3:17.62 | 199823 | 214659
19 | 47:42.10 | 2:59.15 | 214660 | 228099
20 | 50:41.25 | 3:06.36 | 228100 | 242085


Track 1

Filename C:\FLAC\01 - Frank Sinatra - I've Got You Under My Skin.wav

Pre-gap length 0:00:02.00

Peak level 74.9 %
Extraction speed 4.2 X
Track quality 100.0 %
Test CRC 9151324B
Copy CRC 9151324B
Cannot be verified as accurate (confidence 3) [62B2B1FA], AccurateRip returned [45D68A8F] (AR v2)
Copy OK

Track 2

Filename C:\FLAC\02 - Ethel Merman with Johnny Green & His Orchestra - I Get A Kick Out Of You.wav

Pre-gap length 0:00:03.74

Peak level 66.8 %
Extraction speed 4.4 X
Track quality 100.0 %
Test CRC EA979714
Copy CRC EA979714
Cannot be verified as accurate (confidence 3) [5690C1AC], AccurateRip returned [607B34DC] (AR v2)
Copy OK

Track 3

Filename C:\FLAC\03 - Tony Bennett - Anything Goes.wav

Pre-gap length 0:00:03.76

Peak level 74.9 %
Extraction speed 2.4 X
Track quality 100.0 %
Test CRC C2F5D166
Copy CRC C2F5D166
Cannot be verified as accurate (confidence 3) [D243A0FD], AccurateRip returned [D9A69581] (AR v2)
Copy OK

Track 4

Filename C:\FLAC\04 - Bing Crosby - You'd Be So Nice To Come Home To.wav

Pre-gap length 0:00:03.76

Peak level 74.9 %
Extraction speed 2.3 X
Track quality 100.0 %
Test CRC 2B567824
Copy CRC 2B567824
Cannot be verified as accurate (confidence 3) [4F56EAA7], AccurateRip returned [625E3D9B] (AR v2)
Copy OK

Track 5

Filename C:\FLAC\05 - Ella Fitzgerald - My Heart Belongs To Daddy.wav

Pre-gap length 0:00:03.76

Peak level 66.8 %
Extraction speed 2.4 X
Track quality 100.0 %
Test CRC 39833AA7
Copy CRC 39833AA7
Cannot be verified as accurate (confidence 3) [502FAFAB], AccurateRip returned [62EDCA42] (AR v2)
Copy OK

Track 6

Filename C:\FLAC\06 - Billie Holiday - Let's Do It (Let's Fall In Love).wav

Pre-gap length 0:00:03.74

Peak level 66.8 %
Extraction speed 2.6 X
Track quality 100.0 %
Test CRC 22E5BC12
Copy CRC 22E5BC12
Cannot be verified as accurate (confidence 3) [9D4A6948], AccurateRip returned [0AC198DC] (AR v2)
Copy OK

Track 7

Filename C:\FLAC\07 - Frank Sinatra - You Do Something To Me.wav

Pre-gap length 0:00:03.76

Peak level 66.8 %
Extraction speed 2.7 X
Track quality 100.0 %
Test CRC 342DB439
Copy CRC 342DB439
Cannot be verified as accurate (confidence 3) [5989EB00], AccurateRip returned [83C649E8] (AR v2)
Copy OK

Track 8

Filename C:\FLAC\08 - Nat King Cole - True Love.wav

Pre-gap length 0:00:03.74

Peak level 74.9 %
Extraction speed 2.7 X
Track quality 99.9 %
Test CRC A6F5495F
Copy CRC A6F5495F
Cannot be verified as accurate (confidence 3) [035F1818], AccurateRip returned [23FE858D] (AR v2)
Copy OK

Track 9

Filename C:\FLAC\09 - Frank Sinatra - Just One Of Those Things.wav

Pre-gap length 0:00:03.74

Peak level 61.6 %
Extraction speed 3.0 X
Track quality 100.0 %
Test CRC F6D2E6A1
Copy CRC F6D2E6A1
Cannot be verified as accurate (confidence 3) [5095788F], AccurateRip returned [F7C25E0C] (AR v2)
Copy OK

Track 10

Filename C:\FLAC\10 - Marlene Dietrich - You Do Something To Me.wav

Pre-gap length 0:00:03.76

Peak level 74.9 %
Extraction speed 3.0 X
Track quality 100.0 %
Test CRC EDEE201A
Copy CRC EDEE201A
Cannot be verified as accurate (confidence 3) [52E4CDC5], AccurateRip returned [1CE55A96] (AR v2)
Copy OK

Track 11

Filename C:\FLAC\11 - The Mills Brothers - Miss Otis Regrets.wav

Pre-gap length 0:00:03.74

Peak level 63.0 %
Extraction speed 3.1 X
Track quality 100.0 %
Test CRC 54B868F5
Copy CRC 54B868F5
Cannot be verified as accurate (confidence 3) [F96E0AED], AccurateRip returned [02DB6052] (AR v2)
Copy OK

Track 12

Filename C:\FLAC\12 - Judy Garland - Love Of My LIfe.wav

Pre-gap length 0:00:03.76

Peak level 66.8 %
Extraction speed 3.3 X
Track quality 100.0 %
Test CRC 1130957D
Copy CRC 1130957D
Cannot be verified as accurate (confidence 3) [D981A4B8], AccurateRip returned [5B41B38B] (AR v2)
Copy OK

Track 13

Filename C:\FLAC\13 - Nelson Eddy - Rosalie.wav

Pre-gap length 0:00:03.76

Peak level 74.9 %
Extraction speed 3.4 X
Track quality 100.0 %
Test CRC 06D01293
Copy CRC 06D01293
Cannot be verified as accurate (confidence 3) [14A86385], AccurateRip returned [A028E10A] (AR v2)
Copy OK

Track 14

Filename C:\FLAC\14 - Frank Sinatra - At Long Last Love.wav

Pre-gap length 0:00:03.74

Peak level 84.1 %
Extraction speed 3.3 X
Track quality 100.0 %
Test CRC F174BDE4
Copy CRC F174BDE4
Cannot be verified as accurate (confidence 3) [DCA4138E], AccurateRip returned [10C46F77] (AR v2)
Copy OK

Track 15

Filename C:\FLAC\15 - Al Bowlly with Lew Stone and His Band - How Could We Be Wrong.wav

Pre-gap length 0:00:03.76

Peak level 74.9 %
Extraction speed 3.6 X
Track quality 100.0 %
Test CRC 4736B941
Copy CRC 4736B941
Cannot be verified as accurate (confidence 3) [E453516D], AccurateRip returned [EE0CFA22] (AR v2)
Copy OK

Track 16

Filename C:\FLAC\16 - Cole Porter - I'm A Gigolo.wav

Pre-gap length 0:00:03.74

Peak level 66.0 %
Extraction speed 3.5 X
Track quality 99.9 %
Test CRC 6500935E
Copy CRC 6500935E
Cannot be verified as accurate (confidence 3) [7595FD22], AccurateRip returned [715D3243] (AR v2)
Copy OK

Track 17

Filename C:\FLAC\17 - Jack Hylton and his Orchestra - They All Fall In Love.wav

Pre-gap length 0:00:03.76

Peak level 74.9 %
Extraction speed 3.7 X
Track quality 100.0 %
Test CRC 1B566E2B
Copy CRC 1B566E2B
Cannot be verified as accurate (confidence 3) [263E0F36], AccurateRip returned [C920B573] (AR v2)
Copy OK

Track 18

Filename C:\FLAC\18 - Libby Holman with the Brunswick Studio Orchestra - Love For Sale.wav

Pre-gap length 0:00:03.74

Peak level 66.8 %
Extraction speed 3.8 X
Track quality 100.0 %
Test CRC 23AA90E6
Copy CRC 23AA90E6
Cannot be verified as accurate (confidence 3) [77C2AFEF], AccurateRip returned [CBC5A60A] (AR v2)
Copy OK

Track 19

Filename C:\FLAC\19 - Ambrose and his Orchestra with vocal by Sam Browne - All Through The Night.wav

Pre-gap length 0:00:03.74

Peak level 84.1 %
Extraction speed 3.9 X
Track quality 100.0 %
Test CRC D51506A2
Copy CRC D51506A2
Cannot be verified as accurate (confidence 3) [550EE579], AccurateRip returned [8FB7D2AE] (AR v2)
Copy OK

Track 20

Filename C:\FLAC\20 - Frankie Laine - Don't Fence Me In.wav

Pre-gap length 0:00:03.76

Peak level 64.5 %
Extraction speed 3.9 X
Track quality 100.0 %
Test CRC 6B618F15
Copy CRC 6B618F15
Cannot be verified as accurate (confidence 3) [A2D58837], AccurateRip returned [36EEABDE] (AR v2)
Copy OK


No tracks could be verified as accurate
You may have a different pressing from the one(s) in the database

No errors occurred

End of status report

–– CUETools DB Plugin V2.1.3

[CTDB TOCID: 88GBYljd3JVJM8yeL5iPfijkItM-] found, Submit result: 88GBYljd3JVJM8yeL5iPfijkItM- has been confirmed
[09dd415d] (2/2) Accurately ripped


==== Log checksum B2E6FF110657726E166D4C20842E18D2224E90B2F64313640C059A44023C2984 ====

foobar2000 1.2 / Dynamic Range Meter 1.1.1
log date: 2014-10-25 01:41:15

––––––––––––––––––––––––––––––––––––––––
Analyzed: Al Bowlly with Lew Stone and His Band / Song Book (The Platinum Collection) CD01 (1)
Ambrose and his Orchestra with vocal by Sam Browne / Song Book (The Platinum Collection) CD01 (2)
Billie Holiday / Song Book (The Platinum Collection) CD01 (3)
Bing Crosby / Song Book (The Platinum Collection) CD01 (4)
Cole Porter / Song Book (The Platinum Collection) CD01 (5)
Ella Fitzgerald / Song Book (The Platinum Collection) CD01 (6)
Ethel Merman with Johnny Green & His Orchestra / Song Book (The Platinum Collection) CD01 (7)
Frank Sinatra / Song Book (The Platinum Collection) CD01 (8-11)
Frankie Laine / Song Book (The Platinum Collection) CD01 (12)
Jack Hylton and his Orchestra / Song Book (The Platinum Collection) CD01 (13)
Judy Garland / Song Book (The Platinum Collection) CD01 (14)
Libby Holman with the Brunswick Studio Orchestra / Song Book (The Platinum Collection) CD01 (15)
Marlene Dietrich / Song Book (The Platinum Collection) CD01 (16)
Nat King Cole / Song Book (The Platinum Collection) CD01 (17)
Nelson Eddy / Song Book (The Platinum Collection) CD01 (18)
The Mills Brothers / Song Book (The Platinum Collection) CD01 (19)
Tony Bennett / Song Book (The Platinum Collection) CD01 (20)
––––––––––––––––––––––––––––––––––––––––

DR Peak RMS Duration Track
––––––––––––––––––––––––––––––––––––––––
DR12 -2.50 dB -15.60 dB 3:15 15-How Could We Be Wrong
DR11 -1.50 dB -15.95 dB 2:59 19-All Through The Night
DR10 -3.50 dB -16.73 dB 2:59 06-Let's Do It (Let's Fall In Love)
DR10 -2.50 dB -15.88 dB 2:09 04-You'd Be So Nice To Come Home To
DR12 -3.60 dB -18.64 dB 2:24 16-I'm A Gigolo
DR11 -3.50 dB -16.63 dB 3:11 05-My Heart Belongs To Daddy
DR9 -3.50 dB -15.42 dB 3:07 02-I Get A Kick Out Of You
DR11 -2.50 dB -16.96 dB 2:04 01-I've Got You Under My Skin
DR11 -3.50 dB -17.52 dB 2:41 07-You Do Something To Me
DR10 -4.20 dB -16.17 dB 2:17 09-Just One Of Those Things
DR11 -1.50 dB -14.42 dB 2:09 14-At Long Last Love
DR12 -3.80 dB -17.66 dB 3:06 20-Don't Fence Me In
DR12 -2.50 dB -16.70 dB 3:10 17-They All Fall In Love
DR10 -3.50 dB -16.68 dB 3:07 12-Love Of My LIfe
DR11 -3.50 dB -17.37 dB 3:18 18-Love For Sale
DR10 -2.50 dB -16.83 dB 3:00 10-You Do Something To Me
DR10 -2.50 dB -15.55 dB 2:01 08-True Love
DR10 -2.50 dB -15.66 dB 1:16 13-Rosalie
DR11 -4.00 dB -18.88 dB 3:15 11-Miss Otis Regrets
DR10 -2.50 dB -14.17 dB 2:21 03-Anything Goes
––––––––––––––––––––––––––––––––––––––––

Number of tracks: 20
Official DR value: DR11

Samplerate: 44100 Hz
Channels: 2
Bits per sample: 16
Bitrate: 507 kbps
Codec: FLAC
================================================================================


Exact Audio Copy V1.0 beta 3 from 29. August 2011

EAC extraction logfile from 21. October 2014, 13:27

Various / Song Book (The Platinum Collection) CD02

Used drive : HL-DT-STDVDRAM GSA-T50L Adapter: 1 ID: 0

Read mode : Secure
Utilize accurate stream : Yes
Defeat audio cache : No
Make use of C2 pointers : No

Read offset correction : 667
Overread into Lead-In and Lead-Out : No
Fill up missing offset samples with silence : Yes
Delete leading and trailing silent blocks : No
Null samples used in CRC calculations : Yes
Used interface : Native Win32 interface for Win NT & 2000
Gap handling : Appended to previous track

Used output format : User Defined Encoder
Selected bitrate : 1024 kBit/s
Quality : High
Add ID3 tag : No
Command line compressor : C:\Program Files\Exact Audio Copy\Flac\flac.exe
Additional command line options : -8 -V -T "ARTIST=%artist%" -T "TITLE=%title%" -T "ALBUM=%albumtitle%" -T "DATE=%year%" -T "TRACKNUMBER=%tracknr%" -T "GENRE=%genre%" -T "PERFORMER=%albuminterpret%" -T "COMPOSER=%composer%" %haslyrics%–tag-from-file=LYRICS="%lyricsfile%"%haslyrics% -T "ALBUMARTIST=%albumartist%" -T "DISCNUMBER=%cdnumber%" -T "TOTALDISCS=%totalcds%" -T "TOTALTRACKS=%numtracks%" -T "COMMENT=%comment%" %source% -o %dest%


TOC of the extracted CD

Track | Start | Length | Start sector | End sector
––––––––––––––––––––––––––––-
1 | 0:00.00 | 3:24.51 | 0 | 15350
2 | 3:24.51 | 2:38.20 | 15351 | 27220
3 | 6:02.71 | 3:03.15 | 27221 | 40960
4 | 9:06.11 | 3:10.29 | 40961 | 55239
5 | 12:16.40 | 2:47.59 | 55240 | 67823
6 | 15:04.24 | 2:15.58 | 67824 | 78006
7 | 17:20.07 | 2:25.03 | 78007 | 88884
8 | 19:45.10 | 3:06.51 | 88885 | 102885
9 | 22:51.61 | 2:16.68 | 102886 | 113153
10 | 25:08.54 | 2:48.45 | 113154 | 125798
11 | 27:57.24 | 3:13.54 | 125799 | 140327
12 | 31:11.03 | 3:19.71 | 140328 | 155323
13 | 34:30.74 | 3:18.74 | 155324 | 170247
14 | 37:49.73 | 3:10.55 | 170248 | 184552
15 | 41:00.53 | 3:02.63 | 184553 | 198265
16 | 44:03.41 | 3:19.16 | 198266 | 213206
17 | 47:22.57 | 2:48.04 | 213207 | 225810
18 | 50:10.61 | 3:18.64 | 225811 | 240724
19 | 53:29.50 | 2:23.74 | 240725 | 251523
20 | 55:53.49 | 2:22.01 | 251524 | 262174


Track 1

Filename C:\FLAC\01 - Vic Damone - You'd Be So Easy To Love.wav

Pre-gap length 0:00:02.00

Peak level 79.4 %
Extraction speed 4.2 X
Track quality 100.0 %
Test CRC 533F434F
Copy CRC 533F434F
Cannot be verified as accurate (confidence 2) [4FE1996A], AccurateRip returned [BF77950B] (AR v2)
Copy OK

Track 2

Filename C:\FLAC\02 - Bing Crosby - I Love You.wav

Pre-gap length 0:00:03.74

Peak level 70.7 %
Extraction speed 4.5 X
Track quality 100.0 %
Test CRC 24FDDC9A
Copy CRC 24FDDC9A
Cannot be verified as accurate (confidence 3) [26E18CE8], AccurateRip returned [C811818C] (AR v2)
Copy OK

Track 3

Filename C:\FLAC\03 - Billie Holiday - Night And Day.wav

Pre-gap length 0:00:03.76

Peak level 63.0 %
Extraction speed 4.9 X
Track quality 100.0 %
Test CRC 0F526EB8
Copy CRC 0F526EB8
Cannot be verified as accurate (confidence 3) [9FDF941A], AccurateRip returned [7805C64B] (AR v2)
Copy OK

Track 4

Filename C:\FLAC\04 - Frank Sinatra - Begin The Beguine.wav

Pre-gap length 0:00:03.76

Peak level 89.1 %
Extraction speed 5.2 X
Track quality 100.0 %
Test CRC F9972844
Copy CRC F9972844
Cannot be verified as accurate (confidence 3) [D4186033], AccurateRip returned [2316E1B5] (AR v2)
Copy OK

Track 5

Filename C:\FLAC\05 - Lena Horne - At Long Last Love.wav

Pre-gap length 0:00:03.76

Peak level 89.1 %
Extraction speed 5.8 X
Track quality 100.0 %
Test CRC 4E8ABA1C
Copy CRC 4E8ABA1C
Cannot be verified as accurate (confidence 3) [7D10FBC5], AccurateRip returned [3952FFBF] (AR v2)
Copy OK

Track 6

Filename C:\FLAC\06 - Ethel Merman with Orchestra Conducted by Johnny Green - You're The Top.wav

Pre-gap length 0:00:03.76

Peak level 70.7 %
Extraction speed 5.6 X
Track quality 99.9 %
Test CRC 3EA14624
Copy CRC 3EA14624
Cannot be verified as accurate (confidence 3) [39E2CE8E], AccurateRip returned [BB19C3B9] (AR v2)
Copy OK

Track 7

Filename C:\FLAC\07 - Cole Porter - Thank You So Much, Mrs Lowsborough-Goodby.wav

Pre-gap length 0:00:03.70

Peak level 79.4 %
Extraction speed 5.9 X
Track quality 100.0 %
Test CRC 676BDE46
Copy CRC 676BDE46
Cannot be verified as accurate (confidence 3) [8610220D], AccurateRip returned [9712C0F0] (AR v2)
Copy OK

Track 8

Filename C:\FLAC\08 - Nat Gonella and his Orchestra - Blow Gabriel Blow.wav

Pre-gap length 0:00:03.76

Peak level 63.0 %
Extraction speed 6.5 X
Track quality 100.0 %
Test CRC 7816BB84
Copy CRC 7816BB84
Cannot be verified as accurate (confidence 3) [0C659199], AccurateRip returned [D2EC288C] (AR v2)
Copy OK

Track 9

Filename C:\FLAC\09 - Jack Hylton and his Orchestra - Most Gentlemen Don't Like Love.wav

Pre-gap length 0:00:03.76

Peak level 99.9 %
Extraction speed 6.7 X
Track quality 100.0 %
Test CRC B4DB9C64
Copy CRC B4DB9C64
Cannot be verified as accurate (confidence 3) [0B639A3C], AccurateRip returned [FC2ED03D] (AR v2)
Copy OK

Track 10

Filename C:\FLAC\10 - Jack Hylton and his Orchestra - The Banjo (That Man Joe Play).wav

Pre-gap length 0:00:03.76

Peak level 89.1 %
Extraction speed 6.6 X
Track quality 100.0 %
Test CRC 43DB1EAC
Copy CRC 43DB1EAC
Cannot be verified as accurate (confidence 3) [8ECF2924], AccurateRip returned [7CF358B8] (AR v2)
Copy OK

Track 11

Filename C:\FLAC\11 - Bill Ternent and his Sweet Rhythm Orchestra - Who Knows.wav

Pre-gap length 0:00:03.76

Peak level 70.7 %
Extraction speed 7.0 X
Track quality 100.0 %
Test CRC 1C60F45C
Copy CRC 1C60F45C
Cannot be verified as accurate (confidence 3) [2E37E235], AccurateRip returned [101BD9AB] (AR v2)
Copy OK

Track 12

Filename C:\FLAC\12 - Jack Hylton and his Orchestra - Goodby Little Dream, Goodbye.wav

Pre-gap length 0:00:03.76

Peak level 89.1 %
Extraction speed 7.5 X
Track quality 100.0 %
Test CRC 8146AC53
Copy CRC 8146AC53
Cannot be verified as accurate (confidence 3) [050F7749], AccurateRip returned [9DF9683E] (AR v2)
Copy OK

Track 13

Filename C:\FLAC\13 - Victor Silvester and his Ballroom Orchestra - In The Still Of The Night.wav

Pre-gap length 0:00:03.76

Peak level 89.1 %
Extraction speed 7.7 X
Track quality 100.0 %
Test CRC ABF978A6
Copy CRC ABF978A6
Cannot be verified as accurate (confidence 3) [0B1FF787], AccurateRip returned [2918E652] (AR v2)
Copy OK

Track 14

Filename C:\FLAC\14 - Geraldo and his Orchestra - I;Ve Got My Eyes On You.wav

Pre-gap length 0:00:03.76

Peak level 79.4 %
Extraction speed 7.6 X
Track quality 100.0 %
Test CRC D8FE2897
Copy CRC D8FE2897
Cannot be verified as accurate (confidence 3) [7BE86E8F], AccurateRip returned [E606E98F] (AR v2)
Copy OK

Track 15

Filename C:\FLAC\15 - Nat Gonella and his Georgians - Swingin' The Jinx Away.wav

Pre-gap length 0:00:03.76

Peak level 89.1 %
Extraction speed 7.9 X
Track quality 100.0 %
Test CRC EDDF53A7
Copy CRC EDDF53A7
Cannot be verified as accurate (confidence 3) [1D84C82D], AccurateRip returned [BD8F118C] (AR v2)
Copy OK

Track 16

Filename C:\FLAC\16 - Ray Noble and his Orchestra - It's Bad For Me.wav

Pre-gap length 0:00:03.76

Peak level 70.7 %
Extraction speed 8.0 X
Track quality 99.9 %
Test CRC DCA19BF9
Copy CRC DCA19BF9
Cannot be verified as accurate (confidence 3) [D07020DE], AccurateRip returned [2EFA1B7D] (AR v2)
Copy OK

Track 17

Filename C:\FLAC\17 - Carroll Gibbons and the Savoy Hotel Orpheans - It's D'Lovely.wav

Pre-gap length 0:00:03.76

Peak level 89.1 %
Extraction speed 8.6 X
Track quality 100.0 %
Test CRC 3043E453
Copy CRC 3043E453
Cannot be verified as accurate (confidence 3) [A6F54428], AccurateRip returned [936721EB] (AR v2)
Copy OK

Track 18

Filename C:\FLAC\18 - Jack Hylton and his Orchestra - I'm In Love Again.wav

Pre-gap length 0:00:03.76

Peak level 79.4 %
Extraction speed 8.4 X
Track quality 99.9 %
Test CRC 1D16BA62
Copy CRC 1D16BA62
Cannot be verified as accurate (confidence 3) [418C6B92], AccurateRip returned [F2F17CC1] (AR v2)
Copy OK

Track 19

Filename C:\FLAC\19 - Ray Noble and his Orchestra - Experiment.wav

Pre-gap length 0:00:03.73

Peak level 99.9 %
Extraction speed 8.5 X
Track quality 100.0 %
Test CRC 69EA224B
Copy CRC 69EA224B
Cannot be verified as accurate (confidence 3) [D1A9D7E6], AccurateRip returned [E0760FDC] (AR v2)
Copy OK

Track 20

Filename C:\FLAC\20 - Geraldo and his Dance Orchestra - Hey, Good-Lookin'!.wav

Pre-gap length 0:00:03.76

Peak level 89.1 %
Extraction speed 8.6 X
Track quality 100.0 %
Test CRC 2F268181
Copy CRC 2F268181
Cannot be verified as accurate (confidence 3) [EAD77670], AccurateRip returned [A0C6044E] (AR v2)
Copy OK


No tracks could be verified as accurate
You may have a different pressing from the one(s) in the database

No errors occurred

End of status report

–– CUETools DB Plugin V2.1.3

[CTDB TOCID: e6ZsIg_bqP6TQnvYlNLUPJsx8dg-] found, Submit result: e6ZsIg_bqP6TQnvYlNLUPJsx8dg- has been confirmed
[2fa40127] (2/2) Accurately ripped


==== Log checksum BAE0A85F96AEA6DEA907A8000EC5A34E4A2908BE907D29723987C495061CDFE0 ====

––––––––––––––––––––––––––––––

Exact Audio Copy V1.0 beta 3 from 29. August 2011

EAC extraction logfile from 21. October 2014, 13:27

Various / Song Book (The Platinum Collection) CD02

Used drive : HL-DT-STDVDRAM GSA-T50L Adapter: 1 ID: 0

Read mode : Secure
Utilize accurate stream : Yes
Defeat audio cache : No
Make use of C2 pointers : No

Read offset correction : 667
Overread into Lead-In and Lead-Out : No
Fill up missing offset samples with silence : Yes
Delete leading and trailing silent blocks : No
Null samples used in CRC calculations : Yes
Used interface : Native Win32 interface for Win NT & 2000
Gap handling : Appended to previous track

Used output format : User Defined Encoder
Selected bitrate : 1024 kBit/s
Quality : High
Add ID3 tag : No
Command line compressor : C:\Program Files\Exact Audio Copy\Flac\flac.exe
Additional command line options : -8 -V -T "ARTIST=%artist%" -T "TITLE=%title%" -T "ALBUM=%albumtitle%" -T "DATE=%year%" -T "TRACKNUMBER=%tracknr%" -T "GENRE=%genre%" -T "PERFORMER=%albuminterpret%" -T "COMPOSER=%composer%" %haslyrics%–tag-from-file=LYRICS="%lyricsfile%"%haslyrics% -T "ALBUMARTIST=%albumartist%" -T "DISCNUMBER=%cdnumber%" -T "TOTALDISCS=%totalcds%" -T "TOTALTRACKS=%numtracks%" -T "COMMENT=%comment%" %source% -o %dest%


TOC of the extracted CD

Track | Start | Length | Start sector | End sector
––––––––––––––––––––––––––––-
1 | 0:00.00 | 3:24.51 | 0 | 15350
2 | 3:24.51 | 2:38.20 | 15351 | 27220
3 | 6:02.71 | 3:03.15 | 27221 | 40960
4 | 9:06.11 | 3:10.29 | 40961 | 55239
5 | 12:16.40 | 2:47.59 | 55240 | 67823
6 | 15:04.24 | 2:15.58 | 67824 | 78006
7 | 17:20.07 | 2:25.03 | 78007 | 88884
8 | 19:45.10 | 3:06.51 | 88885 | 102885
9 | 22:51.61 | 2:16.68 | 102886 | 113153
10 | 25:08.54 | 2:48.45 | 113154 | 125798
11 | 27:57.24 | 3:13.54 | 125799 | 140327
12 | 31:11.03 | 3:19.71 | 140328 | 155323
13 | 34:30.74 | 3:18.74 | 155324 | 170247
14 | 37:49.73 | 3:10.55 | 170248 | 184552
15 | 41:00.53 | 3:02.63 | 184553 | 198265
16 | 44:03.41 | 3:19.16 | 198266 | 213206
17 | 47:22.57 | 2:48.04 | 213207 | 225810
18 | 50:10.61 | 3:18.64 | 225811 | 240724
19 | 53:29.50 | 2:23.74 | 240725 | 251523
20 | 55:53.49 | 2:22.01 | 251524 | 262174


Track 1

Filename C:\FLAC\01 - Vic Damone - You'd Be So Easy To Love.wav

Pre-gap length 0:00:02.00

Peak level 79.4 %
Extraction speed 4.2 X
Track quality 100.0 %
Test CRC 533F434F
Copy CRC 533F434F
Cannot be verified as accurate (confidence 2) [4FE1996A], AccurateRip returned [BF77950B] (AR v2)
Copy OK

Track 2

Filename C:\FLAC\02 - Bing Crosby - I Love You.wav

Pre-gap length 0:00:03.74

Peak level 70.7 %
Extraction speed 4.5 X
Track quality 100.0 %
Test CRC 24FDDC9A
Copy CRC 24FDDC9A
Cannot be verified as accurate (confidence 3) [26E18CE8], AccurateRip returned [C811818C] (AR v2)
Copy OK

Track 3

Filename C:\FLAC\03 - Billie Holiday - Night And Day.wav

Pre-gap length 0:00:03.76

Peak level 63.0 %
Extraction speed 4.9 X
Track quality 100.0 %
Test CRC 0F526EB8
Copy CRC 0F526EB8
Cannot be verified as accurate (confidence 3) [9FDF941A], AccurateRip returned [7805C64B] (AR v2)
Copy OK

Track 4

Filename C:\FLAC\04 - Frank Sinatra - Begin The Beguine.wav

Pre-gap length 0:00:03.76

Peak level 89.1 %
Extraction speed 5.2 X
Track quality 100.0 %
Test CRC F9972844
Copy CRC F9972844
Cannot be verified as accurate (confidence 3) [D4186033], AccurateRip returned [2316E1B5] (AR v2)
Copy OK

Track 5

Filename C:\FLAC\05 - Lena Horne - At Long Last Love.wav

Pre-gap length 0:00:03.76

Peak level 89.1 %
Extraction speed 5.8 X
Track quality 100.0 %
Test CRC 4E8ABA1C
Copy CRC 4E8ABA1C
Cannot be verified as accurate (confidence 3) [7D10FBC5], AccurateRip returned [3952FFBF] (AR v2)
Copy OK

Track 6

Filename C:\FLAC\06 - Ethel Merman with Orchestra Conducted by Johnny Green - You're The Top.wav

Pre-gap length 0:00:03.76

Peak level 70.7 %
Extraction speed 5.6 X
Track quality 99.9 %
Test CRC 3EA14624
Copy CRC 3EA14624
Cannot be verified as accurate (confidence 3) [39E2CE8E], AccurateRip returned [BB19C3B9] (AR v2)
Copy OK

Track 7

Filename C:\FLAC\07 - Cole Porter - Thank You So Much, Mrs Lowsborough-Goodby.wav

Pre-gap length 0:00:03.70

Peak level 79.4 %
Extraction speed 5.9 X
Track quality 100.0 %
Test CRC 676BDE46
Copy CRC 676BDE46
Cannot be verified as accurate (confidence 3) [8610220D], AccurateRip returned [9712C0F0] (AR v2)
Copy OK

Track 8

Filename C:\FLAC\08 - Nat Gonella and his Orchestra - Blow Gabriel Blow.wav

Pre-gap length 0:00:03.76

Peak level 63.0 %
Extraction speed 6.5 X
Track quality 100.0 %
Test CRC 7816BB84
Copy CRC 7816BB84
Cannot be verified as accurate (confidence 3) [0C659199], AccurateRip returned [D2EC288C] (AR v2)
Copy OK

Track 9

Filename C:\FLAC\09 - Jack Hylton and his Orchestra - Most Gentlemen Don't Like Love.wav

Pre-gap length 0:00:03.76

Peak level 99.9 %
Extraction speed 6.7 X
Track quality 100.0 %
Test CRC B4DB9C64
Copy CRC B4DB9C64
Cannot be verified as accurate (confidence 3) [0B639A3C], AccurateRip returned [FC2ED03D] (AR v2)
Copy OK

Track 10

Filename C:\FLAC\10 - Jack Hylton and his Orchestra - The Banjo (That Man Joe Play).wav

Pre-gap length 0:00:03.76

Peak level 89.1 %
Extraction speed 6.6 X
Track quality 100.0 %
Test CRC 43DB1EAC
Copy CRC 43DB1EAC
Cannot be verified as accurate (confidence 3) [8ECF2924], AccurateRip returned [7CF358B8] (AR v2)
Copy OK

Track 11

Filename C:\FLAC\11 - Bill Ternent and his Sweet Rhythm Orchestra - Who Knows.wav

Pre-gap length 0:00:03.76

Peak level 70.7 %
Extraction speed 7.0 X
Track quality 100.0 %
Test CRC 1C60F45C
Copy CRC 1C60F45C
Cannot be verified as accurate (confidence 3) [2E37E235], AccurateRip returned [101BD9AB] (AR v2)
Copy OK

Track 12

Filename C:\FLAC\12 - Jack Hylton and his Orchestra - Goodby Little Dream, Goodbye.wav

Pre-gap length 0:00:03.76

Peak level 89.1 %
Extraction speed 7.5 X
Track quality 100.0 %
Test CRC 8146AC53
Copy CRC 8146AC53
Cannot be verified as accurate (confidence 3) [050F7749], AccurateRip returned [9DF9683E] (AR v2)
Copy OK

Track 13

Filename C:\FLAC\13 - Victor Silvester and his Ballroom Orchestra - In The Still Of The Night.wav

Pre-gap length 0:00:03.76

Peak level 89.1 %
Extraction speed 7.7 X
Track quality 100.0 %
Test CRC ABF978A6
Copy CRC ABF978A6
Cannot be verified as accurate (confidence 3) [0B1FF787], AccurateRip returned [2918E652] (AR v2)
Copy OK

Track 14

Filename C:\FLAC\14 - Geraldo and his Orchestra - I;Ve Got My Eyes On You.wav

Pre-gap length 0:00:03.76

Peak level 79.4 %
Extraction speed 7.6 X
Track quality 100.0 %
Test CRC D8FE2897
Copy CRC D8FE2897
Cannot be verified as accurate (confidence 3) [7BE86E8F], AccurateRip returned [E606E98F] (AR v2)
Copy OK

Track 15

Filename C:\FLAC\15 - Nat Gonella and his Georgians - Swingin' The Jinx Away.wav

Pre-gap length 0:00:03.76

Peak level 89.1 %
Extraction speed 7.9 X
Track quality 100.0 %
Test CRC EDDF53A7
Copy CRC EDDF53A7
Cannot be verified as accurate (confidence 3) [1D84C82D], AccurateRip returned [BD8F118C] (AR v2)
Copy OK

Track 16

Filename C:\FLAC\16 - Ray Noble and his Orchestra - It's Bad For Me.wav

Pre-gap length 0:00:03.76

Peak level 70.7 %
Extraction speed 8.0 X
Track quality 99.9 %
Test CRC DCA19BF9
Copy CRC DCA19BF9
Cannot be verified as accurate (confidence 3) [D07020DE], AccurateRip returned [2EFA1B7D] (AR v2)
Copy OK

Track 17

Filename C:\FLAC\17 - Carroll Gibbons and the Savoy Hotel Orpheans - It's D'Lovely.wav

Pre-gap length 0:00:03.76

Peak level 89.1 %
Extraction speed 8.6 X
Track quality 100.0 %
Test CRC 3043E453
Copy CRC 3043E453
Cannot be verified as accurate (confidence 3) [A6F54428], AccurateRip returned [936721EB] (AR v2)
Copy OK

Track 18

Filename C:\FLAC\18 - Jack Hylton and his Orchestra - I'm In Love Again.wav

Pre-gap length 0:00:03.76

Peak level 79.4 %
Extraction speed 8.4 X
Track quality 99.9 %
Test CRC 1D16BA62
Copy CRC 1D16BA62
Cannot be verified as accurate (confidence 3) [418C6B92], AccurateRip returned [F2F17CC1] (AR v2)
Copy OK

Track 19

Filename C:\FLAC\19 - Ray Noble and his Orchestra - Experiment.wav

Pre-gap length 0:00:03.73

Peak level 99.9 %
Extraction speed 8.5 X
Track quality 100.0 %
Test CRC 69EA224B
Copy CRC 69EA224B
Cannot be verified as accurate (confidence 3) [D1A9D7E6], AccurateRip returned [E0760FDC] (AR v2)
Copy OK

Track 20

Filename C:\FLAC\20 - Geraldo and his Dance Orchestra - Hey, Good-Lookin'!.wav

Pre-gap length 0:00:03.76

Peak level 89.1 %
Extraction speed 8.6 X
Track quality 100.0 %
Test CRC 2F268181
Copy CRC 2F268181
Cannot be verified as accurate (confidence 3) [EAD77670], AccurateRip returned [A0C6044E] (AR v2)
Copy OK


No tracks could be verified as accurate
You may have a different pressing from the one(s) in the database

No errors occurred

End of status report

–– CUETools DB Plugin V2.1.3

[CTDB TOCID: e6ZsIg_bqP6TQnvYlNLUPJsx8dg-] found, Submit result: e6ZsIg_bqP6TQnvYlNLUPJsx8dg- has been confirmed
[2fa40127] (2/2) Accurately ripped


==== Log checksum BAE0A85F96AEA6DEA907A8000EC5A34E4A2908BE907D29723987C495061CDFE0 ====

foobar2000 1.2 / Dynamic Range Meter 1.1.1
log date: 2014-10-25 01:41:29

––––––––––––––––––––––––––––––––––––––––
Analyzed: Bill Ternent and his Sweet Rhythm Orchestra / Song Book (The Platinum Collection) CD02 (1)
Billie Holiday / Song Book (The Platinum Collection) CD02 (2)
Bing Crosby / Song Book (The Platinum Collection) CD02 (3)
Carroll Gibbons and the Savoy Hotel Orpheans / Song Book (The Platinum Collection) CD02 (4)
Cole Porter / Song Book (The Platinum Collection) CD02 (5)
Ethel Merman with Orchestra Conducted by Johnny Green / Song Book (The Platinum Collection) CD02 (6)
Frank Sinatra / Song Book (The Platinum Collection) CD02 (7)
Geraldo and his Dance Orchestra / Song Book (The Platinum Collection) CD02 (8)
Geraldo and his Orchestra / Song Book (The Platinum Collection) CD02 (9)
Jack Hylton and his Orchestra / Song Book (The Platinum Collection) CD02 (10-13)
Lena Horne / Song Book (The Platinum Collection) CD02 (14)
Nat Gonella and his Georgians / Song Book (The Platinum Collection) CD02 (15)
Nat Gonella and his Orchestra / Song Book (The Platinum Collection) CD02 (16)
Ray Noble and his Orchestra / Song Book (The Platinum Collection) CD02 (17-18)
Vic Damone / Song Book (The Platinum Collection) CD02 (19)
Victor Silvester and his Ballroom Orchestra / Song Book (The Platinum Collection) CD02 (20)
––––––––––––––––––––––––––––––––––––––––

DR Peak RMS Duration Track
––––––––––––––––––––––––––––––––––––––––
DR11 -3.00 dB -16.65 dB 3:14 11-Who Knows?
DR12 -4.00 dB -18.40 dB 3:03 03-Night And Day
DR13 -3.00 dB -18.97 dB 2:38 02-I Love You
DR14 -1.00 dB -17.81 dB 2:48 17-It's D'Lovely
DR14 -2.00 dB -20.81 dB 2:25 07-Thank You So Much, Mrs Lowsborough-Goodby
DR11 -3.00 dB -15.47 dB 2:16 06-You're The Top
DR9 -1.00 dB -13.38 dB 3:10 04-Begin The Beguine
DR11 -1.00 dB -14.41 dB 2:22 20-Hey, Good-Lookin'!
DR12 -2.00 dB -17.59 dB 3:11 14-I;Ve Got My Eyes On You
DR13 0.00 dB -15.98 dB 2:17 09-Most Gentlemen Don't Like Love
DR11 -1.00 dB -15.43 dB 2:49 10-The Banjo (That Man Joe Play)
DR11 -1.00 dB -14.90 dB 3:20 12-Goodby Little Dream, Goodbye
DR13 -2.00 dB -18.16 dB 3:19 18-I'm In Love Again
DR12 -1.00 dB -16.94 dB 2:48 05-At Long Last Love
DR12 -1.00 dB -15.93 dB 3:03 15-Swingin' The Jinx Away
DR10 -4.00 dB -16.97 dB 3:07 08-Blow Gabriel Blow
DR12 -3.00 dB -18.12 dB 3:19 16-It's Bad For Me
DR13 0.00 dB -17.34 dB 2:24 19-Experiment
DR13 -2.00 dB -18.35 dB 3:25 01-You'd Be So Easy To Love
DR12 -1.00 dB -17.35 dB 3:19 13-In The Still Of The Night
––––––––––––––––––––––––––––––––––––––––

Number of tracks: 20
Official DR value: DR12

Samplerate: 44100 Hz
Channels: 2
Bits per sample: 16
Bitrate: 355 kbps
Codec: FLAC
================================================================================

VA - Cole Porter Song Book: The Platinum Collection (1998) 2CD

VA - Cole Porter Song Book: The Platinum Collection (1998) 2CD

All thanks to original releaser - only1joe

More interesting music in My Blog