Tags
Language
Tags

Dave Swarbrick - Swarb! Forty Five Years of Folk's Finest Fiddler (2003) 4 CD Box Set [Re-Up]

Posted By:
Dave Swarbrick - Swarb! Forty Five Years of Folk's Finest Fiddler (2003) 4 CD Box Set [Re-Up]

Dave Swarbrick - Swarb! Forty Five Years of Folk's Finest Fiddler (2003) 4 CD Box Set
EAC | FLAC | Tracks (Cue&Log) ~ 1.4 Gb | Mp3 (CBR320) ~ 725 Mb | Scans included
British Folk, British Folk-Rock, Traditional Celtic | Label: Free Reed | # FRCD 41-44 | Time: 05:08:51

This lavishly packaged, authoritatively researched 4CD long-box set is the first in-depth anthology of the music and 45-year career of Dave Swarbrick, one of Britain's best loved and most influential folk fiddle players. The 73 tracks (over five hours of music) stretch from Swarb's earliest recordings to his latest, including selections from every duo, band and session line-up he has been involved in, legendary 'lost' recordings, and out-takes and alternate takes from all of his key albums. Among the many individuals and groups he has performed with are Ewan MacColl, the Ian Campbell Folk Group, Martin Carthy, Fairport Convention, Beryl Marriott, Richard & Linda Thompson, Whippersnapper, Eureka and Band Of Hope, all featured here along with other well know names from the British folk music scene. The definitive tribute to one of the great names of British folk music.

If anyone deserves a tribute as impressive and comprehensive as this Swarb!! box it is surely mercurial fiddler Dave Swarbrick. Like legendary bluesman Robert Johnson, the man affectionately known to all as Swarb must surely have done a deal with infernal forces in return for his prodigious talent. Since his early days with the Ian Campbell Folk Group, through landmark collaborations with Martin Carthy and his long stint with Fairport Convention–during which he effectively invented electric folk-rock–no single figure has had more influence on the British folk scene. His zest for the pleasures of life–principally beer and cigarettes–and his superabundant sense of humour have always been evident in his music: qualities that make his fiddle playing so unique, so full of character, and so universally admired.

This luxurious box set is another in Free Reed's exemplary series–previous boxes have been devoted to Martin Carthy and Fairport Convention. Here four CDs of diverse recordings drawn from every phase of Swarb's career are accompanied by another of Free Reed's massive illustrated biographies and, joy of joys, a selection of Swarbrick fiddle tunes transcribed by Maartin Allcock. Despite the notional themes of each disc, the track listing ranges fairly randomly across the years, from the early 1960s recordings with Ian Campbell, Bert Lloyd and Beryl Marriott, through the Carthy, Fairport and Whippersnapper years, solos, duets and guest spots with other groups, to an extract from 2003's English Fiddler album. Happily, sound quality is on the whole pretty good, with the many live recordings coming up generally very well indeed. It's avowedly not a "Best of" collection, so anyone unfamiliar with Swarbrick's output should begin elsewhere; instead, this is a delightful treasure trove of alternative or unknown recordings from the vast repertoire of Britain's greatest fiddler.

Mark Walker, Editorial Review Amazon.co.uk

The third release in Free Reed's so acclaimed series of box sets, a career-spanning document of fiddler Dave Swarbrick, could claim to be the greatest so far. Best known, of course, for his hell-and-high-water helming of the Fairport Convention soap opera, Swarbrick arguably ranks second only to Martin Carthy when it comes to popularizing and, more importantly, prolonging the life of British folk music. From his earliest work with the Beryl Marriott Ceilidh Group in the late '50s through to collaborations with Alistair Hulett and Kevin Dempsey during 2002-2003, Swarbrick's ability to take the most hackneyed themes and breathe fresh life into them has seen him perform and record with almost every major name in the folk field – and a handful from beyond as well. This collection, although one could quickly whittle its contents down to a mere handful of those partnerships, is nevertheless a breathtaking survey of that canon, highlighted by both the best and the rarest of the myriad tapes at the label's disposal. As with the earlier Carthy and Fairport boxes, Swarb! divides its contents into four thematic discs, self-explanatorily titled "C Is for Collaborations," "D Is for Duos," "E Is for Extras," and "S Is for Swarb." Such delineations, however, are unimportant – no less than 17 Fairport tracks are spread across all but the duos disc, collaborations with Carthy can be found (contrarily enough) on all but the collaborations disc, and duets turn up all over. Rarities, too, abound. Previously unheard live performances, long-archived TV and radio broadcasts, and distant deletions from the early days of the folk boom have all been harvested and, though one might shed a quiet tear over the absence of Swarbrick's earliest partnership, with Beryl Marriott, the pair's reunion in the early '80s fills that breach just fine. From there, the discs surrender the most complete portrait yet of Swarbrick's pre-Fairport work alongside Ian Campbell, Bert Lloyd, Ewan MacColl, the Young Tradition, and, of course, Carthy, a total of 13 tracks that would themselves build into an unbeatable anthology.

The Fairport years are sensibly covered by material that, for the most part, has never previously seen official release – major standouts include a 1981 performance with Richard & Linda Thompson and a handful of 1970 live recordings. The strength of that band's repertoire is then reinforced by a clutch of further reprises dating from later years – a marvelous "Bonnie Black Hare" recorded live with Carthy in 1993, an epic "Sloth" performed with Simon Nicol in 1983, and Whippersnapper's rambunctious "Hen's March" from a 1987 festival in Denmark. To dwell on either the 1960s or Fairport, however, is to utterly defeat the purpose of this box set. Fully half the tracks hail from other pastures, including some of the best material in sight. Such aggregations as Whippersnapper, Three Desperate Mortgages, and the Band of Hope may be mere footnotes in the overall Swarbrick story, but the music they made was no less exhilarating than any of his "big-name" ventures, while the ongoing saga of his work with Carthy includes material recorded up to 2001, at the guitarist's 60th birthday bash. Of course, the four discs are only part of the boxed experience. Also included is "Swarbrick's Collection of Merrie Melodies for the Violin," a 48-page collection of, indeed, sheet music, while the box set itself is annotated in almost microscopic detail by a mammoth 136-page volume that not only provides a biography of Swarbrick himself, but also documents every track and every performer in the box and emerges as lavish a production as the music itself.

Review by Dave Thompson, Allmusic.com

Dave Swarbrick - Swarb! Forty Five Years of Folk's Finest Fiddler (2003) 4 CD Box Set [Re-Up]





Dave Swarbrick - Swarb! Forty Five Years of Folk's Finest Fiddler (2003) 4 CD Box Set [Re-Up]

CD1: D is for Duo
EAC | FLAC | Tracks (Cue&Log) ~ 362 Mb | Mp3 (CBR320) ~ 185 Mb | Time: 01:18:55

A history of the many duos in which Swarb has performed, with his work in the 60s with Martin Carthy, with Simon Nicol in the 80s, and recently with Alistair Hulett and (again). with Martin Carthy - plus live gems and magical studio pairings with the likes of Bert Lloyd, Louis Killen and Peter Bellamy.

Tracklist:

01. Jack Orion (3.58)
From the album First Person (Topic 12T118, 1966). Swarb accompanies Bert Lloyd on a version of Child Ballad 67
02. Finale Medley (Bottom o' the Punchbowl / Swallowtail / The Mason's Apron) (9.28)
With Martin Carthy, live at the London Troubadour in 1966
03. Our Captain Cried All Hands (2.02)
with Martin Carthy; from the album Byker Hill (1967)
04. Streets of Forbes (3.43)
Trevor Lucas sings this on the album The Great Australian Legend (Topic 12TS203, 1971)
05. The Heilanman / Drowsy Maggie (2.43)
with Beryl Marrion on his album Swarbrick (1976)
06. The Lark in the Clear Air (3.33)
with Savourna Stevenson at Kirkcaldy Folk Club, undated
07. Around Cape Horn (2.29)
From Peter Bellamy's album Both Sides Then (Topic 12TS400, 1979)
08. 79's Farewell to Gibraltar / The Atholl Highlanders / The Devil Among the Tailors (4.53)
with Simon Nicol on their album Live at the White Bear (1982)
09. Pittengardener's Rant / The Floggin' (4.38)
with Simon Nicol live at Folk City, New York (1984)
10. White Dress (3.11)
with Ralph McTell on the BBC Ralph McTell Show (1992)
11. The Pepperpot / Sailing into Walpole's Marsh / Bunker Hill (5.40)
with Martin Carthy live at Carson's in Cincinnati (1990)
12. Mrs Bermingham / No 178 / Blind Mary (7.33)
with Martin Carthy live at the Cropredy Festival (1992)
13. Days of 49 (3.17)
with Alistair Hulett live at The Basement, Sydney (1996)
14. Nathaniel Gow's Lament for His Brother / Rory of the Hills (8.55)
with Lars Kjaedegard live at Brunskepadhus, Denmark (1996)
15. I Know My Love (4.19)
with Kevin Dempsey on a Fairport tour live in Croydon (2000)
16. Byker Hill (7.33)
with Martin Carthy live at the Apollo, Oxford, on Martin's 60th Birthday Concert (2001)
17. Banksie (1.55)
with Kevin Dempsey on English Fiddler (2003)

Exact Audio Copy V0.99 prebeta 5 from 4. May 2009

EAC extraction logfile from 6. April 2010, 20:20

Dave Swarbrick / Swarb!! D is for Duo

Used drive : TSSTcorpCD/DVDW SH-S182D Adapter: 0 ID: 1

Read mode : Secure
Utilize accurate stream : Yes
Defeat audio cache : Yes
Make use of C2 pointers : No

Read offset correction : 6
Overread into Lead-In and Lead-Out : No
Fill up missing offset samples with silence : Yes
Delete leading and trailing silent blocks : No
Null samples used in CRC calculations : Yes
Used interface : Native Win32 interface for Win NT & 2000
Gap handling : Appended to previous track

Used output format : User Defined Encoder
Selected bitrate : 768 kBit/s
Quality : High
Add ID3 tag : No
Command line compressor : C:\Program Files\Exact Audio Copy\FLAC\FLAC.EXE
Additional command line options : -V -8 -T "artist=%a" -T "title=%t" -T "album=%g" -T "date=%y" -T "tracknumber=%n" -T "genre=%m" %s


TOC of the extracted CD

Track | Start | Length | Start sector | End sector
––––––––––––––––––––––––––––-
1 | 0:00.00 | 4:04.11 | 0 | 18310
2 | 4:04.11 | 9:28.08 | 18311 | 60918
3 | 13:32.19 | 2:06.13 | 60919 | 70381
4 | 15:38.32 | 3:46.11 | 70382 | 87342
5 | 19:24.43 | 2:47.45 | 87343 | 99912
6 | 22:12.13 | 3:37.31 | 99913 | 116218
7 | 25:49.44 | 2:33.20 | 116219 | 127713
8 | 28:22.64 | 4:56.25 | 127714 | 149938
9 | 33:19.14 | 4:43.45 | 149939 | 171208
10 | 38:02.59 | 3:16.35 | 171209 | 185943
11 | 41:19.19 | 5:44.56 | 185944 | 211799
12 | 47:04.00 | 7:36.17 | 211800 | 246016
13 | 54:40.17 | 3:23.19 | 246017 | 261260
14 | 58:03.36 | 9:01.29 | 261261 | 301864
15 | 67:04.65 | 4:23.65 | 301865 | 321654
16 | 71:28.55 | 5:29.15 | 321655 | 346344
17 | 76:57.70 | 1:57.25 | 346345 | 355144


Track 1

Filename C:\Program Files\uTorrent\Downloads\Swarb\D is for Duo\01 Dave Swarbrick with Bert Lloyd , Jack Orion - Dave Swarbrick.wav

Pre-gap length 0:00:02.00

Peak level 96.4 %
Track quality 100.0 %
Test CRC E5C7055A
Copy CRC E5C7055A
Accurately ripped (confidence 1) [1E544399]
Copy OK

Track 2

Filename C:\Program Files\uTorrent\Downloads\Swarb\D is for Duo\02 Dave Swarbrick with Martin Carthy , Finale Medley - Dave Swarbrick.wav

Pre-gap length 0:00:06.52

Peak level 79.4 %
Track quality 100.0 %
Test CRC C6A257DE
Copy CRC C6A257DE
Accurately ripped (confidence 1) [76D1E6D7]
Copy OK

Track 3

Filename C:\Program Files\uTorrent\Downloads\Swarb\D is for Duo\03 Dave Swarbrick with Martin Carthy , Our Captain Cried All Hands - Dave Swarbrick.wav

Pre-gap length 0:00:01.73

Peak level 94.0 %
Track quality 99.9 %
Test CRC 6D5D0040
Copy CRC 6D5D0040
Accurately ripped (confidence 1) [46370EC4]
Copy OK

Track 4

Filename C:\Program Files\uTorrent\Downloads\Swarb\D is for Duo\04 Dave Swarbrick with Trevor Lucas , Streets Of Forbes - Dave Swarbrick.wav

Pre-gap length 0:00:03.45

Peak level 89.1 %
Track quality 99.9 %
Test CRC F96A9FBA
Copy CRC F96A9FBA
Accurately ripped (confidence 1) [97104795]
Copy OK

Track 5

Filename C:\Program Files\uTorrent\Downloads\Swarb\D is for Duo\05 Dave Swarbrick with Beryl Marriott , The Heilanman~Drowsy Maggie - Dave Swarbrick.wav

Pre-gap length 0:00:02.72

Peak level 62.7 %
Track quality 100.0 %
Test CRC 2E9C48AE
Copy CRC 2E9C48AE
Accurately ripped (confidence 1) [58C5C069]
Copy OK

Track 6

Filename C:\Program Files\uTorrent\Downloads\Swarb\D is for Duo\06 Dave Swarbrick with Savourna Stevenson , The Lark in the Clear Air - Dave Swarbrick.wav

Pre-gap length 0:00:03.61

Peak level 89.1 %
Track quality 100.0 %
Test CRC 2FB02EDB
Copy CRC 2FB02EDB
Accurately ripped (confidence 1) [9C352C96]
Copy OK

Track 7

Filename C:\Program Files\uTorrent\Downloads\Swarb\D is for Duo\07 Dave Swarbrick with Peter Bellamy , Around Cape Horn - Dave Swarbrick.wav

Pre-gap length 0:00:03.85

Peak level 96.8 %
Track quality 100.0 %
Test CRC E8955EA8
Copy CRC E8955EA8
Accurately ripped (confidence 1) [EA014A0F]
Copy OK

Track 8

Filename C:\Program Files\uTorrent\Downloads\Swarb\D is for Duo\08 Dave Swarbrick with Simon Nicol , 79th's Farewell to Gibraltar~The Atholl Highlanders~The Devil Among the Tailors - Dave Swarbrick.wav

Pre-gap length 0:00:04.33

Peak level 59.1 %
Track quality 100.0 %
Test CRC 69572B1A
Copy CRC 69572B1A
Accurately ripped (confidence 1) [D76594F8]
Copy OK

Track 9

Filename C:\Program Files\uTorrent\Downloads\Swarb\D is for Duo\09 Dave Swarbrick with Simon Nicol , Pittengardner's Rant~The Floggin' - Dave Swarbrick.wav

Pre-gap length 0:00:03.48

Peak level 70.7 %
Track quality 99.9 %
Test CRC 95AEC4B8
Copy CRC 95AEC4B8
Accurately ripped (confidence 1) [79833A74]
Copy OK

Track 10

Filename C:\Program Files\uTorrent\Downloads\Swarb\D is for Duo\10 Dave Swarbrick with Ralph McTell , White Dress - Dave Swarbrick.wav

Pre-gap length 0:00:04.46

Peak level 89.1 %
Track quality 100.0 %
Test CRC 1F3CFC93
Copy CRC 1F3CFC93
Accurately ripped (confidence 1) [6149EA52]
Copy OK

Track 11

Filename C:\Program Files\uTorrent\Downloads\Swarb\D is for Duo\11 Dave Swarbrick with Martin Carthy , The Pepperpot~Sailing Into Walpole's Marsh~Bunker Hill - Dave Swarbrick.wav

Pre-gap length 0:00:04.89

Peak level 70.7 %
Track quality 100.0 %
Test CRC 4649C879
Copy CRC 4649C879
Accurately ripped (confidence 1) [E9FF046E]
Copy OK

Track 12

Filename C:\Program Files\uTorrent\Downloads\Swarb\D is for Duo\12 Dave Swarbrick with Martin Carthy , Mrs Bermingham~No 178~Blind Mary - Dave Swarbrick.wav

Pre-gap length 0:00:04.21

Peak level 100.0 %
Track quality 99.9 %
Test CRC 9C7BF374
Copy CRC 9C7BF374
Accurately ripped (confidence 1) [B1066704]
Copy OK

Track 13

Filename C:\Program Files\uTorrent\Downloads\Swarb\D is for Duo\13 Dave Swarbrick with Alistair Hulett , Days of 49 - Dave Swarbrick.wav

Pre-gap length 0:00:02.49

Peak level 72.1 %
Track quality 100.0 %
Test CRC 8851D532
Copy CRC 8851D532
Accurately ripped (confidence 1) [8BE04DC4]
Copy OK

Track 14

Filename C:\Program Files\uTorrent\Downloads\Swarb\D is for Duo\14 Dave Swarbrick with Lars Kjaedegard , Nathaniel Gow's Lament~Rory of the Hills - Dave Swarbrick.wav

Pre-gap length 0:00:07.52

Peak level 73.9 %
Track quality 100.0 %
Test CRC 668BC13C
Copy CRC 668BC13C
Accurately ripped (confidence 1) [394DE5FB]
Copy OK

Track 15

Filename C:\Program Files\uTorrent\Downloads\Swarb\D is for Duo\15 Dave Swarbrick with Kevin Dempsey , I Know My Love - Dave Swarbrick.wav

Pre-gap length 0:00:05.45

Peak level 100.0 %
Track quality 100.0 %
Test CRC B78DB243
Copy CRC B78DB243
Accurately ripped (confidence 1) [EBB5F1AA]
Copy OK

Track 16

Filename C:\Program Files\uTorrent\Downloads\Swarb\D is for Duo\16 Dave Swarbrick with Martin Carthy , Byker Hill - Dave Swarbrick.wav

Pre-gap length 0:00:04.68

Peak level 79.4 %
Track quality 100.0 %
Test CRC C9D3F7B1
Copy CRC C9D3F7B1
Accurately ripped (confidence 1) [D6A21618]
Copy OK

Track 17

Filename C:\Program Files\uTorrent\Downloads\Swarb\D is for Duo\17 Dave Swarbrick with Kevin Dempsey , Banksie - Dave Swarbrick.wav

Pre-gap length 0:00:03.80

Peak level 56.2 %
Track quality 100.0 %
Test CRC C2F43CDA
Copy CRC C2F43CDA
Accurately ripped (confidence 1) [7DF3619D]
Copy OK


All tracks accurately ripped

No errors occurred

End of status report

[CUETools log; Date: 11.04.2018 23:04:52; Version: 2.1.4]
[CTDB TOCID: ry_DEl4fWjZnhpzN61Sfb_YZJBA-] found.
Track | CTDB Status
1 | (5/5) Accurately ripped
2 | (5/5) Accurately ripped
3 | (5/5) Accurately ripped
4 | (5/5) Accurately ripped
5 | (4/5) Accurately ripped
6 | (5/5) Accurately ripped
7 | (5/5) Accurately ripped
8 | (5/5) Accurately ripped
9 | (5/5) Accurately ripped
10 | (5/5) Accurately ripped
11 | (5/5) Accurately ripped
12 | (5/5) Accurately ripped
13 | (5/5) Accurately ripped
14 | (5/5) Accurately ripped
15 | (5/5) Accurately ripped
16 | (5/5) Accurately ripped
17 | (5/5) Accurately ripped
[AccurateRip ID: 002fca4d-025fc87c-df127f11] found.
Track [ CRC | V2 ] Status
01 [1e544399|b6b644fb] (03+07/10) Accurately ripped
02 [76d1e6d7|ffdb57d9] (03+07/10) Accurately ripped
03 [46370ec4|3b9e3aec] (03+07/10) Accurately ripped
04 [97104795|7101f285] (03+07/10) Accurately ripped
05 [58c5c069|a4d435ef] (02+07/09) Accurately ripped
06 [9c352c96|f87c43af] (03+07/10) Accurately ripped
07 [ea014a0f|c71eea6e] (03+07/10) Accurately ripped
08 [d76594f8|31988d94] (03+07/10) Accurately ripped
09 [79833a74|00bc0c38] (03+07/10) Accurately ripped
10 [6149ea52|8e80b59d] (03+07/10) Accurately ripped
11 [e9ff046e|febe22e4] (03+07/10) Accurately ripped
12 [b1066704|b3c6d3c3] (03+07/10) Accurately ripped
13 [8be04dc4|0cf4ca92] (03+07/10) Accurately ripped
14 [394de5fb|a6e081dc] (03+07/10) Accurately ripped
15 [ebb5f1aa|3115fa98] (03+07/10) Accurately ripped
16 [d6a21618|0d147cee] (03+07/10) Accurately ripped
17 [7df3619d|9f616e31] (03+07/10) Accurately ripped

Track Peak [ CRC32 ] [W/O NULL] [ LOG ]
– 100,0 [7CF79715] [9450AEE0]
01 96,4 [E5C7055A] [54613976] CRC32
02 79,4 [C6A257DE] [B5FFA510] CRC32
03 94,0 [6D5D0040] [5231B0AA] CRC32
04 89,1 [F96A9FBA] [BAC1B927] CRC32
05 62,7 [2E9C48AE] [64750B46] CRC32
06 89,1 [2FB02EDB] [1AA7442F] CRC32
07 96,8 [E8955EA8] [0ED61762] CRC32
08 59,1 [69572B1A] [9E2E3444] CRC32
09 70,7 [95AEC4B8] [1467F84F] CRC32
10 89,1 [1F3CFC93] [FA951F55] CRC32
11 70,7 [4649C879] [F941BDD9] CRC32
12 100,0 [9C7BF374] [79EFB2BA] CRC32
13 72,1 [8851D532] [539895DC] CRC32
14 73,9 [668BC13C] [19230D05] CRC32
15 100,0 [B78DB243] [071C4C7E] CRC32
16 79,4 [C9D3F7B1] [B9002ED5] CRC32
17 56,2 [C2F43CDA] [EA1D084F] CRC32

foobar2000 1.2 / Dynamic Range Meter 1.1.1
log date: 2018-04-11 22:53:46

––––––––––––––––––––––––––––––––––––––––
Analyzed: Dave Swarbrick / Swarb!! D is for Duo
––––––––––––––––––––––––––––––––––––––––

DR Peak RMS Duration Track
––––––––––––––––––––––––––––––––––––––––
DR11 -0.32 dB -14.85 dB 4:04 01-Dave Swarbrick with Bert Lloyd / Jack Orion
DR11 -2.00 dB -14.96 dB 9:28 02-Dave Swarbrick with Martin Carthy / Finale Medley
DR13 -0.53 dB -16.50 dB 2:06 03-Dave Swarbrick with Martin Carthy / Our Captain Cried All Hands
DR11 -1.00 dB -16.12 dB 3:46 04-Dave Swarbrick with Trevor Lucas / Streets Of Forbes
DR12 -4.04 dB -17.73 dB 2:48 05-Dave Swarbrick with Beryl Marriott / The Heilanman~Drowsy Maggie
DR10 -1.00 dB -14.12 dB 3:37 06-Dave Swarbrick with Savourna Stevenson / The Lark in the Clear Air
DR13 -0.28 dB -16.49 dB 2:33 07-Dave Swarbrick with Peter Bellamy / Around Cape Horn
DR10 -4.57 dB -15.90 dB 4:56 08-Dave Swarbrick with Simon Nicol / 79th's Farewell to Gibraltar~The Atholl Highlanders~The Devil Among the Tailors
DR10 -3.00 dB -15.52 dB 4:44 09-Dave Swarbrick with Simon Nicol / Pittengardner's Rant~The Floggin'
DR13 -1.00 dB -17.89 dB 3:16 10-Dave Swarbrick with Ralph McTell / White Dress
DR11 -3.00 dB -16.09 dB 5:45 11-Dave Swarbrick with Martin Carthy / The Pepperpot~Sailing Into Walpole's Marsh~Bunker Hill
DR12 0.00 dB -14.60 dB 7:36 12-Dave Swarbrick with Martin Carthy / Mrs Bermingham~No 178~Blind Mary
DR12 -2.83 dB -17.14 dB 3:23 13-Dave Swarbrick with Alistair Hulett / Days of 49
DR8 -2.63 dB -12.98 dB 9:01 14-Dave Swarbrick with Lars Kjaedegard / Nathaniel Gow's Lament~Rory of the Hills
DR15 0.00 dB -16.70 dB 4:24 15-Dave Swarbrick with Kevin Dempsey / I Know My Love
DR10 -2.00 dB -14.02 dB 5:29 16-Dave Swarbrick with Martin Carthy / Byker Hill
DR8 -5.00 dB -15.08 dB 1:57 17-Dave Swarbrick with Kevin Dempsey / Banksie
––––––––––––––––––––––––––––––––––––––––

Number of tracks: 17
Official DR value: DR11

Samplerate: 44100 Hz
Channels: 2
Bits per sample: 16
Bitrate: 815 kbps
Codec: FLAC
================================================================================




Dave Swarbrick - Swarb! Forty Five Years of Folk's Finest Fiddler (2003) 4 CD Box Set [Re-Up]

CD 2: C is for Collaborations
EAC | FLAC | Tracks (Cue&Log) ~ 360 Mb | Mp3 (CBR320) ~ 170 Mb | Time: 01:12:09

From the Campbells and Beryl Marriott’s Ceilidh bands, through Fairport Convention, Whippersnapper, Eureka! and Band of Hope, here's an overview of Swarb's key & crucial role in every group of which he's been a member.

Tracklist:

01. The Bride's March from Unst (The Bride's March / The Keel Man's Petition / Show Me the Way to Wallingford / Sword Dance) (5.24)
with Beryl Marrion at the Essex Festival 1981
02. The Blind Man He Could See (3.23)
The Ian Campbell Folk Group, Across the Hills, Transatlantic LP TRA 110 (1964)
03. Tail Toddle (1.24)
The Ian Campbell Folk Group performance from the Hullaballoo TV Show (1965)
04. Tunes My Mother Taught Me (Bonny Kate / The Kilfenora / Boston Tea Party / Biff, Bang, Crash) (4.21)
Fairport Convention live at the BBC, Nomvember 12, 1970
05. Dirty Linen (3.51)
Fairport Convention live in Philadelphia, 1970
06. Me With You (3.27)
Fairport Convention, from the Rosie sessions (1973)
07. Hexhamshire Lass (2.28)
Fairport Convention live at Amazing Grace, Chicago, 1975
08. Rising for the Moon (4.06)
Fairport Convention on Rising for the Moon (1975)
09. Country Pie (3.03)
Fairport Convention live at La Trobe University, Australia (1977)
10. Sword Dance / Young Black Cow (4.13)
Fairport Convention with Richard & Linda Thomson live at the Granada TV Show Celebration (1981)
11. Brilliancy Medley / Cherokee Shuffle (3.22)
Fairport Convention on Moat on the Ledge (1982)
12. Boadicea (2.08)
A Sandy Denny tribute from Dave Swarbrick's solo album Flittin' (1981)
13. Carolanning (Mrs Bermingham, Mrs Maxwell, John Jameson) (4.52)
Whippersnapper, live at Burnt Post Club, Coventry (1983)
14. Farewell Lovely Nancy (4.31)
Whippersnapper, live at Cropredy (1985)
15. Hen's March (3.28)
Whippersnapper, live at Tønder Festival, Denmark (1987)
16. Waltzing's for Dreamers (4.50)
Keith Hancock Band (incl. Martin Carthy and Dave Swarbrick), live at Southport Festival (1991)
17. Nonesuch Medley (4.50)
Band of Hope (incl. Martin Carthy and Dave Swarbrick), live (1994)
18. Mad About You / Siege of Sydney Streets [p. 108] (5.24)
Eureka!, Jammin' with Gypsy (1998)
19. Fiddlestix (3.07)
Fairport Convention, The Cropredy Box (1997)

Exact Audio Copy V0.99 prebeta 5 from 4. May 2009

EAC extraction logfile from 6. April 2010, 20:45

Dave Swarbrick / Swarb!! C is for Collaborations

Used drive : TSSTcorpCD/DVDW SH-S182D Adapter: 0 ID: 1

Read mode : Secure
Utilize accurate stream : Yes
Defeat audio cache : Yes
Make use of C2 pointers : No

Read offset correction : 6
Overread into Lead-In and Lead-Out : No
Fill up missing offset samples with silence : Yes
Delete leading and trailing silent blocks : No
Null samples used in CRC calculations : Yes
Used interface : Native Win32 interface for Win NT & 2000
Gap handling : Appended to previous track

Used output format : User Defined Encoder
Selected bitrate : 768 kBit/s
Quality : High
Add ID3 tag : No
Command line compressor : C:\Program Files\Exact Audio Copy\FLAC\FLAC.EXE
Additional command line options : -V -8 -T "artist=%a" -T "title=%t" -T "album=%g" -T "date=%y" -T "tracknumber=%n" -T "genre=%m" %s


TOC of the extracted CD

Track | Start | Length | Start sector | End sector
––––––––––––––––––––––––––––-
1 | 0:00.00 | 5:29.06 | 0 | 24680
2 | 5:29.06 | 3:24.00 | 24681 | 39980
3 | 8:53.06 | 1:24.65 | 39981 | 46345
4 | 10:17.71 | 4:24.67 | 46346 | 66212
5 | 14:42.63 | 3:57.70 | 66213 | 84057
6 | 18:40.58 | 3:31.31 | 84058 | 99913
7 | 22:12.14 | 2:29.02 | 99914 | 111090
8 | 24:41.16 | 4:09.07 | 111091 | 129772
9 | 28:50.23 | 3:06.73 | 129773 | 143795
10 | 31:57.21 | 4:16.03 | 143796 | 162998
11 | 36:13.24 | 3:26.58 | 162999 | 178506
12 | 39:40.07 | 2:12.34 | 178507 | 188440
13 | 41:52.41 | 4:56.19 | 188441 | 210659
14 | 46:48.60 | 4:34.43 | 210660 | 231252
15 | 51:23.28 | 3:23.69 | 231253 | 246546
16 | 54:47.22 | 4:51.66 | 246547 | 268437
17 | 59:39.13 | 3:57.03 | 268438 | 286215
18 | 63:36.16 | 5:27.40 | 286216 | 310780
19 | 69:03.56 | 3:05.61 | 310781 | 324716


Track 1

Filename C:\Program Files\uTorrent\Downloads\Swarb\C is for Collaborations\01 Dave Swarbrick with Beryl Marriott , The Bride's March from Unst - Dave Swarbrick.wav

Pre-gap length 0:00:02.00

Peak level 95.0 %
Track quality 99.9 %
Test CRC CD653E90
Copy CRC CD653E90
Accurately ripped (confidence 1) [D814BFF0]
Copy OK

Track 2

Filename C:\Program Files\uTorrent\Downloads\Swarb\C is for Collaborations\02 Ian Campbell Folk Group , The Blind Man he Could See - Dave Swarbrick.wav

Pre-gap length 0:00:03.54

Peak level 97.7 %
Track quality 100.0 %
Test CRC ABF1CE6D
Copy CRC ABF1CE6D
Accurately ripped (confidence 1) [A4EFF472]
Copy OK

Track 3

Filename C:\Program Files\uTorrent\Downloads\Swarb\C is for Collaborations\03 Ian Campbell Folk Group , Tail Toddle - Dave Swarbrick.wav

Pre-gap length 0:00:00.41

Peak level 98.2 %
Track quality 100.0 %
Test CRC 771E4A10
Copy CRC 771E4A10
Accurately ripped (confidence 1) [7DFC1876]
Copy OK

Track 4

Filename C:\Program Files\uTorrent\Downloads\Swarb\C is for Collaborations\04 Fairport Convention , Tunes my Mother Taught Me - Dave Swarbrick.wav

Pre-gap length 0:00:03.50

Peak level 65.6 %
Track quality 100.0 %
Test CRC FCC61B60
Copy CRC FCC61B60
Accurately ripped (confidence 1) [5EFCEE1F]
Copy OK

Track 5

Filename C:\Program Files\uTorrent\Downloads\Swarb\C is for Collaborations\05 Fairport Convention , Dirty Linen - Dave Swarbrick.wav

Pre-gap length 0:00:03.58

Peak level 85.9 %
Track quality 100.0 %
Test CRC 81AF7A2A
Copy CRC 81AF7A2A
Accurately ripped (confidence 1) [41E6B985]
Copy OK

Track 6

Filename C:\Program Files\uTorrent\Downloads\Swarb\C is for Collaborations\06 Fairport Convention , Me with You - Dave Swarbrick.wav

Pre-gap length 0:00:06.80

Peak level 99.0 %
Track quality 100.0 %
Test CRC 0E29094B
Copy CRC 0E29094B
Accurately ripped (confidence 1) [E420B81B]
Copy OK

Track 7

Filename C:\Program Files\uTorrent\Downloads\Swarb\C is for Collaborations\07 Fairport Convention , Hexhamshire Lass - Dave Swarbrick.wav

Pre-gap length 0:00:03.84

Peak level 79.0 %
Track quality 100.0 %
Test CRC B0540769
Copy CRC B0540769
Accurately ripped (confidence 1) [C00D0824]
Copy OK

Track 8

Filename C:\Program Files\uTorrent\Downloads\Swarb\C is for Collaborations\08 Fairport Convention , Rising for the Moon - Dave Swarbrick.wav

Pre-gap length 0:00:03.89

Peak level 75.9 %
Track quality 100.0 %
Test CRC CCE075A1
Copy CRC CCE075A1
Accurately ripped (confidence 1) [724DFFEC]
Copy OK

Track 9

Filename C:\Program Files\uTorrent\Downloads\Swarb\C is for Collaborations\09 Fairport Convention , Country Pie - Dave Swarbrick.wav

Pre-gap length 0:00:02.77

Peak level 90.7 %
Track quality 99.9 %
Test CRC 6B0D164E
Copy CRC 6B0D164E
Accurately ripped (confidence 1) [2D11B67B]
Copy OK

Track 10

Filename C:\Program Files\uTorrent\Downloads\Swarb\C is for Collaborations\10 Fairport Convention with Richard & Linda Thompson , Sword Dance~Young Black Cow - Dave Swarbrick.wav

Pre-gap length 0:00:03.40

Peak level 61.4 %
Track quality 99.9 %
Test CRC 120E6C82
Copy CRC 120E6C82
Accurately ripped (confidence 1) [075EF0F6]
Copy OK

Track 11

Filename C:\Program Files\uTorrent\Downloads\Swarb\C is for Collaborations\11 Fairport Convention , Brilliancy Medley~Cherokee Shuffle - Dave Swarbrick.wav

Pre-gap length 0:00:03.54

Peak level 67.1 %
Track quality 100.0 %
Test CRC 0072C1E1
Copy CRC 0072C1E1
Accurately ripped (confidence 1) [7E846695]
Copy OK

Track 12

Filename C:\Program Files\uTorrent\Downloads\Swarb\C is for Collaborations\12 Dave Swarbrick , Boadicea - Dave Swarbrick.wav

Pre-gap length 0:00:04.53

Peak level 97.7 %
Track quality 100.0 %
Test CRC 152A0AE8
Copy CRC 152A0AE8
Accurately ripped (confidence 1) [24B4198F]
Copy OK

Track 13

Filename C:\Program Files\uTorrent\Downloads\Swarb\C is for Collaborations\13 Whippersnapper , Carolanning (Mrs Bermingham~Mrs Maxwell~John Jameson) - Dave Swarbrick.wav

Pre-gap length 0:00:03.78

Peak level 94.1 %
Track quality 100.0 %
Test CRC BFDF3124
Copy CRC BFDF3124
Accurately ripped (confidence 1) [CACF3647]
Copy OK

Track 14

Filename C:\Program Files\uTorrent\Downloads\Swarb\C is for Collaborations\14 Whippersnapper , Farewell Lovely Nancy - Dave Swarbrick.wav

Pre-gap length 0:00:03.92

Peak level 79.4 %
Track quality 100.0 %
Test CRC E363586B
Copy CRC E363586B
Accurately ripped (confidence 1) [991B7FC8]
Copy OK

Track 15

Filename C:\Program Files\uTorrent\Downloads\Swarb\C is for Collaborations\15 Whippersnapper , Hen's March - Dave Swarbrick.wav

Pre-gap length 0:00:03.10

Peak level 87.0 %
Track quality 100.0 %
Test CRC 3A8363E9
Copy CRC 3A8363E9
Accurately ripped (confidence 1) [E7F1E802]
Copy OK

Track 16

Filename C:\Program Files\uTorrent\Downloads\Swarb\C is for Collaborations\16 Keith Hancock Band , Waltzing's for Dreamers - Dave Swarbrick.wav

Pre-gap length 0:00:03.45

Peak level 60.0 %
Track quality 99.9 %
Test CRC 44744E42
Copy CRC 44744E42
Accurately ripped (confidence 1) [1391177A]
Copy OK

Track 17

Filename C:\Program Files\uTorrent\Downloads\Swarb\C is for Collaborations\17 Band of Hope , Nonesuch Medley - Dave Swarbrick.wav

Pre-gap length 0:00:03.13

Peak level 98.6 %
Track quality 100.0 %
Test CRC 2BF0B705
Copy CRC 2BF0B705
Accurately ripped (confidence 1) [DA21C77C]
Copy OK

Track 18

Filename C:\Program Files\uTorrent\Downloads\Swarb\C is for Collaborations\18 Eureka! with Dave Swarbrick , Mad about you~Siege of Sydney Streets - Dave Swarbrick.wav

Pre-gap length 0:00:00.60

Peak level 99.7 %
Track quality 100.0 %
Test CRC 0B592656
Copy CRC 0B592656
Cannot be verified as accurate (confidence 1) [F59638E9], AccurateRip returned [DF7BD2F4]
Copy OK

Track 19

Filename C:\Program Files\uTorrent\Downloads\Swarb\C is for Collaborations\19 Fairport Convention , Fiddlestix - Dave Swarbrick.wav

Pre-gap length 0:00:02.96

Peak level 63.1 %
Track quality 100.0 %
Test CRC 2D1203B5
Copy CRC 2D1203B5
Cannot be verified as accurate (confidence 1) [9E98CD64], AccurateRip returned [65970EBA]
Copy OK


17 track(s) accurately ripped
2 track(s) could not be verified as accurate

Some tracks could not be verified as accurate

No errors occurred

End of status report

[CUETools log; Date: 11.04.2018 23:04:28; Version: 2.1.4]
[CTDB TOCID: UmCBZXw4CVaBVzRn88Y_Shjjq0o-] found.
Track | CTDB Status
1 | (5/5) Accurately ripped
2 | (5/5) Accurately ripped
3 | (5/5) Accurately ripped
4 | (5/5) Accurately ripped
5 | (5/5) Accurately ripped
6 | (5/5) Accurately ripped
7 | (5/5) Accurately ripped
8 | (5/5) Accurately ripped
9 | (5/5) Accurately ripped
10 | (5/5) Accurately ripped
11 | (5/5) Accurately ripped
12 | (5/5) Accurately ripped
13 | (5/5) Accurately ripped
14 | (5/5) Accurately ripped
15 | (5/5) Accurately ripped
16 | (5/5) Accurately ripped
17 | (5/5) Accurately ripped
18 | (5/5) Accurately ripped
19 | (5/5) Accurately ripped
[AccurateRip ID: 003021ec-02a324ec-0b10e913] found.
Track [ CRC | V2 ] Status
01 [d814bff0|b17486c9] (03+07/10) Accurately ripped
02 [a4eff472|9b00384d] (03+07/10) Accurately ripped
03 [7dfc1876|a7f698e6] (03+07/10) Accurately ripped
04 [5efcee1f|62504cd5] (03+07/10) Accurately ripped
05 [41e6b985|3d2a4e48] (03+07/10) Accurately ripped
06 [e420b81b|869440f0] (03+07/10) Accurately ripped
07 [c00d0824|37800c86] (03+07/10) Accurately ripped
08 [724dffec|dee0a54c] (03+07/10) Accurately ripped
09 [2d11b67b|fa88f276] (03+07/10) Accurately ripped
10 [075ef0f6|a62a79ed] (03+07/10) Accurately ripped
11 [7e846695|59ae0189] (03+07/10) Accurately ripped
12 [24b4198f|e18fb3b3] (03+07/10) Accurately ripped
13 [cacf3647|8988af1a] (03+07/10) Accurately ripped
14 [991b7fc8|99b3fed6] (03+07/10) Accurately ripped
15 [e7f1e802|c5e9e5cb] (03+07/10) Accurately ripped
16 [1391177a|1a34921b] (03+07/10) Accurately ripped
17 [da21c77c|cb2c59d1] (03+07/10) Accurately ripped
18 [f59638e9|8751dd14] (02+07/09) Accurately ripped
19 [9e98cd64|7ab55f04] (02+07/09) Accurately ripped

Track Peak [ CRC32 ] [W/O NULL] [ LOG ]
– 99,7 [BCB1B89C] [DC88B136]
01 95,0 [CD653E90] [B38C64E4] CRC32
02 97,7 [ABF1CE6D] [360BF04D] CRC32
03 98,2 [771E4A10] [AECDF69E] CRC32
04 65,6 [FCC61B60] [79D1B7A9] CRC32
05 85,9 [81AF7A2A] [FA6A4C65] CRC32
06 99,0 [0E29094B] [2509819E] CRC32
07 79,0 [B0540769] [4FD14E73] CRC32
08 75,9 [CCE075A1] [5EF4408B] CRC32
09 90,7 [6B0D164E] [A98C83B1] CRC32
10 61,4 [120E6C82] [CEFCED46] CRC32
11 67,1 [0072C1E1] [6D698020] CRC32
12 97,7 [152A0AE8] [373B54E0] CRC32
13 94,1 [BFDF3124] [2E6FC339] CRC32
14 79,4 [E363586B] [A8A6ACFC] CRC32
15 87,0 [3A8363E9] [FF91EA7F] CRC32
16 60,0 [44744E42] [5298C070] CRC32
17 98,6 [2BF0B705] [BAC4F2BA] CRC32
18 99,7 [0B592656] [389E58EE] CRC32
19 63,0 [2D1203B5] [79F1D5DE] CRC32

foobar2000 1.2 / Dynamic Range Meter 1.1.1
log date: 2018-04-11 22:52:43

––––––––––––––––––––––––––––––––––––––––
Analyzed: Dave Swarbrick / Swarb!! C is for Collaborations
––––––––––––––––––––––––––––––––––––––––

DR Peak RMS Duration Track
––––––––––––––––––––––––––––––––––––––––
DR14 -0.44 dB -17.23 dB 5:29 01-Dave Swarbrick with Beryl Marriott / The Bride's March from Unst
DR14 -0.20 dB -16.16 dB 3:24 02-Ian Campbell Folk Group / The Blind Man he Could See
DR10 -0.16 dB -12.55 dB 1:25 03-Ian Campbell Folk Group / Tail Toddle
DR11 -3.65 dB -16.56 dB 4:25 04-Fairport Convention / Tunes my Mother Taught Me
DR13 -1.31 dB -15.98 dB 3:58 05-Fairport Convention / Dirty Linen
DR11 -0.08 dB -15.60 dB 3:31 06-Fairport Convention / Me with You
DR9 -2.04 dB -13.55 dB 2:29 07-Fairport Convention / Hexhamshire Lass
DR11 -2.39 dB -15.81 dB 4:09 08-Fairport Convention / Rising for the Moon
DR10 -0.84 dB -13.87 dB 3:07 09-Fairport Convention / Country Pie
DR10 -4.24 dB -17.03 dB 4:16 10-Fairport Convention with Richard & Linda Thompson / Sword Dance~Young Black Cow
DR8 -3.46 dB -13.57 dB 3:27 11-Fairport Convention / Brilliancy Medley~Cherokee Shuffle
DR12 -0.20 dB -15.84 dB 2:12 12-Dave Swarbrick / Boadicea
DR13 -0.52 dB -15.97 dB 4:56 13-Whippersnapper / Carolanning (Mrs Bermingham~Mrs Maxwell~John Jameson)
DR11 -2.00 dB -16.73 dB 4:35 14-Whippersnapper / Farewell Lovely Nancy
DR13 -1.20 dB -16.98 dB 3:24 15-Whippersnapper / Hen's March
DR9 -4.43 dB -14.87 dB 4:52 16-Keith Hancock Band / Waltzing's for Dreamers
DR13 -0.12 dB -18.77 dB 3:57 17-Band of Hope / Nonesuch Medley
DR10 -0.02 dB -12.39 dB 5:28 18-Eureka! with Dave Swarbrick / Mad about you~Siege of Sydney Streets
DR7 -4.00 dB -12.61 dB 3:06 19-Fairport Convention / Fiddlestix
––––––––––––––––––––––––––––––––––––––––

Number of tracks: 19
Official DR value: DR11

Samplerate: 44100 Hz
Channels: 2
Bits per sample: 16
Bitrate: 944 kbps
Codec: FLAC
================================================================================




Dave Swarbrick - Swarb! Forty Five Years of Folk's Finest Fiddler (2003) 4 CD Box Set [Re-Up]

CD3: E is for Extras
EAC | FLAC | Tracks (Cue&Log) ~ 351 Mb | Mp3 (CBR320) ~ 170 Mb | Time: 01:19:00

Rarities abound in this CD of recordings! We unearthed so many that were just too good to miss, so here you’ll find live versions of songs which put familiar studio recordings in the shade: familiar songs performed in wholly new settings (an acoustic Sloth for example) and knock-out material screaming to be given the light of day!

Tracklist:

01. Royal Seleccion #13 (Haste to the Wedding / Clarke's Hornpipe / Parade of the Tin Soldiers / The Dashing White Sergeant) (3.55)
with Simon Nicol live in Germany (1982)
02. The Bark Gay Head (2.37)
Ewan MacColl, Whaler Out of New Bedford (1961)
03. Interlude - Pembroke Unique Ensemble (1.10)
with Sandy Denny on The Young Tradition's Galleries (1968)
04. Tam Lin (6.02)
Fairport Convention live in Stockholm with Dave Swarbrick singing (1971)
05. General Taylor / Jenny's Chicken / Mason's Apron (7.58)
Fairport Convention live it the University of Chicago (1970)
06. Pleasure and Pain (4.41)
Brian Maxine on his album Ribbons of Stainless Steel (1975)
07. Frog Up the Pump (Ril Gan Ah / unknown / Storka) (3.27)
with Martin Carthy, rehearsal tape (1977)
08. When First Into This Country (2.32)
Fairport Convention on a Capital radio broadcast (1976)
09. Now Be Thankful (3.02)
The Three Desperate Mortgages live at Kenilworth Folk Club (1976)
10. Rosie / Pachelbel's Canon (6.05)
Whippersnapper live at Burnt Post Club, Coventry (1983)
11. My Little Fiddle (4.23)
Whippersnapper live, source unknown (1985)
12. Foolish (5.16)
Whippersnapper live at Tønder Festival (1987)
13. Ship in Distress (5.04)
with Martin Carthy, live at McCabe's Guitar Shop, Santa Monica, California (1990)
14. Bonny Black Hare (5.43)
with Martin Carthy, live at Albert Hole, Bristol (1993)
15. Isle of Man Set (9.07)
with Beryl Marriot, live at Wing Village Hall (1998)
16. Sloth (8.24)
with Simon Nicol, live at Topic Folk Club, Bradford (1983)

Exact Audio Copy V0.99 prebeta 5 from 4. May 2009

EAC extraction logfile from 6. April 2010, 21:09

Dave Swarbrick / Swarb!! E is for Extras

Used drive : TSSTcorpCD/DVDW SH-S182D Adapter: 0 ID: 1

Read mode : Secure
Utilize accurate stream : Yes
Defeat audio cache : Yes
Make use of C2 pointers : No

Read offset correction : 6
Overread into Lead-In and Lead-Out : No
Fill up missing offset samples with silence : Yes
Delete leading and trailing silent blocks : No
Null samples used in CRC calculations : Yes
Used interface : Native Win32 interface for Win NT & 2000
Gap handling : Appended to previous track

Used output format : User Defined Encoder
Selected bitrate : 768 kBit/s
Quality : High
Add ID3 tag : No
Command line compressor : C:\Program Files\Exact Audio Copy\FLAC\FLAC.EXE
Additional command line options : -V -8 -T "artist=%a" -T "title=%t" -T "album=%g" -T "date=%y" -T "tracknumber=%n" -T "genre=%m" %s


TOC of the extracted CD

Track | Start | Length | Start sector | End sector
––––––––––––––––––––––––––––-
1 | 0:00.00 | 3:58.12 | 0 | 17861
2 | 3:58.12 | 2:39.58 | 17862 | 29844
3 | 6:37.70 | 1:11.63 | 29845 | 35232
4 | 7:49.58 | 6:06.25 | 35233 | 62707
5 | 13:56.08 | 8:01.10 | 62708 | 98792
6 | 21:57.18 | 3:50.50 | 98793 | 116092
7 | 25:47.68 | 3:29.69 | 116093 | 131836
8 | 29:17.62 | 2:35.10 | 131837 | 143471
9 | 31:52.72 | 3:05.52 | 143472 | 157398
10 | 34:58.49 | 6:03.39 | 157399 | 184662
11 | 41:02.13 | 4:22.54 | 184663 | 204366
12 | 45:24.67 | 5:16.71 | 204367 | 228137
13 | 50:41.63 | 4:54.08 | 228138 | 250195
14 | 55:35.71 | 5:46.70 | 250196 | 276215
15 | 61:22.66 | 9:10.45 | 276216 | 317510
16 | 70:33.36 | 8:26.61 | 317511 | 355521


Track 1

Filename C:\Program Files\uTorrent\Downloads\Swarb\E is for Extras\01 Dave Swarbrick with Simon Nicol, live in Germany, 1982 , Royal Seleccion #13 - Dave Swarbrick.wav

Pre-gap length 0:00:02.00

Peak level 100.0 %
Track quality 100.0 %
Test CRC 73055439
Copy CRC 73055439
Accurately ripped (confidence 1) [EF502A30]
Copy OK

Track 2

Filename C:\Program Files\uTorrent\Downloads\Swarb\E is for Extras\02 Ewan MacColl; Whaler out of New Bedford,1961 , The Bark Gay Head - Dave Swarbrick.wav

Pre-gap length 0:00:03.76

Peak level 74.3 %
Track quality 100.0 %
Test CRC C5D2BD09
Copy CRC C5D2BD09
Accurately ripped (confidence 1) [2BD9F9BC]
Copy OK

Track 3

Filename C:\Program Files\uTorrent\Downloads\Swarb\E is for Extras\03 Pembroke Unique Ensemble - Young Tradition; Galleries, 1968 , Interlude - Dave Swarbrick.wav

Pre-gap length 0:00:02.56

Peak level 80.3 %
Track quality 100.0 %
Test CRC 856B00AE
Copy CRC 856B00AE
Accurately ripped (confidence 1) [3989C34B]
Copy OK

Track 4

Filename C:\Program Files\uTorrent\Downloads\Swarb\E is for Extras\04 Fairport Convention, live in Stockholm, 1971 , Tam Lin - Dave Swarbrick.wav

Pre-gap length 0:00:01.38

Peak level 100.0 %
Track quality 100.0 %
Test CRC 0D77BBF6
Copy CRC 0D77BBF6
Accurately ripped (confidence 1) [A9975B56]
Copy OK

Track 5

Filename C:\Program Files\uTorrent\Downloads\Swarb\E is for Extras\05 Fairport Convention, University of Chicago, 1970 , General Taylor~Mason's Apron - Dave Swarbrick.wav

Pre-gap length 0:00:03.66

Peak level 100.0 %
Track quality 100.0 %
Test CRC 82208A33
Copy CRC 82208A33
Accurately ripped (confidence 1) [C97A1613]
Copy OK

Track 6

Filename C:\Program Files\uTorrent\Downloads\Swarb\E is for Extras\06 Brian Maxine; Ribbon of Stainless Steel, 1975 , Pleasure and Pain - Dave Swarbrick.wav

Pre-gap length 0:00:04.60

Peak level 63.1 %
Track quality 100.0 %
Test CRC 25A85354
Copy CRC 25A85354
Accurately ripped (confidence 1) [DF382B15]
Copy OK

Track 7

Filename C:\Program Files\uTorrent\Downloads\Swarb\E is for Extras\07 Dave Swarbrick with Martin Carthy; Rehearsal Tape, 1977 , Frog Up the Pump - Dave Swarbrick.wav

Pre-gap length 0:00:03.05

Peak level 86.6 %
Track quality 100.0 %
Test CRC 59D03076
Copy CRC 59D03076
Accurately ripped (confidence 1) [DBA450C0]
Copy OK

Track 8

Filename C:\Program Files\uTorrent\Downloads\Swarb\E is for Extras\08 Fairport Convention; Capital Radio, 1976 , When First to this Country - Dave Swarbrick.wav

Pre-gap length 0:00:02.72

Peak level 95.4 %
Track quality 100.0 %
Test CRC 6B42F075
Copy CRC 6B42F075
Accurately ripped (confidence 1) [D4FE04B8]
Copy OK

Track 9

Filename C:\Program Files\uTorrent\Downloads\Swarb\E is for Extras\09 3 Desperate Mortgages; Kenilworth Folk Club, 1976 , Now Be Thankful - Dave Swarbrick.wav

Pre-gap length 0:00:02.54

Peak level 90.2 %
Track quality 100.0 %
Test CRC 926DB9BA
Copy CRC 926DB9BA
Accurately ripped (confidence 1) [55EECDA0]
Copy OK

Track 10

Filename C:\Program Files\uTorrent\Downloads\Swarb\E is for Extras\10 Whippersnapper; Burnt Post Club, 1983 , Rosie,Pachelbel's Canon- Whippersnapper - Dave Swarbrick.wav

Pre-gap length 0:00:02.94

Peak level 100.0 %
Track quality 100.0 %
Test CRC A4628737
Copy CRC A4628737
Accurately ripped (confidence 1) [97CE72D9]
Copy OK

Track 11

Filename C:\Program Files\uTorrent\Downloads\Swarb\E is for Extras\11 Whippersnapper. 1985 , My Little Fiddle - Dave Swarbrick.wav

Pre-gap length 0:00:02.81

Peak level 85.2 %
Track quality 100.0 %
Test CRC 5CF1D541
Copy CRC 5CF1D541
Accurately ripped (confidence 1) [82F6F2F6]
Copy OK

Track 12

Filename C:\Program Files\uTorrent\Downloads\Swarb\E is for Extras\12 Whippersnapper; Tшnder Festival, 1987 , Foolish - Dave Swarbrick.wav

Peak level 100.0 %
Track quality 100.0 %
Test CRC C121BABC
Copy CRC C121BABC
Accurately ripped (confidence 1) [55FB0225]
Copy OK

Track 13

Filename C:\Program Files\uTorrent\Downloads\Swarb\E is for Extras\13 Dave Swarbrick with Martin Carthy; McCabe's, California, 1990 , Ship in Distress - Dave Swarbrick.wav

Pre-gap length 0:00:02.94

Peak level 60.9 %
Track quality 100.0 %
Test CRC 71DBE8C5
Copy CRC 71DBE8C5
Accurately ripped (confidence 1) [CA7FA854]
Copy OK

Track 14

Filename C:\Program Files\uTorrent\Downloads\Swarb\E is for Extras\14 Dave Swarbrick with Martin Carthy; Albert Hole, 1993 , Bonny Black Hare - Dave Swarbrick.wav

Pre-gap length 0:00:03.01

Peak level 100.0 %
Track quality 100.0 %
Test CRC DD83508C
Copy CRC DD83508C
Accurately ripped (confidence 1) [335E9B45]
Copy OK

Track 15

Filename C:\Program Files\uTorrent\Downloads\Swarb\E is for Extras\15 Dave Swarbrick with Beryl Marriott; Wing Village Hall, 1998 , Isle of Man set - Dave Swarbrick.wav

Pre-gap length 0:00:03.06

Peak level 92.4 %
Track quality 100.0 %
Test CRC 2CF48E42
Copy CRC 2CF48E42
Accurately ripped (confidence 1) [E52F1C6A]
Copy OK

Track 16

Filename C:\Program Files\uTorrent\Downloads\Swarb\E is for Extras\16 Dave Swarbrick with Simon Nicol; Topic Folk Club, Bradford, 1983 , Sloth - Dave Swarbrick.wav

Pre-gap length 0:00:03.21

Peak level 95.0 %
Track quality 100.0 %
Test CRC 0526AB0A
Copy CRC 0526AB0A
Accurately ripped (confidence 1) [FE8F8DBC]
Copy OK


All tracks accurately ripped

No errors occurred

End of status report

[CUETools log; Date: 11.04.2018 23:05:14; Version: 2.1.4]
[CTDB TOCID: dLMBJyogswx0sMPwzK9l4A6lG18-] found.
Track | CTDB Status
1 | (5/5) Accurately ripped
2 | (5/5) Accurately ripped
3 | (5/5) Accurately ripped
4 | (5/5) Accurately ripped
5 | (5/5) Accurately ripped
6 | (5/5) Accurately ripped
7 | (5/5) Accurately ripped
8 | (5/5) Accurately ripped
9 | (5/5) Accurately ripped
10 | (5/5) Accurately ripped
11 | (5/5) Accurately ripped
12 | (5/5) Accurately ripped
13 | (5/5) Accurately ripped
14 | (5/5) Accurately ripped
15 | (5/5) Accurately ripped
16 | (5/5) Accurately ripped
[AccurateRip ID: 0027d2bf-01ea2eb8-e3128410] found.
Track [ CRC | V2 ] Status
01 [ef502a30|eefb522e] (03+07/10) Accurately ripped
02 [2bd9f9bc|8bbb4a76] (03+07/10) Accurately ripped
03 [3989c34b|7cf74d6f] (03+07/10) Accurately ripped
04 [a9975b56|9f48a996] (03+07/10) Accurately ripped
05 [c97a1613|110356e0] (03+07/10) Accurately ripped
06 [df382b15|36b1f1fe] (03+07/10) Accurately ripped
07 [dba450c0|bdf1ec60] (03+07/10) Accurately ripped
08 [d4fe04b8|8ef7c406] (03+07/10) Accurately ripped
09 [55eecda0|84de33e2] (03+07/10) Accurately ripped
10 [97ce72d9|2772ad8c] (03+07/10) Accurately ripped
11 [82f6f2f6|4e0b9d75] (03+07/10) Accurately ripped
12 [55fb0225|fab00afa] (03+07/10) Accurately ripped
13 [ca7fa854|2b5e0b2c] (03+07/10) Accurately ripped
14 [335e9b45|520b88c8] (03+07/10) Accurately ripped
15 [e52f1c6a|5b99c2d8] (03+07/10) Accurately ripped
16 [fe8f8dbc|7591ec0c] (03+07/10) Accurately ripped

Track Peak [ CRC32 ] [W/O NULL] [ LOG ]
– 100,0 [232FFE38] [9FC8E088]
01 100,0 [73055439] [8BB2706F] CRC32
02 74,3 [C5D2BD09] [B549278C] CRC32
03 80,3 [856B00AE] [8B301855] CRC32
04 100,0 [0D77BBF6] [359C5AC8] CRC32
05 100,0 [82208A33] [A78D0A4D] CRC32
06 63,0 [25A85354] [642DD74A] CRC32
07 86,6 [59D03076] [319A916F] CRC32
08 95,4 [6B42F075] [B7FB6029] CRC32
09 90,2 [926DB9BA] [9D76719A] CRC32
10 100,0 [A4628737] [5F9E0A50] CRC32
11 85,2 [5CF1D541] [65167A39] CRC32
12 100,0 [C121BABC] [5D5913A8] CRC32
13 60,9 [71DBE8C5] [63A27120] CRC32
14 100,0 [DD83508C] [8974F46D] CRC32
15 92,4 [2CF48E42] [B0F9E929] CRC32
16 95,0 [0526AB0A] [1B01E4DD] CRC32

foobar2000 1.2 / Dynamic Range Meter 1.1.1
log date: 2018-04-11 23:01:44

––––––––––––––––––––––––––––––––––––––––
Analyzed: Dave Swarbrick / Swarb!! E is for Extras
––––––––––––––––––––––––––––––––––––––––

DR Peak RMS Duration Track
––––––––––––––––––––––––––––––––––––––––
DR12 0.00 dB -14.25 dB 3:58 01-Dave Swarbrick with Simon Nicol, live in Germany, 1982 / Royal Seleccion #13
DR13 -2.58 dB -18.50 dB 2:40 02-Ewan MacColl; Whaler out of New Bedford,1961 / The Bark Gay Head
DR11 -1.90 dB -15.52 dB 1:12 03-Pembroke Unique Ensemble - Young Tradition; Galleries, 1968 / Interlude
DR12 0.00 dB -14.39 dB 6:06 04-Fairport Convention, live in Stockholm, 1971 / Tam Lin
DR12 0.00 dB -14.07 dB 8:01 05-Fairport Convention, University of Chicago, 1970 / General Taylor~Mason's Apron
DR7 -4.00 dB -13.91 dB 3:51 06-Brian Maxine; Ribbon of Stainless Steel, 1975 / Pleasure and Pain
DR11 -1.24 dB -14.67 dB 3:30 07-Dave Swarbrick with Martin Carthy; Rehearsal Tape, 1977 / Frog Up the Pump
DR11 -0.40 dB -14.13 dB 2:35 08-Fairport Convention; Capital Radio, 1976 / When First to this Country
DR9 -0.89 dB -11.41 dB 3:06 09-3 Desperate Mortgages; Kenilworth Folk Club, 1976 / Now Be Thankful
DR12 0.00 dB -16.91 dB 6:04 10-Whippersnapper; Burnt Post Club, 1983 / Rosie/Pachelbel's Canon: Whippersnapper
DR11 -1.38 dB -15.07 dB 4:23 11-Whippersnapper. 1985 / My Little Fiddle
DR14 0.00 dB -17.36 dB 5:17 12-Whippersnapper; Tønder Festival, 1987 / Foolish
DR12 -4.30 dB -18.89 dB 4:54 13-Dave Swarbrick with Martin Carthy; McCabe's, California, 1990 / Ship in Distress
DR11 0.00 dB -13.20 dB 5:47 14-Dave Swarbrick with Martin Carthy; Albert Hole, 1993 / Bonny Black Hare
DR14 -0.68 dB -19.34 dB 9:11 15-Dave Swarbrick with Beryl Marriott; Wing Village Hall, 1998 / Isle of Man set
DR7 -0.44 dB -11.77 dB 8:27 16-Dave Swarbrick with Simon Nicol; Topic Folk Club, Bradford, 1983 / Sloth
––––––––––––––––––––––––––––––––––––––––

Number of tracks: 16
Official DR value: DR11

Samplerate: 44100 Hz
Channels: 2
Bits per sample: 16
Bitrate: 565 kbps
Codec: FLAC
================================================================================




Dave Swarbrick - Swarb! Forty Five Years of Folk's Finest Fiddler (2003) 4 CD Box Set [Re-Up]

CD4: S is for Swarb
EAC | FLAC | Tracks (Cue&Log) ~ 357 Mb | Mp3 (CBR320) ~ 184 Mb | Time: 01:18:46

Quite simply, the history of Swarb’s career through landmark performances and watershed recordings. From his early days as a session player and contributor to The Radio Ballads, through the invention of folk rock to the blue mountains of Australia and Orchard, here is as much of the very best of Swarb's career as will fit on a 79-minute CD!

Tracklist:

01. Bonaparte's Retreat (0.55)
solo, from the album Swarbrick 2 (1977)
02. Rocky Road to Dublin / Drops of Brandy (1.26)
Ian Campbell Folk Group, from their album This Is the Ian Campbell Folk Group (1963)
03. The Widow of Westmoreland's Daughter (2.12)
A.L. Lloyd, from his album The Bird in the Bush: Traditional Songs of Love and Lust (1967)
04. Earl of Moray (1.26)
Ian Campbell Folk Group, from their rare EP Highland Songs (1967)
05. The Hen's March Medley (The Hen's March Through the Midden / The Four-Poster Bed / Swallowtail / Tail Toddle, Villafjord / Rakish Paddy) (6.28)
with Martin Carthy, archive recording (1967)
06. Father Kelly / Skopje / Sligo Maid (3.39)
with Martin Carthy and Diz Disley, from Rags, Reels and Airs (1967)
07. The Praties They Grow Small (2.46)
with Lorna Campbell singing, from the album Ian Campbell and the Ian Campbell Folk Group with Dave Swarbrick (1969)
08. The Liege and Lief Medley (The Lark in the Morning / Rakish Paddy / Foxhunter's Jig / Toss the Frathers) (3.49)
Fairport Convention, live at the Philadelphia Folk Festival (1970)
09. The Hangman's Reel (3.24)
Fairport Convention, BBC 'In Concert' (July 26, 1970)
10. Hanging Song (5.40)
Fairport Convention, live (1972)
11. Rosie (3.17)
Fairport Convention, The Manor Sessions (1972)
12. Sheebeg and Sheemore (Si bheag si mhor) (5.51)
with Simon Nicol live in Chicago (1981)
13. The Gravel Path to Granny's / The Leighton Buzzard Shuffle (3.30)
Dave Swarbrick & Friends live at the Cambridge Folk Festival (1980)
14. Loving Hannah [p. 92] (6.03)
Whippersnapper, BBC 'Folk on 2' (1984)
15. Carthy's March / The Lemon Tree (4.34)
with Martin Carthy live at Carson's in Cincinnati (1990)
16. The Trip We Took Over the Mountain (3.14)
with Martin Carthy and Savourna Stevenson Dave Swarbrick's 50th Birthday Concert (1994)
17. Bonny Black Hare (3.08)
solo, BBC Worldwide (1994)
18. The Wives (3.18)
with Kevin Dempsey at The Basement (1996)
19. Two Magicians (4.17)
solo at The Assembly Hall, Melbourne (1996)
20. Lassies of Neilston (1.30)
with Alistair Hulett on the album Red Clydeside (2002)
21. My Heart's in New South Wales (5.08)
with Kevin Dempsey and Fairport Convention at Fairfield Halls, Croydon (2000); from English Fiddler (2003)

Exact Audio Copy V0.99 prebeta 5 from 4. May 2009

EAC extraction logfile from 6. April 2010, 21:44

Dave Swarbrick / Swarb!! S is for Swarb

Used drive : TSSTcorpCD/DVDW SH-S182D Adapter: 0 ID: 1

Read mode : Secure
Utilize accurate stream : Yes
Defeat audio cache : Yes
Make use of C2 pointers : No

Read offset correction : 6
Overread into Lead-In and Lead-Out : No
Fill up missing offset samples with silence : Yes
Delete leading and trailing silent blocks : No
Null samples used in CRC calculations : Yes
Used interface : Native Win32 interface for Win NT & 2000
Gap handling : Appended to previous track

Used output format : User Defined Encoder
Selected bitrate : 768 kBit/s
Quality : High
Add ID3 tag : No
Command line compressor : C:\Program Files\Exact Audio Copy\FLAC\FLAC.EXE
Additional command line options : -V -8 -T "artist=%a" -T "title=%t" -T "album=%g" -T "date=%y" -T "tracknumber=%n" -T "genre=%m" %s


TOC of the extracted CD

Track | Start | Length | Start sector | End sector
––––––––––––––––––––––––––––-
1 | 0:00.00 | 0:54.54 | 0 | 4103
2 | 0:54.54 | 1:29.06 | 4104 | 10784
3 | 2:23.60 | 2:16.08 | 10785 | 20992
4 | 4:39.68 | 3:31.41 | 20993 | 36858
5 | 8:11.34 | 6:33.27 | 36859 | 66360
6 | 14:44.61 | 3:43.20 | 66361 | 83105
7 | 18:28.06 | 2:49.57 | 83106 | 95837
8 | 21:17.63 | 3:53.60 | 95838 | 113372
9 | 25:11.48 | 3:24.24 | 113373 | 128696
10 | 28:35.72 | 5:43.20 | 128697 | 154441
11 | 34:19.17 | 3:20.04 | 154442 | 169445
12 | 37:39.21 | 5:51.14 | 169446 | 195784
13 | 43:30.35 | 3:33.50 | 195785 | 211809
14 | 47:04.10 | 6:06.40 | 211810 | 239299
15 | 53:10.50 | 4:38.64 | 239300 | 260213
16 | 57:49.39 | 3:17.44 | 260214 | 275032
17 | 61:07.08 | 3:11.39 | 275033 | 289396
18 | 64:18.47 | 3:21.13 | 289397 | 304484
19 | 67:39.60 | 4:21.63 | 304485 | 324122
20 | 72:01.48 | 1:33.70 | 324123 | 331167
21 | 73:35.43 | 5:10.61 | 331168 | 354478


Track 1

Filename C:\Program Files\uTorrent\Downloads\Swarb\S is for Swarb\01 Dave Swarbrick , Bonaparte's Retreat - Dave Swarbrick.wav

Pre-gap length 0:00:02.00

Peak level 99.9 %
Track quality 100.0 %
Test CRC 46618B75
Copy CRC 46618B75
Accurately ripped (confidence 1) [65D73605]
Copy OK

Track 2

Filename C:\Program Files\uTorrent\Downloads\Swarb\S is for Swarb\02 Ian Campbell Folk Group , Rocky Road to Dublin~Drops of Brandy - Dave Swarbrick.wav

Peak level 99.5 %
Track quality 100.0 %
Test CRC E7E73A87
Copy CRC E7E73A87
Accurately ripped (confidence 1) [DD1C0D0D]
Copy OK

Track 3

Filename C:\Program Files\uTorrent\Downloads\Swarb\S is for Swarb\03 Bert Lloyd , The Widow of Westmoreland's Daughter - Dave Swarbrick.wav

Pre-gap length 0:00:02.69

Peak level 100.0 %
Track quality 100.0 %
Test CRC 794448BB
Copy CRC 794448BB
Accurately ripped (confidence 1) [E6A2B0F9]
Copy OK

Track 4

Filename C:\Program Files\uTorrent\Downloads\Swarb\S is for Swarb\04 Ian Campbell Folk Group , Earl of Moray - Dave Swarbrick.wav

Pre-gap length 0:00:03.26

Peak level 79.3 %
Track quality 100.0 %
Test CRC AFC72ED6
Copy CRC AFC72ED6
Accurately ripped (confidence 1) [262E9952]
Copy OK

Track 5

Filename C:\Program Files\uTorrent\Downloads\Swarb\S is for Swarb\05 Dave Swarbrick with Martin Carthy , Hen's March Medley - Dave Swarbrick.wav

Pre-gap length 0:00:03.29

Peak level 99.9 %
Track quality 100.0 %
Test CRC E1F9D36B
Copy CRC E1F9D36B
Accurately ripped (confidence 1) [8C1CD1E6]
Copy OK

Track 6

Filename C:\Program Files\uTorrent\Downloads\Swarb\S is for Swarb\06 Dave Swarbrick with Martin Carthy and Diz Disley , Father Kelly~Skopje~Sligo Maid - Dave Swarbrick.wav

Pre-gap length 0:00:02.65

Peak level 82.2 %
Track quality 100.0 %
Test CRC 58E40388
Copy CRC 58E40388
Accurately ripped (confidence 1) [4278EB64]
Copy OK

Track 7

Filename C:\Program Files\uTorrent\Downloads\Swarb\S is for Swarb\07 Lorna Campbell , Praties they Grow Small - Dave Swarbrick.wav

Pre-gap length 0:00:03.10

Peak level 79.5 %
Track quality 100.0 %
Test CRC D887EF08
Copy CRC D887EF08
Accurately ripped (confidence 1) [31D50DE8]
Copy OK

Track 8

Filename C:\Program Files\uTorrent\Downloads\Swarb\S is for Swarb\08 Fairport Convention , The Leige & Lief Medley - Dave Swarbrick.wav

Pre-gap length 0:00:03.33

Peak level 93.7 %
Track quality 100.0 %
Test CRC D75C31CB
Copy CRC D75C31CB
Accurately ripped (confidence 1) [CB0851A6]
Copy OK

Track 9

Filename C:\Program Files\uTorrent\Downloads\Swarb\S is for Swarb\09 Fairport Convention , The Hangman's Reel - Dave Swarbrick.wav

Pre-gap length 0:00:04.13

Peak level 74.6 %
Track quality 100.0 %
Test CRC 3F7B5E5D
Copy CRC 3F7B5E5D
Accurately ripped (confidence 1) [7041F158]
Copy OK

Track 10

Filename C:\Program Files\uTorrent\Downloads\Swarb\S is for Swarb\10 Fairport Convention , Hanging Song - Dave Swarbrick.wav

Peak level 75.9 %
Track quality 100.0 %
Test CRC A26E5BEC
Copy CRC A26E5BEC
Accurately ripped (confidence 1) [8E41D138]
Copy OK

Track 11

Filename C:\Program Files\uTorrent\Downloads\Swarb\S is for Swarb\11 Fairport Convention , Rosie - Dave Swarbrick.wav

Pre-gap length 0:00:02.65

Peak level 92.7 %
Track quality 100.0 %
Test CRC 3BAC5DF6
Copy CRC 3BAC5DF6
Accurately ripped (confidence 1) [6E409BC3]
Copy OK

Track 12

Filename C:\Program Files\uTorrent\Downloads\Swarb\S is for Swarb\12 with Simon Nicol , Sheebeg and Sheemore - Dave Swarbrick.wav

Pre-gap length 0:00:02.66

Peak level 100.0 %
Track quality 100.0 %
Test CRC 5BF8F72B
Copy CRC 5BF8F72B
Accurately ripped (confidence 1) [F6A81AA8]
Copy OK

Track 13

Filename C:\Program Files\uTorrent\Downloads\Swarb\S is for Swarb\13 Dave Swabrick & friends , The Gravel Path~Leighton Buzzard Shuffle - Dave Swarbrick.wav

Peak level 86.4 %
Track quality 100.0 %
Test CRC 1C342B4C
Copy CRC 1C342B4C
Accurately ripped (confidence 1) [BDCA1460]
Copy OK

Track 14

Filename C:\Program Files\uTorrent\Downloads\Swarb\S is for Swarb\14 Whippersnapper , Loving Hannah - Dave Swarbrick.wav

Pre-gap length 0:00:02.52

Peak level 68.1 %
Track quality 100.0 %
Test CRC 5D3B990B
Copy CRC 5D3B990B
Accurately ripped (confidence 1) [79CDAB87]
Copy OK

Track 15

Filename C:\Program Files\uTorrent\Downloads\Swarb\S is for Swarb\15 Dave Swarbrick with Martin Carthy , Carthy's March~The Lemon Tree - Dave Swarbrick.wav

Pre-gap length 0:00:02.68

Peak level 37.6 %
Track quality 100.0 %
Test CRC DA2D65D4
Copy CRC DA2D65D4
Accurately ripped (confidence 1) [782E22C8]
Copy OK

Track 16

Filename C:\Program Files\uTorrent\Downloads\Swarb\S is for Swarb\16 Dave Swarbrick with Martin Carthy and Savourna Stevenson , The Trip We Took Over the Mountain - Dave Swarbrick.wav

Pre-gap length 0:00:03.61

Peak level 95.5 %
Track quality 99.9 %
Test CRC 9764ECCA
Copy CRC 9764ECCA
Accurately ripped (confidence 1) [011F9BBD]
Copy OK

Track 17

Filename C:\Program Files\uTorrent\Downloads\Swarb\S is for Swarb\17 Dave Swarbrick , Bonny Black Hare - Dave Swarbrick.wav

Pre-gap length 0:00:02.86

Peak level 76.1 %
Track quality 100.0 %
Test CRC 516129FE
Copy CRC 516129FE
Accurately ripped (confidence 1) [374C7C77]
Copy OK

Track 18

Filename C:\Program Files\uTorrent\Downloads\Swarb\S is for Swarb\18 Dave Swarbrick with Kevin Dempsey , The Wives - Dave Swarbrick.wav

Pre-gap length 0:00:02.57

Peak level 99.8 %
Track quality 100.0 %
Test CRC FF8B8634
Copy CRC FF8B8634
Accurately ripped (confidence 1) [E326D5A4]
Copy OK

Track 19

Filename C:\Program Files\uTorrent\Downloads\Swarb\S is for Swarb\19 Dave Swarbrick , Two Magicians - Dave Swarbrick.wav

Pre-gap length 0:00:02.46

Peak level 81.5 %
Track quality 100.0 %
Test CRC E56A7A0F
Copy CRC E56A7A0F
Accurately ripped (confidence 1) [46C2A52B]
Copy OK

Track 20

Filename C:\Program Files\uTorrent\Downloads\Swarb\S is for Swarb\20 Dave Swarbrick with Alistair Hulett , Lassies of Neilston - Dave Swarbrick.wav

Pre-gap length 0:00:04.06

Peak level 96.6 %
Track quality 100.0 %
Test CRC 204DB742
Copy CRC 204DB742
Accurately ripped (confidence 1) [D1F5B526]
Copy OK

Track 21

Filename C:\Program Files\uTorrent\Downloads\Swarb\S is for Swarb\21 Dave Swarbrick with Kevin Dempsey and Fairport Convention , My Heart's in New South Wales - Dave Swarbrick.wav

Pre-gap length 0:00:03.94

Peak level 97.3 %
Track quality 99.9 %
Test CRC 9E7E1C36
Copy CRC 9E7E1C36
Accurately ripped (confidence 1) [F4BCA5EF]
Copy OK


All tracks accurately ripped

No errors occurred

End of status report

[CUETools log; Date: 11.04.2018 23:05:59; Version: 2.1.4]
[CTDB TOCID: AhBi9Cftc0t3a_9sgV7_Dk6Qv78-] found.
Track | CTDB Status
1 | (5/5) Accurately ripped
2 | (5/5) Accurately ripped
3 | (5/5) Accurately ripped
4 | (5/5) Accurately ripped
5 | (5/5) Accurately ripped
6 | (5/5) Accurately ripped
7 | (5/5) Accurately ripped
8 | (5/5) Accurately ripped
9 | (5/5) Accurately ripped
10 | (5/5) Accurately ripped
11 | (5/5) Accurately ripped
12 | (5/5) Accurately ripped
13 | (5/5) Accurately ripped
14 | (5/5) Accurately ripped
15 | (5/5) Accurately ripped
16 | (5/5) Accurately ripped
17 | (5/5) Accurately ripped
18 | (5/5) Accurately ripped
19 | (5/5) Accurately ripped
20 | (5/5) Accurately ripped
21 | (5/5) Accurately ripped
[AccurateRip ID: 0037ff26-0379095d-18127615] found.
Track [ CRC | V2 ] Status
01 [65d73605|0e95cdb5] (03+07/10) Accurately ripped
02 [dd1c0d0d|38fab6b1] (03+07/10) Accurately ripped
03 [e6a2b0f9|9cd52c62] (03+07/10) Accurately ripped
04 [262e9952|1f1d196e] (03+07/10) Accurately ripped
05 [8c1cd1e6|a0ce2b78] (03+07/10) Accurately ripped
06 [4278eb64|dd823d73] (03+07/10) Accurately ripped
07 [31d50de8|96423845] (03+07/10) Accurately ripped
08 [cb0851a6|29c626a4] (03+07/10) Accurately ripped
09 [7041f158|ba80b227] (03+07/10) Accurately ripped
10 [8e41d138|86edbf92] (03+07/10) Accurately ripped
11 [6e409bc3|5310c106] (03+07/10) Accurately ripped
12 [f6a81aa8|a34cc3c9] (03+07/10) Accurately ripped
13 [bdca1460|7e456ae7] (03+07/10) Accurately ripped
14 [79cdab87|accf77f2] (03+07/10) Accurately ripped
15 [782e22c8|d18a43f4] (03+07/10) Accurately ripped
16 [011f9bbd|bb560ea6] (03+07/10) Accurately ripped
17 [374c7c77|a8f49943] (03+07/10) Accurately ripped
18 [e326d5a4|23c2788c] (03+07/10) Accurately ripped
19 [46c2a52b|6da1c1c7] (03+07/10) Accurately ripped
20 [d1f5b526|b428b542] (03+07/10) Accurately ripped
21 [f4bca5ef|a5e43944] (03+07/10) Accurately ripped

Track Peak [ CRC32 ] [W/O NULL] [ LOG ]
– 100,0 [FA0502F1] [DAA2744B]
01 99,9 [46618B75] [63CD49CC] CRC32
02 99,5 [E7E73A87] [35B4951E] CRC32
03 100,0 [794448BB] [72D2D7E7] CRC32
04 79,3 [AFC72ED6] [A01D5667] CRC32
05 99,9 [E1F9D36B] [A4601F3A] CRC32
06 82,2 [58E40388] [1A5D247A] CRC32
07 79,5 [D887EF08] [06E76D6E] CRC32
08 93,7 [D75C31CB] [43151A94] CRC32
09 74,6 [3F7B5E5D] [72C6E2E9] CRC32
10 75,9 [A26E5BEC] [0DF385EF] CRC32
11 92,7 [3BAC5DF6] [A8007625] CRC32
12 100,0 [5BF8F72B] [4EF7C34C] CRC32
13 86,4 [1C342B4C] [FBC0799B] CRC32
14 68,1 [5D3B990B] [96E79F3E] CRC32
15 37,6 [DA2D65D4] [7143C80E] CRC32
16 95,5 [9764ECCA] [A70E60A6] CRC32
17 76,1 [516129FE] [920E4FE2] CRC32
18 99,8 [FF8B8634] [F05A1F6C] CRC32
19 81,5 [E56A7A0F] [58FCC314] CRC32
20 96,6 [204DB742] [1A640A5D] CRC32
21 97,3 [9E7E1C36] [F4D0DFBD] CRC32

foobar2000 1.2 / Dynamic Range Meter 1.1.1
log date: 2018-04-11 23:44:55

––––––––––––––––––––––––––––––––––––––––
Analyzed: Dave Swarbrick / Swarb!! S is for Swarb
––––––––––––––––––––––––––––––––––––––––

DR Peak RMS Duration Track
––––––––––––––––––––––––––––––––––––––––
DR13 -0.01 dB -17.35 dB 0:55 01-Dave Swarbrick / Bonaparte's Retreat
DR10 -0.04 dB -13.28 dB 1:29 02-Ian Campbell Folk Group / Rocky Road to Dublin~Drops of Brandy
DR13 0.00 dB -15.15 dB 2:16 03-Bert Lloyd / The Widow of Westmoreland's Daughter
DR9 -2.01 dB -13.47 dB 3:32 04-Ian Campbell Folk Group / Earl of Moray
DR13 -0.01 dB -14.69 dB 6:33 05-Dave Swarbrick with Martin Carthy / Hen's March Medley
DR8 -1.70 dB -12.28 dB 3:43 06-Dave Swarbrick with Martin Carthy and Diz Disley / Father Kelly~Skopje~Sligo Maid
DR12 -1.98 dB -18.18 dB 2:50 07-Lorna Campbell / Praties they Grow Small
DR13 -0.56 dB -14.70 dB 3:54 08-Fairport Convention / The Leige & Lief Medley
DR11 -2.53 dB -14.09 dB 3:24 09-Fairport Convention / The Hangman's Reel
DR9 -2.39 dB -13.66 dB 5:43 10-Fairport Convention / Hanging Song
DR10 -0.66 dB -14.28 dB 3:20 11-Fairport Convention / Rosie
DR13 0.00 dB -16.90 dB 5:51 12-with Simon Nicol / Sheebeg and Sheemore
DR12 -1.27 dB -15.49 dB 3:34 13-Dave Swabrick & friends / The Gravel Path~Leighton Buzzard Shuffle
DR9 -3.33 dB -15.46 dB 6:07 14-Whippersnapper / Loving Hannah
DR5 -8.48 dB -15.89 dB 4:39 15-Dave Swarbrick with Martin Carthy / Carthy's March~The Lemon Tree
DR15 -0.40 dB -17.86 dB 3:18 16-Dave Swarbrick with Martin Carthy and Savourna Stevenson / The Trip We Took Over the Mountain
DR10 -2.36 dB -14.14 dB 3:12 17-Dave Swarbrick / Bonny Black Hare
DR16 -0.01 dB -17.48 dB 3:21 18-Dave Swarbrick with Kevin Dempsey / The Wives
DR14 -1.77 dB -18.53 dB 4:22 19-Dave Swarbrick / Two Magicians
DR12 -0.29 dB -15.90 dB 1:34 20-Dave Swarbrick with Alistair Hulett / Lassies of Neilston
DR13 -0.23 dB -17.69 dB 5:11 21-Dave Swarbrick with Kevin Dempsey and Fairport Convention / My Heart's in New South Wales
––––––––––––––––––––––––––––––––––––––––

Number of tracks: 21
Official DR value: DR11

Samplerate: 44100 Hz
Channels: 2
Bits per sample: 16
Bitrate: 750 kbps
Codec: FLAC
================================================================================


Dave Swarbrick - Swarb! Forty Five Years of Folk's Finest Fiddler (2003) 4 CD Box Set [Re-Up]

All thanks to original releaser - Tloluvin1

More interesting music in My Blog

Attention! The file names are very long. Please unpack it in the root directory.