Tags
Language
Tags

Deep Forest Discography (1992 - 2013)

Posted By: v3122
Deep Forest Discography (1992 - 2013)

Deep Forest Discography (1992 - 2013)
EAC | Flac(Image) + Cue + Log & MP3 CBR 320Kbps
12CD | ~ 4601 or 1869 Mb | Scans
World Music / New Age / Electronica / House / Tribal / Downtempo / Ambient

Innovatively fusing traditional ethnic musics with state-of-the-art rhythms, the work of Deep Forest was best typified by their 1993 smash "Sweet Lullaby," which brought together the contemporary sounds of ambient techno with the haunting voices of the Pygmies of the central African rain forest. The project was primarily the work of the French keyboardists and programmers Eric Mouquet and Michael Sanchez; after the latter returned from Africa with boxes of records he'd picked up across the continent, he and Mouquet began sampling the native sounds for use with their atmospheric dance tracks, and with the aid of producer Dan Lacksman, their eponymous debut LP appeared in 1993. Propelled by the international hit "Sweet Lullaby," Deep Forest was a surprise success; Mouquet and Sanchez soon began work on a follow-up, this time exploring such areas as Mongolia, India and Hungary, recording several tracks with singer Marta Sebestyen. The resulting album, Boheme, appeared in 1995; the third Deep Forest record, Comparsa, followed in 1998, with Live in Japan appearing a year later. In 2000 the duo recorded a soundtrack, Pacifique, to the French film Le Prince du Pacifique. Deep Forest returned in 2002 with its next proper studio album, Music.Detected

by Jason Ankeny
Deep Forest Discography (1992 - 2013)

Deep Forest (пер. с англ. дремучий лес) — музыкальная группа, состоящая из двух французских музыкантов, Эрика Муке и Мишеля Санчеса. Они пишут музыку в новом стиле world music, иногда называемом этно-электроника, микшируя этнические и электронные звуки, а также танцевальные биты или чил-аут биты. Фактически музыканты Deep Forest единолично создали столь популярный сегодня стиль world music, приоритет в котором ошибочно отдают Питеру Гэбриэлу и Майку Олдфилду. Deep Forest первым среди тяготеющих к рок-этносу групп придал прежде пунктирным и хаотическим «вкраплениям» элементов world music законченную, совершенную форму, эталоном которой можно считать выдающийся хит группы «Sweet Lullaby». История гласит, что Deep Forest начался с возвращения Санчеса из Африки, где он занимался изучением структур и гармонии африканской музыки — методом проб и ошибок Санчес и Муке искали необходимый для их проекта саунд, пробовали различные формы как лидирующего так и бэк-вокала, — и в конце концов остановились на модели, для которой характерны выведенный на передний план голос, который «плавает» по ткани композиций, опираясь на гармонические структуры стилизованной народной музыки Заира, Камеруна и Центральной Африканской Республики.

Дебютный сингл дуэта «Sweet Lullaby» (1992 год) стал международным бестселлером, выведя на лидирующие позиции европейских хит — парадов и первый полнометражный альбом Deep Forest. Использование в пластинке элементов музыки пигмеев привело к тому, что часть композиций альбомов включили в серию так называемых «благотворительных сборников», выпускаемых по программе помощи африканским племенам, в том числе и пигмеям. Таким образом, Deep Forest получили статус группы, чья деятельность согласована и частично проходит под эгидой ЮНЕСКО. Дебютный альбом номинировался на премию «Грэмми», в Австралии завоевал двойную «платину», и только в США за неделю продавалось около 2 тысяч экземпляров этой пластинки.

Материал для второго диска Санчес и Муке искали в Восточной Европе, в частности в Венгрии, где музыканты познакомились с известной певицей Мартой Шебештьен, занимавшейся народными хорами. Убедившись, что вокал Шебештьен как нельзя лучше подходит под задуманную концепцию второго альбома, музыканты пригласили Шебештьен в Лилль, где она записала несколько венгерских народных песен часть из которых Санчес семплировал, и на полученные таким образом аранжировки наложил партии фортепиано и других инструментов. Кроме того, в альбом «Boheme», который критики справедливо назвали «новой Богемской рапсодией», вошли композиции, построенные на монгольской музыке, а также стилизованные цыганские и индейские песни.

К моменту выхода второго альбома Санчес и Муке приобрели репутацию опытных и виртуозных мастеров ремикса и семплерной аранжировки, к их услугам прибегали певцы Юссу Н’Дур и Джон Андерсон (YES), а также группа Apollo 440. По просьбе режиссёра Кэтрин Бигелоу дуэт создал фонограмму к её фильму «Странные дни» (в частности композицию «Coral Lounge»; сотрудничество с Питером Гэбриэлом увенчалось совместным мини — альбомом «While The Earth Sleeps». Альбом 1997 года, построенный по большей части на карибской музыке, свидетельствовал о намерении музыкантов и впредь разрабатывать темы world music и эмбиента. И действительно, в 2002 году Deep Forest записали сильнейший альбом «Music.Detected».

Оба ключевых персонажа, фигурирующие в деле DEEP FOREST, родились на севере Франции, в области Douaiс разницей в три года. Сначала Мишель Санчес - в городке Somain среди живописных угольных шахт, затем Эрик Муке - в непримечательном селении Valenciennes. Мишелю музицирование понравилось гораздо раньше своего будущего партнёра по музыкальному бизнесу. Беднягу уже в 4 года отдали в обучение мьсе D'Alberto и заставили таскать тяжеленный аккордеон. Именно этот человек привил маленькому Санчесу любовь к джазовой музыке. Но конечно не сразу. Были ещё папин ремень и гаммы вместо футбола. В 15 лет он начинает изучать клавишные инструменты и перкуссию в Douai Academy и продолжает обучение в консерватории в Париже. Здесь молодой человек начинает проявлять нездоровый интерес к смешению всевозможных звуковых составляющих затерянных культур с современными синтезаторными звуками.

Эрик Муке
Эрик Муке в свои 15 лет уже наяривал на подаренном на день рожденье электронном органе. А в 16 пристроился в местную группу воспроизводить наследие Rolling Stones, Yes и Genesis. Правда, была у него ещё одна страсть - астрономия. Дело дошло даже до постройки в 1999 году обсерватории в Rumaucourt. Высококачественные фотографии небесных объектов, сделанные здесь, в то время весьма ценились в соответствующих журналах. Но с музыкой Эрику повезло больше. Понемногу он начинает сочинять музыку для рекламы, делает себе имя как продюссер и специалист по электронным музыкальным технологиям. Даже умудряется всучить несколько своих собственных песен уже признанным французским исполнителям Patsy, Herbert Leonard и Jackie Quartz. Что касается этнической музыки, то Муке больше привлекал кельтский лад.
Мишель Санчес к тому времени становится серьёзным экспертом в области музыкального этноса. Его вторым домом был парижский музей de l'Homme с его огромной коллекцией редких аутентичных записей со всех уголков планеты. Винилы специализированного лейбла Ocora он знал наизусть. Восновном его интересовали полифонические произведения вокального искусства пигмеев Северной Африки и традиционные песни Соломоновых островов. Скороговорки бабушек из французской глубинки Мишеля не привлекали. Тем не менее он в 1980 году возвращается домой и начинает работать на студии звукозаписи. Санчес решил полностью посвятить себя электронной музыке. В то время синтезаторы казались ему гораздо более богатыми по звучанию, чем привычный орган. Эх, совместить бы электронику с звуком титанов джаза Miles Davis и Herbie Hancock! Но не забывал Мишель и о своём студенческом увлечении африканским фольклёром и постоянно пополнял свою музыкальную коллекцию этнографическими редкостями, порой 20-30-ти летней давности.

Мишель Санчес
И вот в 1991 году их встреча состоялась. Вернее, они и раньше изредка общались через общих знакомых и пересекались в студиях, но никаких серъёзных разговоров не вели. Эрик Муке тогда работал над инновационным электронным дэнс-проектом: барабанные лупы, космические звуки, качающие басовые линии. Санчесу после прослушивания музыки своего коллеги приходит в голову гениальная идея, - в качестве вокальных сэмплов использовать записи народных пигмейских и меланезийских песнопений. Проще говоря, скрестить хаус и фольклёр и сделать это доступным европейскому уху. Так родился DEEP FOREST. Новый музыкальный концепт решили не портить рамками агрессивных клубных танцевальных веяний; задумка Санчеса идеально подходила к любому современному электронному направлению, будь то синти-поп или эйсид-джаз. Поскольку оба музыканта на тот момент были уже далеко не в подростковом возрасте, то свежая идея была тщательно и максимально серьёзно воплощена в жизнь.
Подготовка первого сингла и последующего дебютного альбома заняла у дуэта шесть месяцев кропотливой работы в брюссельской студии Madeleine. За процессом присматривал Дэн Лаксман, владелец первого в Бельгии синтезатора и впоследствие добрый друг и соратник DEEP FOREST. Отслушивалось огромное количество записей охотничьих криков пигмеев центральноафриканских джунглей. Были выпиты сотни литров кофе и эля, съедены десятки килограммов арденнской ветчины и скумбрии по-фламандски, прежде чем непростая мозаика звуков сложилась в гармоничное полотно. Всё-таки это был 92 год и скорость компьютерных процессоров была на порядок медленнее. Релиз первенца DEEP FOREST, сингла "Sweet Lullaby" состоялся в мае. Трек состоял из смеси эмбиент-техно и голоса охотника Афунаквы с Соломоновых островов. Это показалось интересным не только Мишелю и Эрику, - песня через 4 месяца попала на первое место французского Топ 50. Она стала такой популярной, что явилась основой для многочисленных рекламных роликов на радио и ТВ по всему миру. Сам же альбом "Deep Forest" стал международным хитом в количестве 2 миллионов штук, получив платиновый статус в Новой Зеландии, Австралии, США и золотой - в большинстве европейских стран. Последовала номинация Грэмми за лучший "world music"-проект. Это было уже по-взрослому.

Осознав наличие успеха, музыканты решили развивать концепцию единения технологий и экзотики дальше. Но сначала они переиздают дебют в виде альбома "World Mix" и каждый реализует в 94 году свои альтер-эго. Эрик Муке ведомый любовью к кельтской культуре выпускает сольный альбом "Ti Eliz Iza" в виде проекта DAO DEZI. А Мишель Санчес под своим именем с Дэном Лаксманом записывает диск "Windows", который не очень сильно отличался от того, что на тот момент происходило c DEEP FOREST. А здесь варился новый альбом, на котором было решено использовать голоса народов Монголии, Индии и Восточной Европы. Самоповторов не случилось, - альбом "Boheme" 95 года значительно обогатил первоначальный замысел Санчеса и Муке, постепенно превращая сугубо музыкальный проект в культурологическое явление. Диск вышел в 35 странах. Несомненным хитом нового альбома стали "Marta's Song", спетая венгерской певицей Marta Sebestyen, "Boheme" и "Bohemian Ballet". Альбом жил романтической ностальгией и новыми идеями. DEEP FOREST привлекают внимание известных в мире поп-этно-музыки людей: Peter Gabriel, Youssou N'Dour, Neneh Cherry, Wes Madiko. Бонус-треком к "Boheme" становится песня "While The Earth Sleeps", которую дуэт смастерил вместе с Питером Гэбриэлом для фильма "Strange Days". Последовали совместные работы с Lokua Kanza, Apollo 440, музыка DEEP FOREST попадает на звуковые дорожки к фильмам "Pret-a-Porter" и "The Island of Dr. Moreau". Это, как выяснилось позже, было только началом.

Группа выбирается на общепризнанный международный уровень. За альбом "Boheme" музыканты отхватывают новую награду Грэмми в уже привычной для себя номинации "world music" и награду World Music Award, как французская группа имевшая наибольший уровень продаж в 1995 году. Бум DEEP FOREST случается в Юго-Восточной Азии, особенно в Японии. С этой страной музыкантов далее на протяжении всей своей карьеры связывают тесные творческие и деловые отношения. В 1996 году с группой случается первый официальный живой концерт на закрытии саммита Большой семёрки во французском Лионе. Дабы с привыкшими к студийной работе Санчесом и Муке не случилось нервного срыва, с ними выступала большая группа поддержки, включая нескольких певцов, африканский хор и группу танцоров. Обошлось без стриптиза и валерьянки. После этого концерты стали регулярными, а их география расширилась до Австралии.

Нравится не только японцам
К записи очередного опуса DEEP FOREST подошли ещё более основательно. Теперь им было мало звуков из музыкальных библиотек и этнографических архивов. Мишель и Эрик в силу складывающихся промо-обстоятельств очень много путешествовали, и их портативные DAT-студии и цифровые камеры работали в полную силу, записывая всё новые и новые экзотические голоса и звуки. Из длительной поездки по странам Карибского бассейна (включая Кубу и Мексику) музыканты привезли много интересного материала, который и составил основу третьего альбома французского дуэта. "Comparsa" появился в 1997 и просто лучился карнавальной радостью и хорошим настроением. Визитной карточкой "Comparsa" стал сингл "Madazulu". Шаманические пляски вокруг костра гармонировали здесь с зомбирующим битом и особенным настроением, не поддающимся известным шаблонам. В размеренный темп, из-за которого группу постоянно сравнивали с Enigma и Sacred Spirit, были добавлены современные танцевальные ритмы и drum'n'bass. "То, как мы делаем нашу музыку, впринципе ничем не отличается от того, как делают современную танцевальную и техно-музыку. То что нам не нравится, так это ажиотаж вокруг хитов, основанных на тупом техно-бите. Это не имеет ничего общего с креативностью. Мы могли бы клонировать десять раз "Sweet Lullaby" и заработать ещё больше денег, но для нас это не имело бы никакой другой ценности. Хотя мы с удовольствием даём делать ремиксы на наши песни другим музыкантам". В песнях "Noonday Sun" и "Green and Blue" вокальные партии исполнила Mama Sana, мадагаскарская певица, которой на тот момент исполнилось сто лет. Остальные треки поделили между собой камерунский певец Вес Мадико, испанская звезда Ана Тороха, музыкант из Сирии Абед Азри и мексиканец Хорхе Рейес. Сюрпризов на альбоме хватало, но ещё больше на нём было музыкального удовольствия. В какой-то момент языковые и культурные барьеры просто исчезали, создавая единое универсальное звуковое поле и ощущение причастности к истории и наследию неведомых племён в далёких уголках планеты.

Следующим шагом DEEP FOREST стало создание полноценного "живого" альбома. Засвидетельствовать свой космополитизм дуэт решил во время турне по Японии, записав несколько концертов в 1998 году. Но один из них, в Токио, обладал по мнению Санчеса и Муке магической атмосферой, эссенцией лучших впечатлений за всё их мировое турне того периода. В компании с ними на сцене играли 9 приглашённых музыкантов, а хиты группы благодаря живому исполнению значительно обновили свою энергетику. Этому концерту и выпала участь быть увековеченным в диске "Made In Japan" в 1999 году. После этого Мишель берёт небольшой тайм-аут и записывает новую сольную пластинку "Hieroglyphes". Довольно странная смесь этники, джаза и вокальной акробатики была издана ограниченным тиражём только во Франции и Японии.

А в 2000 году дуэт снова берётся за сундтрек и записывает превосходное музыкальное сопровождение к французскому фильму "The Prince Of The Pacific", с использованием культуры новозеландского племени маори и полинезийских песен. Благодаря этому, фильм приобрёл физически ощутимый тихоокеанский колорит и идеально украсил визуальные образы жизни на далёком райском острове. Так вы не были на Таити!? Какое прекрасное место, - Таити!

Немного передохнув и выпустив только для азиатского рынка DVD "Image Live" (ещё один, более свежий токийский концерт с участием звёзд Страны восходящего солнца), Санчес и Муке снова засели по своим студиям обкатывать новые идеи.

К этому времени у группы закончился контракт с Sony Music, и возник беспочвенный слух о распаде дуэта. DEEP FOREST было просто не до слухов и домыслов. Музыканты по привычке работали по отдельности и позже комбинировали свои звуковые находки в то, что может называться только DEEP FOREST. В редких перерывах между студийными сессиями для нового альбома, Санчес и Муке уделяли внимание европейским и японским музыкантам, продюссируя целые альбомы и делая ремиксы (Fumiaki Miyamoto, Apanachee, Liswentitch, Johnny Hallyday, Chitose Hajime, Ana Torroja). К 2002 году дошло дело до ремикса для песни "I Wish You Love" с нового альбома Патрисии Каас "Piano Bar"….и до нового творения DEEP FOREST, получившего название "Music Detected". В нём объединились звуки Японии, Индии, Китая и Турции с госпельными пениями, брейк-битом и даже роком. Поклонников предыдущих работ дуэта здесь ожидал ряд откровений. Во-первых, участие живого барабанщика. Во-вторых новые песни сочинялись на основе гитарных риффов. Муке признался, что они с напарником стали использовать гораздо меньше миди-инструментов, и технологии с которыми они работали на первых релизах давно ушли в прошлое. Альбом был идеально отшлифован и при этом сохранил "жизнь". Идентифицировать музыку DEEP FOREST стало ещё сложнее. "Techno-Fusion-Rock-World-Jazz"? Публике пришлось мириться с тем, что "Music Detected" представляет собой новый виток развития "world music". Благодаря новой комбинации культур, альбом быстро занял свою нишу, хотя и разочаровал своим новаторством некоторых фэной первой волны. Промотировать пластинку было поручено синглу "Endangered Species", ремикшированные версии которого, успешно крутились по танцевальным клубам. Интернациональный вокальный цех Муке и Санчес собрали из индийца Mahalakshmi Iyer, японца Chitose Hajime, индонезийской поп-принцессы Anggun и нескольких европейских/американских голосов (Stefka Iordanova, Beverly Jo Scott). Присутствие в песнях англоязычной лирики тоже стало новинкой и помогло более чётко уловить все ньюансы новой студийной работы французов. В одном многие рецензенты были правы, - диск мог понравиться или разочаровать с первого раза, но понять, в чём прелесть или излишество, было затруднительно. Участников DEEP FOREST это полностью устраивало. Они не покривили душой и выбрали прогресс вместо стабильных заработков от продаж предсказуемых синглов.

Пора было подводить итоги столь бурной деятельности. Итоговую пластинку "Essence of Deep Forest" японские поклонники уже по сложившейся традиции получили раньше остальных - в феврале 2003 года, а до Европы и всего остального мира диск добрался только через год. Но DEEP FOREST решили не обижать Европейский союз и снабдили компиляцию другим трек-листом и дополнительными новыми версиями хитов

Мы из лесу вышли
"Sweet Lullaby", "Night Bird" и "Desert Walk". Пусть не каждое творение DEEP FOREST удостоилось всеобщего признания и мультимиллионных продаж. Но этот сборник лучших песен дуэта лишний раз продемонстрировал его неослабевающий потенциал и ту лёгкость, с которой Санчес и Муке ставят на одну ступень с современной музыкой малоизвестные, порой архаичные и уникальные музыкальные культуры. За несколько лет с помощью новых технологий сделать их доступными всей планете, то есть то, чего эти культуры не смогли сделать за десятки и сотни лет существования, - вот главная заслуга французского дуэта.

Подведение итогов отнюдь не означало для трудоголиков Мишеля и Эрика длительных творческих отпусков. Их карьера набирает очередной виток студийной работы и совместных проектов. Муке в своей студии записывает новый альбом французской рок-группы Kharo. Собирается материал и редкие видео-съёмки для нового, уже общедоступного DVD.

Талант DEEP FOREST цветёт буйным цветом на почве работы в кинематографе. В конце 2004 года дуэт записывает саундтрек к историческому фильму "Kusa No Ran". Фильм рассказывает о средневековом восстании в японской провинции Чичибу. Тогда около 3000 крестьян, вооружённые бамбуковыми копьями и мечами восстали против экономического произвола Императора. Лишённая обильных аранжировок, бесконечно красивая и минималистическая музыка DEEP FOREST только подчеркнула трагичность повествования. Классика переплелась с японским фольклёром и музыкой "new age" - 5 баллов!
Не стоит так же забывать, что DEEP FOREST - это уже больше чем группа. Это реально существующая глобальная концепция, выросшая за рамки нескольких песен на компакт-диске. Это две постоянно уживающиеся индивидуальности, со своим кругом сподвижников, с разными источниками вдохновения, с не всегда идентичными взглядами на музыкальную современность. Но всегда с хорошим вкусом, регулярно дуэтом в перерывах между обсуждением очередной идеи дегустирующие свежие французские вина. Живут музыканты там же, при своих домашних студиях на севере Франции, в 30-ти километрах друг от друга. На отсутствие работы не жалуются.

Deep Forest Discography (1992 - 2013):

Deep Forest Discography (1992 - 2013)

CD01: Deep Forest - Deep Forest (1992)
EAC | Flac(Image) + Cue + Log & MP3 CBR 320Kbps
Epic/Sony, ESCA 5666 | ~ 259 or 106 Mb | Scans
New Age / Electronica / House / Tribal / Downtempo / Ambient

This record is a must have, because it defined a new era of crossover-style music. It took Pygmies and put them to an Enigma beat, with an occasional broken English (Dutch syntax?) commentary. Sounds cheezy, but it really works.

The band describes themselves as not a band. "Deep Forest" is a project, according to its creators. Therefore, the album is a stand-alone work, except that it enjoyed such an unpredicted success that it spawned a series of projects.

I first bought this album as an import in the early 90's. "Sweet Lullaby" had been getting some pretty frequent radio play on the San Francisco alternative rock stations, and it was simply intriguing. Nobody had ever heard voices like this. Mix in ambient jungle sounds. Synthetic beat. What a combination? Sound strange? It's not that different from what we hear today from Fatboy Slim and Moby, except of course with Pygmies. I don't think many have dared to replicate it.

By Adam Delu, amazon
Tracklist:

01. Deep Forest (5:34)
02. Sweet Lullaby (3:54)
03. Hunting (3:27)
04. Night Bird (4:18)
05. The First Twilight (3:18)
06. Savana Dance (4:26)
07. Desert Walk (5:14)
08. White Whisper (5:46)
09. The Second Twilight (3:02)
10. Sweet Lullaby (Ambient Mix) (3:44)

Exact Audio Copy V0.99 prebeta 5 from 4. May 2009

EAC extraction logfile from 22. July 2010, 16:12

Deep Forest / Deep Forest (Japanese Press)

Used drive : TSSTcorpCDDVDW SH-S223F Adapter: 0 ID: 1

Read mode : Secure
Utilize accurate stream : Yes
Defeat audio cache : Yes
Make use of C2 pointers : No

Read offset correction : 6
Overread into Lead-In and Lead-Out : No
Fill up missing offset samples with silence : Yes
Delete leading and trailing silent blocks : No
Null samples used in CRC calculations : Yes
Used interface : Installed external ASPI interface

Used output format : Internal WAV Routines
Sample format : 44.100 Hz; 16 Bit; Stereo


TOC of the extracted CD

Track | Start | Length | Start sector | End sector
––––––––––––––––––––––––––––-
1 | 0:00.00 | 5:33.32 | 0 | 25006
2 | 5:33.32 | 3:53.58 | 25007 | 42539
3 | 9:27.15 | 3:27.25 | 42540 | 58089
4 | 12:54.40 | 4:18.10 | 58090 | 77449
5 | 17:12.50 | 3:18.25 | 77450 | 92324
6 | 20:31.00 | 4:25.70 | 92325 | 112269
7 | 24:56.70 | 5:14.17 | 112270 | 135836
8 | 30:11.12 | 5:45.55 | 135837 | 161766
9 | 35:56.67 | 3:00.25 | 161767 | 175291
10 | 38:57.17 | 3:47.30 | 175292 | 192346


Range status and errors

Selected range

Filename K:\Temp\UPLOAD\Deep Forest\Deep Forest (Japanese Press)\Deep Forest 1992 - Deep Forest (Japanese Press)\Deep Forest - Deep Forest (Japanese Press).wav

Peak level 97.5 %
Range quality 100.0 %
Test CRC 57F59EA0
Copy CRC 57F59EA0
Copy OK

No errors occurred


AccurateRip summary

Track 1 not present in database
Track 2 not present in database
Track 3 not present in database
Track 4 not present in database
Track 5 not present in database
Track 6 not present in database
Track 7 not present in database
Track 8 not present in database
Track 9 not present in database
Track 10 not present in database

None of the tracks are present in the AccurateRip database

End of status report

foobar2000 1.2.4 / Dynamic Range Meter 1.1.1
log date: 2013-05-28 10:47:32

––––––––––––––––––––––––––––––––––––––––
Analyzed: Deep Forest / Deep Forest (Japanese Press)
––––––––––––––––––––––––––––––––––––––––

DR Peak RMS Duration Track
––––––––––––––––––––––––––––––––––––––––
DR14 -0.43 dB -16.06 dB 5:33 01-Deep Forest
DR12 -1.29 dB -15.93 dB 3:54 02-Sweet Lullaby
DR14 -0.22 dB -15.21 dB 3:27 03-Hunting
DR12 -1.67 dB -17.66 dB 4:18 04-Nightbird
DR10 -6.18 dB -20.45 dB 3:18 05-The First Twilight
DR14 -0.25 dB -16.45 dB 4:26 06-Savana Dance
DR14 -0.40 dB -16.92 dB 5:14 07-Desert Walk
DR14 -0.42 dB -16.15 dB 5:46 08-White Whisper
DR10 -13.06 dB -25.62 dB 3:00 09-The Second Twilight
DR11 -3.47 dB -18.59 dB 3:47 10-Sweet Lullaby (Ambient Mix)
––––––––––––––––––––––––––––––––––––––––

Number of tracks: 10
Official DR value: DR12

Samplerate: 44100 Hz
Channels: 2
Bits per sample: 16
Bitrate: 769 kbps
Codec: FLAC

=====================================

Deep Forest Discography (1992 - 2013)

CD02: Deep Forest - World Mix (1992)
EAC | Flac(Image) + Cue + Log & MP3 CBR 320Kbps
1994 | Epic/Sony, ESCA 6122 | ~ 461 or 199 Mb | Scans
World Music / New Age / Electronica / House / Tribal / Downtempo / Ambient

Deep Forest came around shortly after the huge success of Enigma who combined Gregorian chants to ambient dance rhythms. Deep Forest came up with a similar concept except it was to mix Pygmy/African vocal samples with dance rhythms creating a sound all it's own. While the following Deep Forest cds have been great as well, none of them have matched the qualities and beauty found on this release and therefore it is among one of most essentials albums of the progressive world music genres of all time.

By "amberose", amazon
Tracklist:

01. Deep Forest (5:34)
02. Sweet Lullaby (3:54)
03. Hunting (3:27)
04. Night Bird (4:18)
05. The First Twilight (3:18)
06. Savana Dance (4:26)
07. Desert Walk (5:14)
08. White Whisper (5:46)
09. The Second Twilight (3:02)
10. Sweet Lullaby (Ambient Mix) (3:44)
11. Sweet Lullaby (Round The World Mix) (6:48)
12. Sweet Lullaby (Apollo Mix) (7:20)
13. Deep Forest (Sunrise At Alcatraz) (7:07)
14. Forest Hymn (Apollo Mix) (6:46)
15. Forest Hymn (5:49)

Exact Audio Copy V0.99 prebeta 5 from 4. May 2009

EAC extraction logfile from 21. June 2010, 19:14

Deep Forest / World Mix (Japanese Press)

Used drive : TSSTcorpCDDVDW SH-S223F Adapter: 0 ID: 1

Read mode : Secure
Utilize accurate stream : Yes
Defeat audio cache : Yes
Make use of C2 pointers : No

Read offset correction : 6
Overread into Lead-In and Lead-Out : No
Fill up missing offset samples with silence : Yes
Delete leading and trailing silent blocks : No
Null samples used in CRC calculations : Yes
Used interface : Installed external ASPI interface

Used output format : Internal WAV Routines
Sample format : 44.100 Hz; 16 Bit; Stereo


TOC of the extracted CD

Track | Start | Length | Start sector | End sector
––––––––––––––––––––––––––––-
1 | 0:00.00 | 5:33.52 | 0 | 25026
2 | 5:33.52 | 3:53.58 | 25027 | 42559
3 | 9:27.35 | 3:27.15 | 42560 | 58099
4 | 12:54.50 | 4:18.20 | 58100 | 77469
5 | 17:12.70 | 3:18.30 | 77470 | 92349
6 | 20:31.25 | 4:25.65 | 92350 | 112289
7 | 24:57.15 | 5:14.17 | 112290 | 135856
8 | 30:11.32 | 5:45.50 | 135857 | 161781
9 | 35:57.07 | 3:00.33 | 161782 | 175314
10 | 38:57.40 | 3:46.60 | 175315 | 192324
11 | 42:44.25 | 6:48.07 | 192325 | 222931
12 | 49:32.32 | 7:20.38 | 222932 | 255969
13 | 56:52.70 | 7:07.47 | 255970 | 288041
14 | 64:00.42 | 6:46.03 | 288042 | 318494
15 | 70:46.45 | 5:48.55 | 318495 | 344649


Range status and errors

Selected range

Filename K:\Temp\UPLOAD\Deep Forest\Deep Forest (Japanese Press)\Deep Forest 1992 - World Mix (Japanese Press)\Deep Forest - World Mix (Japanese Press).wav

Peak level 99.3 %
Range quality 100.0 %
Test CRC E14080C4
Copy CRC E14080C4
Copy OK

No errors occurred


AccurateRip summary

Track 1 not present in database
Track 2 accurately ripped (confidence 2) [9AF6F449]
Track 3 accurately ripped (confidence 2) [F46A82DA]
Track 4 accurately ripped (confidence 2) [2A73FAC5]
Track 5 accurately ripped (confidence 2) [45A7C790]
Track 6 accurately ripped (confidence 2) [8D7315BC]
Track 7 accurately ripped (confidence 2) [62ACF0E8]
Track 8 accurately ripped (confidence 2) [BF651E99]
Track 9 accurately ripped (confidence 2) [032C7144]
Track 10 accurately ripped (confidence 2) [502DEB0A]
Track 11 accurately ripped (confidence 2) [EB954A66]
Track 12 accurately ripped (confidence 2) [ECF75D40]
Track 13 accurately ripped (confidence 2) [ADF84DE7]
Track 14 not present in database
Track 15 accurately ripped (confidence 2) [B4980559]

13 track(s) accurately ripped
2 track(s) not present in the AccurateRip database

Some tracks could not be verified as accurate

End of status report

foobar2000 1.2.4 / Dynamic Range Meter 1.1.1
log date: 2013-05-28 10:48:08

––––––––––––––––––––––––––––––––––––––––
Analyzed: Deep Forest / World Mix (Japanese Press)
––––––––––––––––––––––––––––––––––––––––

DR Peak RMS Duration Track
––––––––––––––––––––––––––––––––––––––––
DR14 -0.21 dB -16.23 dB 5:34 01-Deep Forest
DR12 -1.50 dB -16.13 dB 3:54 02-Sweet Lullaby
DR14 -0.05 dB -15.33 dB 3:27 03-Hunting
DR12 -1.66 dB -17.90 dB 4:18 04-Night Bird
DR10 -6.65 dB -20.92 dB 3:18 05-The First Twilight
DR14 -0.63 dB -17.13 dB 4:26 06-Savana Dance
DR14 -1.31 dB -17.64 dB 5:14 07-Desert Walk
DR14 -0.99 dB -16.86 dB 5:46 08-White Whisper
DR10 -13.73 dB -26.40 dB 3:00 09-The Second Twilight
DR11 -3.93 dB -19.31 dB 3:47 10-Sweet Lullady [Ambient Mix]
DR13 -1.12 dB -15.00 dB 6:48 11-Sweet Lullady [Round The World Mix]
DR12 -0.45 dB -15.96 dB 7:21 12-Sweet Lullady [Apollo Mix]
DR13 -0.44 dB -15.44 dB 7:08 13-Deep Forest [Sunrise At Alcatraz]
DR13 -1.03 dB -16.79 dB 6:46 14-Forest Hymn [Apollo Mix]
DR10 -2.64 dB -14.60 dB 5:49 15-Forest Hymn
––––––––––––––––––––––––––––––––––––––––

Number of tracks: 15
Official DR value: DR12

Samplerate: 44100 Hz
Channels: 2
Bits per sample: 16
Bitrate: 784 kbps
Codec: FLAC

=====================================

Deep Forest Discography (1992 - 2013)

CD03: Deep Forest - Boheme (1995)
EAC | Flac(Image) + Cue + Log & MP3 CBR 320Kbps
Epic/Sony, ESCA 6191 | ~ 292 or 125 Mb | Scans
World Music / New Age / Electronica / House / Tribal / Downtempo / Ambient

I was absolutely amazed with Deep Forests debut album. It was and still is one of the most groundbreaking world music albums of all time and it's a huge crime that it isn't carried by retailers. It is still an amazing CD to this very day. It blended Pygmy voices with modern dance and the result was a masterpiece. This follow-up to that album entitled "Boheme" raises the bar even higher by having Deep Forest travel from the remoteness of Sub-Saharan Africa, to the forests of Bulgaria and Eastern Europe and the result is beyond what I could give out and "Boheme" is in my opinion, Deep Forest's best album to date although "Music Detected" may offer competition. The album has a much darker and more dramatic undertone than their debut album does but I love it.

"Anasthasia" starts the album on a dark, eerie, and slightly ominous note with a very tribal sound with haunting flutes and a haunting ambience that gives the song a feel of like drifting through the forests of the Alps with nearby storms. Eventually the song gets more and more intense until it suddenly ends at just less than two minutes length. The echoes of "Anashthasia" perfect blend into the drama of my favorite track on this album "Bohemian Ballet". This is one of their best `studio' album tracks that they've ever created. At first, the clanging dance sound effects would imply a Latin folk track but it becomes a very intense, dramatic, and dark song. Things get even better when it becomes a vibrant and energetic dance song with haunting and bizarrely amplified Eastern European voices backed by the intense melody. This song is my favorite song on this entire album. "Marta's Song" is sheer beauty. After the dramatic darkness of "Bohemian Ballet", we emerge into the sunniness of "Marta's Song" which is another one of the highlights of this album. The song has a really excellent and exotic rhythm and the same is said about the haunting Bulgarian chants as well. Add that to a really warm and energetic melody and you have a really uplifting classic for the coming ages. "Gathering" is a much darker and more ominous track with a very futuristic production yet it also blends in ancient chorus and a really dark but never forboding atmosphere to create another intriguing and amazing classic. "Lament" is a really heartbreaking yet joyous song with a very strange electronic voice effect and bizarrely amplified voice effects. The melody is really awesome as well and the result is another highlight on this album. "Bulgarian Melody" is the strangest track on this CD. Although it starts with a dark and very eerie note and growing more and more dramatic, it calms down and becomes a very odd piano ballad with Bulgarian vocals amidst sweet and beautiful background piano in the background which almost gives the song a slight 1940s tone to it. While I totally disagree with a reviewer saying that this song is god-awful, it does feel sort of out of place against the other songs on this album but nonetheless it is a really great song. As it reverts back to the eerie sound that was present at the beginning, it morphs into a sweeter melody which becomes the track "Deep Folk Song" which is just a one minute interlude track but has a really vibrant French accordion style to it. In a way it's more of like an interlude intro into the vibrant classic "Freedom Cry". This is a really fun and actually a very bright, sunny and really happy song without being cheesy and is actually a very sophisticated song with an edgy and funky beat and a French accordion sound to it that gives the idea of a dance in an open paved plaza in Paris right after a storm moves out. A really amazing song it is. The song gracefully transitions into the next song "Twosome" which is another highlight on this album. This song has a rather slightly ominous melody but also a very joyous and exotic dance club sound. The Eastern Indian chanting gives the song a really colorful sound. It's hard to really explain this track but it's a really awesome song that needs a listen. "Café Europa" is a really strange track with a stormy vibe and Asian exotic instruments. The song becomes a very club-oriented dance song that surely would make for excellent dance club music. While it's a very good song, it doesn't stack up as high as the other songs on this album. Still, it's a great song. The live version is incredible! "Kathrina" is a very spooky track. It begins with a very misty sharp-sounding flute or other wind instrument and becomes a very dark and haunting track with African beats and strange ominous melody. This is the darkest track on this album and it's a good one at that! The album closes with what I can safely say is the best track on this album which is the title track to this CD. While much of the album is dark and somewhat stormy in nature, the closing title track has a very happy and absolutely uplifting vibe and has a funky and exotic rhythm and colorful vocal effects. To me, this is like the sun shining bright after a major storm moving away into the east. This song brings an already phenomenal album to a glorious finish.

Their debut album may have been what brought them into the spotlight but the way I look at it, "Boheme" was where they reached their peak although "Music Detected" may offer competition but these two albums have enormously different styles that it's impossible to compare them but they both showed that Deep Forest were unafraid to go into uncharted territory with their music. "Boheme" to me, built on the greatness of their debut and the result is what I consider to possibly be their best album that they've ever put out to date. I strongly suggest that you get a hold of a copy of this album. I don't know how much I can recommend it but I cannot do this album justice with this review. That's all I can say.

By Distant Voyageur, amazon
Tracklist:

01. Anasthasia (1:48)
02. Bohemian Ballet (5:15)
03. Marta's Song (4:12)
04. Gathering (4:38)
05. Lament (3:09)
06. Bulgarian Melody (3:08)
07. Deep Folk Song (1:14)
08. Freedom Cry (3:17)
09. Twosome (4:06)
10. Cafe Europa (4:17)
11. Katharina (2:53)
12. Boheme (4:36)

Exact Audio Copy V0.99 prebeta 5 from 4. May 2009

EAC extraction logfile from 21. June 2010, 19:32

Deep Forest / Boheme (Japanese Press)

Used drive : TSSTcorpCDDVDW SH-S223F Adapter: 0 ID: 1

Read mode : Secure
Utilize accurate stream : Yes
Defeat audio cache : Yes
Make use of C2 pointers : No

Read offset correction : 6
Overread into Lead-In and Lead-Out : No
Fill up missing offset samples with silence : Yes
Delete leading and trailing silent blocks : No
Null samples used in CRC calculations : Yes
Used interface : Installed external ASPI interface

Used output format : Internal WAV Routines
Sample format : 44.100 Hz; 16 Bit; Stereo


TOC of the extracted CD

Track | Start | Length | Start sector | End sector
––––––––––––––––––––––––––––-
1 | 0:00.00 | 1:48.55 | 0 | 8154
2 | 1:48.55 | 5:16.40 | 8155 | 31894
3 | 7:05.20 | 4:12.70 | 31895 | 50864
4 | 11:18.15 | 4:39.17 | 50865 | 71806
5 | 15:57.32 | 3:09.68 | 71807 | 86049
6 | 19:07.25 | 3:09.20 | 86050 | 100244
7 | 22:16.45 | 1:13.40 | 100245 | 105759
8 | 23:30.10 | 3:19.60 | 105760 | 120744
9 | 26:49.70 | 4:07.17 | 120745 | 139286
10 | 30:57.12 | 4:17.63 | 139287 | 158624
11 | 35:15.00 | 2:53.10 | 158625 | 171609
12 | 38:08.10 | 4:37.27 | 171610 | 192411


Range status and errors

Selected range

Filename K:\Temp\UPLOAD\Deep Forest\Deep Forest (Japanese Press)\Deep Forest 1995 - Boheme (Japanese Press)\Deep Forest - Boheme (Japanese Press).wav

Peak level 96.4 %
Range quality 100.0 %
Test CRC 79BE8C74
Copy CRC 79BE8C74
Copy OK

No errors occurred


AccurateRip summary

Track 1 accurately ripped (confidence 3) [E2A2D3FF]
Track 2 accurately ripped (confidence 3) [7CB3371C]
Track 3 accurately ripped (confidence 3) [C3C38EDB]
Track 4 accurately ripped (confidence 3) [5C49647D]
Track 5 accurately ripped (confidence 3) [00C09278]
Track 6 accurately ripped (confidence 3) [8970AA34]
Track 7 accurately ripped (confidence 3) [9D2F8818]
Track 8 accurately ripped (confidence 3) [0F15F77F]
Track 9 accurately ripped (confidence 3) [958DA069]
Track 10 accurately ripped (confidence 3) [849BD04E]
Track 11 accurately ripped (confidence 3) [3C0C7D1C]
Track 12 accurately ripped (confidence 3) [0BF684F6]

All tracks accurately ripped

End of status report

foobar2000 1.2.4 / Dynamic Range Meter 1.1.1
log date: 2013-05-28 10:48:34

––––––––––––––––––––––––––––––––––––––––
Analyzed: Deep Forest / Boheme (Japanese Press)
––––––––––––––––––––––––––––––––––––––––

DR Peak RMS Duration Track
––––––––––––––––––––––––––––––––––––––––
DR11 -0.51 dB -13.39 dB 1:49 01-Anasthasia
DR9 -0.51 dB -11.49 dB 5:17 02-Bohemian Ballet
DR10 -0.51 dB -12.68 dB 4:13 03-Marta's Song
DR10 -0.31 dB -11.34 dB 4:39 04-Gathering
DR9 -0.51 dB -11.57 dB 3:10 05-Lament
DR12 -0.51 dB -16.69 dB 3:09 06-Bulgarian Melody
DR12 -0.51 dB -15.77 dB 1:14 07-Deep Folk Song
DR9 -0.31 dB -12.45 dB 3:20 08-Freedom Cry
DR10 -0.51 dB -12.14 dB 4:07 09-Twosome
DR8 -0.51 dB -11.18 dB 4:18 10-Cafe Europa
DR9 -0.51 dB -11.67 dB 2:53 11-Katharina
DR10 -0.51 dB -12.65 dB 4:37 12-Boheme
––––––––––––––––––––––––––––––––––––––––

Number of tracks: 12
Official DR value: DR10

Samplerate: 44100 Hz
Channels: 2
Bits per sample: 16
Bitrate: 850 kbps
Codec: FLAC

=====================================

Deep Forest Discography (1992 - 2013)

CD04: Deep Forest - Comparsa (1997)
EAC | Flac(Image) + Cue + Log & MP3 CBR 320Kbps
Epic/Sony, ESCA 6912 | ~ 402 or 160 Mb | Scans
World Music / New Age / Electronica / House / Tribal / Downtempo / Ambient

The duo's third album, Comparsa, continues the world music potpourri Deep Forest are known for, though there is a pronounced focus on Latin and Caribbean grooves provided by musicians from Cuba, Belize, Mexico, and Madagascar, among other places. Although the nationalities present are truly global, the actual sound of Deep Forest hasn't changed that much, centering mostly on lush new age music with just a bit more of an edge than is usual, plus several tracks with whispered or restrained vocals. For fans of the debut album, Comparsa is a noteworthy, though hardly necessary, acquisition.

by John Bush
Tracklist:

01. Noonday Sun (4:59)
02. Green And Blue (4:53)
03. Madazulu (3:23)
04. 1716 (1:03)
05. Deep Weather (4:54)
06. Comparsa (4:58)
07. Earthquake (Transition 1) (0:48)
08. Tres Marias (4:53)
09. Radio Belize (3:58)
10. Ekue Ekue (5:20)
11. La Lune Se Bat Avec Les Etoiles (Transition 2) (2:27)
12. Forest Power (3:47)
13. Media Luna (4:32)
14. Alexi (Bonus Track for Japan Only) (3:37)
15. Freedom Cry (Bonus Track for Japan Only) (3:19)

Exact Audio Copy V0.99 prebeta 5 from 4. May 2009

EAC extraction logfile from 21. June 2010, 20:29

Deep Forest / Comparsa (Japanese Press)

Used drive : TSSTcorpCDDVDW SH-S223F Adapter: 0 ID: 1

Read mode : Secure
Utilize accurate stream : Yes
Defeat audio cache : Yes
Make use of C2 pointers : No

Read offset correction : 6
Overread into Lead-In and Lead-Out : No
Fill up missing offset samples with silence : Yes
Delete leading and trailing silent blocks : No
Null samples used in CRC calculations : Yes
Used interface : Installed external ASPI interface

Used output format : Internal WAV Routines
Sample format : 44.100 Hz; 16 Bit; Stereo


TOC of the extracted CD

Track | Start | Length | Start sector | End sector
––––––––––––––––––––––––––––-
1 | 0:00.00 | 5:00.40 | 0 | 22539
2 | 5:00.40 | 4:53.18 | 22540 | 44532
3 | 9:53.58 | 3:24.67 | 44533 | 59899
4 | 13:18.50 | 1:03.33 | 59900 | 64657
5 | 14:22.08 | 4:54.27 | 64658 | 86734
6 | 19:16.35 | 4:58.25 | 86735 | 109109
7 | 24:14.60 | 0:47.70 | 109110 | 112704
8 | 25:02.55 | 4:54.43 | 112705 | 134797
9 | 29:57.23 | 3:58.67 | 134798 | 152714
10 | 33:56.15 | 5:21.25 | 152715 | 176814
11 | 39:17.40 | 2:27.40 | 176815 | 187879
12 | 41:45.05 | 3:48.73 | 187880 | 205052
13 | 45:34.03 | 4:33.72 | 205053 | 225599
14 | 50:08.00 | 3:39.35 | 225600 | 242059
15 | 53:47.35 | 3:19.28 | 242060 | 257012


Range status and errors

Selected range

Filename K:\Temp\UPLOAD\Deep Forest\Deep Forest (Japanese Press)\Deep Forest 1997 - Comparsa (Japanese Press)\Deep Forest - Comparsa (Japanese Press).wav

Peak level 98.8 %
Range quality 100.0 %
Test CRC D3B85FE3
Copy CRC D3B85FE3
Copy OK

No errors occurred


AccurateRip summary

Track 1 not present in database
Track 2 not present in database
Track 3 not present in database
Track 4 not present in database
Track 5 not present in database
Track 6 not present in database
Track 7 not present in database
Track 8 not present in database
Track 9 not present in database
Track 10 not present in database
Track 11 not present in database
Track 12 not present in database
Track 13 not present in database
Track 14 not present in database
Track 15 not present in database

None of the tracks are present in the AccurateRip database

End of status report

foobar2000 1.2.4 / Dynamic Range Meter 1.1.1
log date: 2013-05-28 10:49:03

––––––––––––––––––––––––––––––––––––––––
Analyzed: Deep Forest / Comparsa (Japanese Press)
––––––––––––––––––––––––––––––––––––––––

DR Peak RMS Duration Track
––––––––––––––––––––––––––––––––––––––––
DR9 -0.10 dB -10.86 dB 5:01 01-Noonday Sun
DR10 -0.20 dB -11.67 dB 4:53 02-Green And Blue
DR9 -0.29 dB -10.70 dB 3:25 03-Madazulu
DR10 -1.53 dB -15.91 dB 1:03 04-1716
DR9 -0.10 dB -10.59 dB 4:54 05-Deep Weather
DR9 -0.10 dB -11.02 dB 4:58 06-Comparsa
DR16 -1.31 dB -19.70 dB 0:48 07-Earthquake (transition 1)
DR11 -0.10 dB -13.29 dB 4:55 08-Tres Marias
DR10 -0.10 dB -11.79 dB 3:59 09-Radio Belize
DR9 -0.10 dB -10.62 dB 5:21 10-Ekue Ekue
DR10 -1.60 dB -14.06 dB 2:28 11-La Lune Se Bat Avec Les Etoiles (transition 2)
DR9 -0.10 dB -11.83 dB 3:49 12-Forest Power
DR10 -0.10 dB -13.04 dB 4:34 13-Media Luna
DR9 -0.18 dB -10.72 dB 3:39 14-Alexi
DR9 -0.31 dB -12.45 dB 3:19 15-Freedom Cry
––––––––––––––––––––––––––––––––––––––––

Number of tracks: 15
Official DR value: DR10

Samplerate: 44100 Hz
Channels: 2
Bits per sample: 16
Bitrate: 896 kbps
Codec: FLAC

=====================================

Deep Forest Discography (1992 - 2013)

CD05: Deep Forest - Made In Japan (1999)
EAC | Flac(Image) + Cue + Log & MP3 CBR 320Kbps
Epic/Sony, ESCA 8028 | ~ 560 or 192 Mb | Scans
World Music / New Age / Electronica / House / Tribal / Downtempo / Ambient

Made in Japan was recorded live on July 9, 1998, in Tokyo's Koseinenkin Hall and, thanks to the remarkable engineering skills of Yoshiyasu Kumada, is an impresssive re-creation of the impeccable studio recordings of some of Deep Forest's best music, melded with the genuine pulse of a live performance. This is the first non-studio recording from the French duo, who are masters at balancing technological programming and ethnic fusion to produce jubilant musical compositions. Traditional worldbeat rhythms, accordion, keyboard, computer wizardry, and multilingual singing come together effortlessly and are presented immaculately in this spirited and festive release.

By John M. Steele
Tracklist:

01. Ekue Ekue (5:17)
02. Green And Blue (6:00)
03. Deep Weather (6:10)
04. Tres Marias (Bonus Track for Japan Only) (6:22)
05. Bohemian Ballet (6:19)
06. Deep Folk Song (2:25)
07. Freedom Cry (4:05)
08. Cafe Europa (5:47)
09. Forest Power (6:06)
10. Hunting (6:37)
11. Forest Hymn (5:22)
12. Sweet Lullaby (6:06)
13. White Whisper (Bonus Track for Japan Only) (5:06)
14. Madazulu (4:59)

Exact Audio Copy V0.99 prebeta 5 from 4. May 2009

EAC extraction logfile from 4. July 2010, 21:38

Deep Forest / Made In Japan (Japanese Press)

Used drive : TSSTcorpCDDVDW SH-S223F Adapter: 0 ID: 1

Read mode : Secure
Utilize accurate stream : Yes
Defeat audio cache : Yes
Make use of C2 pointers : No

Read offset correction : 6
Overread into Lead-In and Lead-Out : No
Fill up missing offset samples with silence : Yes
Delete leading and trailing silent blocks : No
Null samples used in CRC calculations : Yes
Used interface : Installed external ASPI interface

Used output format : Internal WAV Routines
Sample format : 44.100 Hz; 16 Bit; Stereo


TOC of the extracted CD

Track | Start | Length | Start sector | End sector
––––––––––––––––––––––––––––-
1 | 0:00.00 | 5:17.57 | 0 | 23831
2 | 5:17.57 | 6:00.10 | 23832 | 50841
3 | 11:17.67 | 6:10.73 | 50842 | 78664
4 | 17:28.65 | 6:22.07 | 78665 | 107321
5 | 23:50.72 | 6:19.40 | 107322 | 135786
6 | 30:10.37 | 2:25.73 | 135787 | 146734
7 | 32:36.35 | 4:05.30 | 146735 | 165139
8 | 36:41.65 | 5:47.17 | 165140 | 191181
9 | 42:29.07 | 6:06.55 | 191182 | 218686
10 | 48:35.62 | 6:37.55 | 218687 | 248516
11 | 55:13.42 | 5:22.20 | 248517 | 272686
12 | 60:35.62 | 6:06.65 | 272687 | 300201
13 | 66:42.52 | 5:06.13 | 300202 | 323164
14 | 71:48.65 | 4:59.37 | 323165 | 345626


Range status and errors

Selected range

Filename K:\Temp\UPLOAD\Deep Forest\Deep Forest (Japanese Press)\Deep Forest 1999 - Made In Japan (Japanese Press)\Deep Forest - Made In Japan (Japanese Press).wav

Peak level 96.6 %
Range quality 100.0 %
Test CRC C9B02A19
Copy CRC C9B02A19
Copy OK

No errors occurred


AccurateRip summary

Track 1 accurately ripped (confidence 2) [7D244BB2]
Track 2 accurately ripped (confidence 2) [1D137282]
Track 3 not present in database
Track 4 accurately ripped (confidence 2) [9D3068FD]
Track 5 accurately ripped (confidence 2) [749CF0CD]
Track 6 accurately ripped (confidence 2) [5ABCF5AD]
Track 7 not present in database
Track 8 accurately ripped (confidence 2) [73DB616C]
Track 9 accurately ripped (confidence 2) [7D2FF4E9]
Track 10 accurately ripped (confidence 2) [924C4353]
Track 11 accurately ripped (confidence 2) [4DBB9844]
Track 12 accurately ripped (confidence 2) [3335410F]
Track 13 accurately ripped (confidence 2) [2255E11C]
Track 14 accurately ripped (confidence 2) [B22E7F59]

12 track(s) accurately ripped
2 track(s) not present in the AccurateRip database

Some tracks could not be verified as accurate

End of status report

foobar2000 1.2.4 / Dynamic Range Meter 1.1.1
log date: 2013-05-28 10:49:30

––––––––––––––––––––––––––––––––––––––––
Analyzed: Deep Forest / Made In Japan (Japanese Press)
––––––––––––––––––––––––––––––––––––––––

DR Peak RMS Duration Track
––––––––––––––––––––––––––––––––––––––––
DR9 -0.30 dB -11.31 dB 5:18 01-Ekue Ekue
DR8 -0.30 dB -10.56 dB 6:00 02-Green And Blue
DR9 -0.30 dB -11.50 dB 6:11 03-Deep Weather
DR9 -0.30 dB -11.28 dB 6:22 04-Tres Marias
DR8 -0.30 dB -11.02 dB 6:20 05-Bohemian Ballet
DR11 -0.30 dB -13.03 dB 2:26 06-Deep Folk Song
DR9 -0.30 dB -11.29 dB 4:05 07-Freedom Cry
DR10 -0.30 dB -13.02 dB 5:47 08-Cafe Europa
DR9 -0.30 dB -11.62 dB 6:07 09-Forest Power
DR8 -0.30 dB -10.20 dB 6:38 10-Hunting
DR8 -0.30 dB -9.95 dB 5:22 11-Forest Hymn
DR8 -0.30 dB -11.33 dB 6:07 12-Sweet Lullaby
DR9 -0.30 dB -11.08 dB 5:06 13-White Whisper
DR9 -0.30 dB -11.26 dB 4:59 14-Madazulu
––––––––––––––––––––––––––––––––––––––––

Number of tracks: 14
Official DR value: DR9

Samplerate: 44100 Hz
Channels: 2
Bits per sample: 16
Bitrate: 969 kbps
Codec: FLAC

=====================================

Deep Forest Discography (1992 - 2013)

CD06: Deep Forest - Pacifique (2000)
EAC | Flac(Image) + Cue + Log & MP3 CBR 320Kbps
Epic/Sony, ESCA 8271 | ~ 352 or 190 Mb | Scans
World Music / New Age / Electronica / House / Tribal / Downtempo / Ambient

Although this is a soundtrack, it could easily be considered a new album from the magicians of new age,that is Deep Forest! It is an essential CD not only for fans, but for anyone who enjoys the music Deep Forest have mastered, traditional chants combined with modern rhytms. It is so atmospheric(however it must be said that it does not match Boheme)and at times very melancholic. Pacifique, only one of the numerous gems on the CD,brings to memory one of Vangelis earlier works, Himalaya.It really delivers an excellent mixture of instrumentation, traditional and modern,though the modern one takes over most of the time.And that's when the Haiti chants come in and everything is really wonderful…I cannot actually choose one piece as i like most of them the same…

By dimm77, amazon
Tracklist:

01. Pacifique (3:47)
02. La Légende Part 2 (4:04)
03. Night Village (4:10)
04. Le Réveil De Barnabé Part 1 (1:07)
05. La Révolte (4:27)
06. Le Basier (2:30)
07. Ouverture Huahiné (5:06)
08. L'ile Invisible (1:45)
09. Exécution (4:26)
10. Le Réveil De Barnabé part 2 (3:20)
11. Moon Light (3:21)
12. Téfaora Ne Croit Pas À La Légende (1:10)
13. La Veuve Furieuse (3:34)
14. Huahiné Reggae (6:01)
15. Huahiné Reggae part 2 (Bonus Track for Japan Only) (2:03)

Exact Audio Copy V0.99 prebeta 5 from 4. May 2009

EAC extraction logfile from 21. June 2010, 21:31

Deep Forest / Pacifique (Japanese Press)

Used drive : TSSTcorpCDDVDW SH-S223F Adapter: 0 ID: 1

Read mode : Secure
Utilize accurate stream : Yes
Defeat audio cache : Yes
Make use of C2 pointers : No

Read offset correction : 6
Overread into Lead-In and Lead-Out : No
Fill up missing offset samples with silence : Yes
Delete leading and trailing silent blocks : No
Null samples used in CRC calculations : Yes
Used interface : Installed external ASPI interface

Used output format : Internal WAV Routines
Sample format : 44.100 Hz; 16 Bit; Stereo


TOC of the extracted CD

Track | Start | Length | Start sector | End sector
––––––––––––––––––––––––––––-
1 | 0:00.00 | 3:47.17 | 0 | 17041
2 | 3:47.17 | 4:03.70 | 17042 | 35336
3 | 7:51.12 | 4:10.18 | 35337 | 54104
4 | 12:01.30 | 1:07.05 | 54105 | 59134
5 | 13:08.35 | 4:26.55 | 59135 | 79139
6 | 17:35.15 | 2:29.55 | 79140 | 90369
7 | 20:04.70 | 5:05.22 | 90370 | 113266
8 | 25:10.17 | 1:46.03 | 113267 | 121219
9 | 26:56.20 | 4:26.70 | 121220 | 141239
10 | 31:23.15 | 3:19.45 | 141240 | 156209
11 | 34:42.60 | 3:21.45 | 156210 | 171329
12 | 38:04.30 | 1:09.27 | 171330 | 176531
13 | 39:13.57 | 3:34.50 | 176532 | 192631
14 | 42:48.32 | 6:00.70 | 192632 | 219701
15 | 48:49.27 | 2:03.48 | 219702 | 228974
16 | 53:25.00 | 6:52.20 | 240375 | 271294


Range status and errors

Selected range

Filename K:\Temp\UPLOAD\Deep Forest\Deep Forest (Japanese Press)\Deep Forest 2000 - Pacifique (Japanese Press)\Deep Forest - Pacifique (Japanese Press).wav

Peak level 98.2 %
Range quality 99.9 %
Test CRC 9F1C6346
Copy CRC 9F1C6346
Copy OK

No errors occurred


AccurateRip summary

Track 1 cannot be verified as accurate (confidence 1) [4B020184], AccurateRip returned [83E035A8]
Track 2 cannot be verified as accurate (confidence 1) [57CE5D60], AccurateRip returned [A6B59627]
Track 3 cannot be verified as accurate (confidence 1) [46B4B307], AccurateRip returned [308CC33C]
Track 4 cannot be verified as accurate (confidence 1) [3FC12818], AccurateRip returned [073C802E]
Track 5 cannot be verified as accurate (confidence 1) [A1AD2B42], AccurateRip returned [1749CBC6]
Track 6 cannot be verified as accurate (confidence 1) [40D1AFF2], AccurateRip returned [7D9340CA]
Track 7 cannot be verified as accurate (confidence 1) [F837A126], AccurateRip returned [967D249B]
Track 8 cannot be verified as accurate (confidence 1) [B51C31DC], AccurateRip returned [20F74103]
Track 9 cannot be verified as accurate (confidence 1) [A72924B8], AccurateRip returned [89F0B6BC]
Track 10 cannot be verified as accurate (confidence 1) [E81B3560], AccurateRip returned [DE682CD6]
Track 11 cannot be verified as accurate (confidence 1) [3DCE52B8], AccurateRip returned [9F19A54E]
Track 12 cannot be verified as accurate (confidence 1) [35A39262], AccurateRip returned [C03E7E57]
Track 13 cannot be verified as accurate (confidence 1) [1A623C5F], AccurateRip returned [BB026511]
Track 14 cannot be verified as accurate (confidence 1) [25BD1D14], AccurateRip returned [E4036532]
Track 15 cannot be verified as accurate (confidence 1) [9B521BD6], AccurateRip returned [24432790]

No tracks could be verified as accurate
You may have a different pressing from the one(s) in the database

End of status report

foobar2000 1.2.4 / Dynamic Range Meter 1.1.1
log date: 2013-05-28 10:49:55

––––––––––––––––––––––––––––––––––––––––
Analyzed: Deep Forest / Pacifique (Japanese Press)
––––––––––––––––––––––––––––––––––––––––

DR Peak RMS Duration Track
––––––––––––––––––––––––––––––––––––––––
DR10 -0.16 dB -14.37 dB 3:47 01-Pacifique
DR12 -0.64 dB -14.42 dB 4:04 02-La Legende Part 2
DR13 -1.32 dB -16.93 dB 4:10 03-Night Village
DR12 -2.04 dB -19.49 dB 1:07 04-Le Reveil de Barnabe Part 1
DR10 -0.43 dB -12.31 dB 4:27 05-La Revolte
DR11 -4.64 dB -20.47 dB 2:30 06-Le Baiser
DR10 -0.39 dB -12.44 dB 5:05 07-Ouverture Huahine
DR13 -3.72 dB -22.62 dB 1:46 08-L'ile Invisible
DR11 -0.67 dB -15.55 dB 4:27 09-Execution
DR10 -0.73 dB -11.74 dB 3:20 10-Le Reveil de Barnabe Part 2
DR11 -1.59 dB -16.13 dB 3:22 11-Moon Light
DR11 -12.55 dB -25.96 dB 1:09 12-Tefaora ne Croit pas a la Legende
DR12 -0.97 dB -16.02 dB 3:35 13-La Veuve Furieuse
DR11 -0.39 dB -14.74 dB 6:01 14-Huahine Reggae
DR8 -0.80 dB -10.89 dB 2:04 15-Huahine Reggae Part 2
––––––––––––––––––––––––––––––––––––––––

Number of tracks: 15
Official DR value: DR11

Samplerate: 44100 Hz
Channels: 2
Bits per sample: 16
Bitrate: 754 kbps
Codec: FLAC

=====================================

Deep Forest Discography (1992 - 2013)

CD07: Deep Forest - Music Detected (2002)
EAC | Flac(Image) + Cue + Log & MP3 CBR 320Kbps
Epic, EICP 70 | ~ 431 or 163 Mb | Scans
World Music / New Age / Electronica / House / Tribal / Downtempo / Ambient

Mike Sanchez and Eric Mouquet of Deep Forest have always been musical anthropologists, sampling the sounds of other cultures (Pygmy tribes of Cameroon, Gypsies of Eastern Europe, Cuban street musicians, to name just a few) and swirling them into their own ambient dance pop. On this 2002 release the French duo revisits some old samples and also brings in Turkish chant, Japanese pop, and Indian vocals. They introduce startling new elements as well: heavy electric guitars, many lyrics written in English, and a live drummer replacing the programmed rhythm tracks of their previous recordings.

Many of the lyrics here concern environmental issues and warn of the impending dangers of soullessness. Definitely not soulless are "Yuki Song," an old-fashioned love song with stirring vocals by Beverly Jo Scott, and the heart-rending "Will You Be Ready" featuring Japanese pop singer Chitose Hajime and the plaintive strains of shakuhachi flute. While not a typical Deep Forest album, MUSIC DETECTED is a weighty, personal work that reveals more and more on each listen.

by Rovi
Tracklist:

01. India (4:07)
02. Endangered Species (6:18)
03. Soul Elevator (4:11)
04. Computer Machine (5:10)
05. Yuki Song (5:22)
06. Beauty In Your Eyes (4:22)
07. Elemental (5:24)
08. Far East (0:58)
09. Deep Blue Sea (4:16)
10. Will You Be Ready (5:17)
11. In The Evening (1:36)
12. Dignity (5:22)
13. Endangered Species (Galleon Remix Radio Edit) (3:57)
14. Tokyo Street (Bonus Track for Japan Only) (4:46)

Exact Audio Copy V0.99 prebeta 5 from 4. May 2009

EAC extraction logfile from 21. June 2010, 22:01

Deep Forest / Music Detected (Japanese Press)

Used drive : TSSTcorpCDDVDW SH-S223F Adapter: 0 ID: 1

Read mode : Secure
Utilize accurate stream : Yes
Defeat audio cache : Yes
Make use of C2 pointers : No

Read offset correction : 6
Overread into Lead-In and Lead-Out : No
Fill up missing offset samples with silence : Yes
Delete leading and trailing silent blocks : No
Null samples used in CRC calculations : Yes
Used interface : Installed external ASPI interface

Used output format : Internal WAV Routines
Sample format : 44.100 Hz; 16 Bit; Stereo


TOC of the extracted CD

Track | Start | Length | Start sector | End sector
––––––––––––––––––––––––––––-
1 | 0:00.00 | 4:07.36 | 0 | 18560
2 | 4:07.36 | 6:18.49 | 18561 | 46959
3 | 10:26.10 | 4:12.55 | 46960 | 65914
4 | 14:38.65 | 5:12.00 | 65915 | 89314
5 | 19:50.65 | 5:23.07 | 89315 | 113546
6 | 25:13.72 | 4:23.32 | 113547 | 133303
7 | 29:37.29 | 5:24.15 | 133304 | 157618
8 | 35:01.44 | 0:58.71 | 157619 | 162039
9 | 36:00.40 | 4:16.48 | 162040 | 181287
10 | 40:17.13 | 5:18.27 | 181288 | 205164
11 | 45:35.40 | 1:36.43 | 205165 | 212407
12 | 47:12.08 | 5:23.52 | 212408 | 236684
13 | 52:35.60 | 4:01.08 | 236685 | 254767
14 | 56:36.68 | 4:46.49 | 254768 | 276266


Range status and errors

Selected range

Filename K:\Temp\UPLOAD\Deep Forest\Deep Forest (Japanese Press)\Deep Forest 2002 - Music Detected (Japanese Press)\Deep Forest - Music Detected (Japanese Press).wav

Peak level 100.0 %
Range quality 99.9 %
Test CRC 4E5C29FB
Copy CRC 4E5C29FB
Copy OK

No errors occurred


AccurateRip summary

Track 1 cannot be verified as accurate (confidence 1) [63F68AD5], AccurateRip returned [5249C509]
Track 2 cannot be verified as accurate (confidence 1) [5491131F], AccurateRip returned [805EEC9F]
Track 3 cannot be verified as accurate (confidence 1) [A752276A], AccurateRip returned [F5A0CE02]
Track 4 cannot be verified as accurate (confidence 1) [E6C94383], AccurateRip returned [2F28B323]
Track 5 cannot be verified as accurate (confidence 1) [914CB75A], AccurateRip returned [AC2A3B7A]
Track 6 cannot be verified as accurate (confidence 1) [D85105EF], AccurateRip returned [A8D42533]
Track 7 cannot be verified as accurate (confidence 1) [CC7B4A6A], AccurateRip returned [2C950F8A]
Track 8 cannot be verified as accurate (confidence 1) [F1B74A0D], AccurateRip returned [1C767C69]
Track 9 cannot be verified as accurate (confidence 1) [D8CC107A], AccurateRip returned [AA371709]
Track 10 cannot be verified as accurate (confidence 1) [F6564AEB], AccurateRip returned [3E406B3B]
Track 11 cannot be verified as accurate (confidence 1) [32DF5B97], AccurateRip returned [D0253EC3]
Track 12 cannot be verified as accurate (confidence 1) [ECD06D67], AccurateRip returned [AC51AC8F]
Track 13 cannot be verified as accurate (confidence 1) [CC1A49AD], AccurateRip returned [0E731ABD]
Track 14 cannot be verified as accurate (confidence 1) [0F668F74], AccurateRip returned [9E6F137A]

No tracks could be verified as accurate
You may have a different pressing from the one(s) in the database

End of status report

foobar2000 1.2.4 / Dynamic Range Meter 1.1.1
log date: 2013-05-28 10:50:23

––––––––––––––––––––––––––––––––––––––––
Analyzed: Deep Forest / Music Detected (Japanese Press)
––––––––––––––––––––––––––––––––––––––––

DR Peak RMS Duration Track
––––––––––––––––––––––––––––––––––––––––
DR7 0.00 dB -9.82 dB 4:07 01-India
DR7 0.00 dB -9.75 dB 6:19 02-Endangered Species
DR8 0.00 dB -10.27 dB 4:13 03-Soul Elevator
DR8 0.00 dB -10.48 dB 5:12 04-Computer Machine
DR8 0.00 dB -10.44 dB 5:23 05-Yuki Song
DR7 0.00 dB -8.63 dB 4:23 06-Beauty In Your Eyes
DR6 0.00 dB -8.54 dB 5:24 07-Elemental
DR10 0.00 dB -13.03 dB 0:59 08-Far East
DR7 0.00 dB -9.03 dB 4:17 09-Deep Blue Sea
DR8 0.00 dB -10.73 dB 5:18 10-Will You Be Ready
DR9 -0.14 dB -14.42 dB 1:37 11-In The Evening
DR9 0.00 dB -11.86 dB 5:24 12-Dignity
DR7 0.00 dB -8.44 dB 4:01 13-Endangered Species(Galleon Remix Radio Edit)[Japan Only]
DR8 0.00 dB -9.95 dB 4:47 14-Tokyo Street(Featuring Taro Hakase)[Japan Only]
––––––––––––––––––––––––––––––––––––––––

Number of tracks: 14
Official DR value: DR8

Samplerate: 44100 Hz
Channels: 2
Bits per sample: 16
Bitrate: 912 kbps
Codec: FLAC

=====================================

Deep Forest Discography (1992 - 2013)

CD08: Deep Forest - Essence of Deep Forest (2003)
EAC | Flac(Image) + Cue + Log & MP3 CBR 320Kbps
Epic, EICP 189 | ~ 560 or 197 Mb | Scans
World Music / New Age / Electronica / House / Tribal / Downtempo / Ambient

With tracks from each of their first five albums, this is essentially a Deep Forest best-of, leading off with their 1993 hit "Sweet Lullaby." Note that "Sweet Lullaby," "Night Bird," and "Desert Walk" are each presented in a "2004 Version," though it's not made clear in the packaging how these are different than the ones that had been previously released on Deep Forest albums. It's an adequate overview of an act whose music is probably too diluted for either world music fans or electronica specialists, but whose blend of those styles together with production approaches friendly to middle-of-the-road radio has far more appeal to mainstream pop listeners than most world music or electronica.

by Richie Unterberger
Tracklist:

01. Deep Forest (5:09)
02. Bohemian Ballet (5:13)
03. Night Bird (4:21)
04. Yuki Song (Remix) (3:25)
05. Sweet Lullaby (3:53)
06. Cafe Europa (4:18)
07. Freedom Cry (3:18)
08. Far East (0:58)
09. Deep Blue Sea (4:18)
10. Savana Dance (4:26)
11. Hunting (3:18)
12. Endangered Species (6:18)
13. Madazulu (3:24)
14. Deep Weather (4:55)
15. Marta's Song (4:14)
16. While The Earth Sleeps (Featuring Peter Gabriel) (6:23)
17. Sweet Lullaby (2003 version) (3:24)
18. Will You Be Ready (Be Prepared Remix) (4:06)

Exact Audio Copy V0.99 prebeta 5 from 4. May 2009

EAC extraction logfile from 5. July 2010, 18:17

Deep Forest / Essence of Deep Forest (Japanese Press)

Used drive : TSSTcorpCDDVDW SH-S223F Adapter: 0 ID: 1

Read mode : Secure
Utilize accurate stream : Yes
Defeat audio cache : Yes
Make use of C2 pointers : No

Read offset correction : 6
Overread into Lead-In and Lead-Out : No
Fill up missing offset samples with silence : Yes
Delete leading and trailing silent blocks : No
Null samples used in CRC calculations : Yes
Used interface : Installed external ASPI interface

Used output format : Internal WAV Routines
Sample format : 44.100 Hz; 16 Bit; Stereo


TOC of the extracted CD

Track | Start | Length | Start sector | End sector
––––––––––––––––––––––––––––-
1 | 0:00.00 | 5:09.13 | 0 | 23187
2 | 5:09.13 | 5:13.35 | 23188 | 46697
3 | 10:22.48 | 4:21.25 | 46698 | 66297
4 | 14:43.73 | 3:25.60 | 66298 | 81732
5 | 18:09.58 | 3:53.65 | 81733 | 99272
6 | 22:03.48 | 4:18.22 | 99273 | 118644
7 | 26:21.70 | 3:18.15 | 118645 | 133509
8 | 29:40.10 | 0:58.68 | 133510 | 137927
9 | 30:39.03 | 4:13.62 | 137928 | 156964
10 | 34:52.65 | 4:26.00 | 156965 | 176914
11 | 39:18.65 | 3:29.05 | 176915 | 192594
12 | 42:47.70 | 6:18.03 | 192595 | 220947
13 | 49:05.73 | 3:24.70 | 220948 | 236317
14 | 52:30.68 | 4:55.07 | 236318 | 258449
15 | 57:26.00 | 4:14.13 | 258450 | 277512
16 | 61:40.13 | 6:23.20 | 277513 | 306257
17 | 68:03.33 | 3:24.00 | 306258 | 321557
18 | 71:27.33 | 4:06.42 | 321558 | 340049


Range status and errors

Selected range

Filename K:\Temp\UPLOAD\Deep Forest\Deep Forest (Japanese Press)\Deep Forest 2003 - Essence of Deep Forest (Japanese Press)\Deep Forest - Essence of Deep Forest (Japanese Press).wav

Peak level 100.0 %
Range quality 99.9 %
Test CRC 51BC768A
Copy CRC 51BC768A
Copy OK

No errors occurred


AccurateRip summary

Track 1 cannot be verified as accurate (confidence 1) [1C3F4A07], AccurateRip returned [F860D6BF]
Track 2 cannot be verified as accurate (confidence 1) [D6DD9860], AccurateRip returned [2046D3BC]
Track 3 cannot be verified as accurate (confidence 1) [D1E4A741], AccurateRip returned [604ECA08]
Track 4 cannot be verified as accurate (confidence 1) [E0D25ABF], AccurateRip returned [41BF9742]
Track 5 cannot be verified as accurate (confidence 1) [0B66095C], AccurateRip returned [9CC5F157]
Track 6 cannot be verified as accurate (confidence 1) [E28BAF57], AccurateRip returned [DDADCEB0]
Track 7 cannot be verified as accurate (confidence 1) [7487621D], AccurateRip returned [D2EC4BAE]
Track 8 cannot be verified as accurate (confidence 1) [9DFE8820], AccurateRip returned [9918A3C9]
Track 9 cannot be verified as accurate (confidence 1) [1A85B969], AccurateRip returned [5758C8F9]
Track 10 cannot be verified as accurate (confidence 1) [577FD862], AccurateRip returned [A1E0B6BF]
Track 11 cannot be verified as accurate (confidence 1) [DD1D3DE6], AccurateRip returned [2CF3CD65]
Track 12 cannot be verified as accurate (confidence 1) [A582A42B], AccurateRip returned [B5E6A1FB]
Track 13 cannot be verified as accurate (confidence 1) [58461FA2], AccurateRip returned [BE925EB4]
Track 14 cannot be verified as accurate (confidence 1) [33EDE05E], AccurateRip returned [CFA76E05]
Track 15 cannot be verified as accurate (confidence 1) [5CCCD21E], AccurateRip returned [D2A000E5]
Track 16 cannot be verified as accurate (confidence 1) [92ABE656], AccurateRip returned [568B1DC0]
Track 17 cannot be verified as accurate (confidence 1) [C1012E03], AccurateRip returned [9C546C2E]
Track 18 cannot be verified as accurate (confidence 1) [D0794909], AccurateRip returned [5E80B085]

No tracks could be verified as accurate
You may have a different pressing from the one(s) in the database

End of status report

foobar2000 1.2.4 / Dynamic Range Meter 1.1.1
log date: 2013-05-28 10:50:49

––––––––––––––––––––––––––––––––––––––––
Analyzed: Deep Forest / Essence of Deep Forest (Japanese Press)
––––––––––––––––––––––––––––––––––––––––

DR Peak RMS Duration Track
––––––––––––––––––––––––––––––––––––––––
DR10 0.00 dB -11.12 dB 5:09 01-Deep Forest
DR8 -1.32 dB -11.03 dB 5:13 02-Bohemian Ballet
DR10 0.00 dB -13.17 dB 4:21 03-Night Bird
DR7 0.00 dB -10.32 dB 3:26 04-Yuki Song(Remix)(Featuring Beverly Jo Scott)
DR10 0.00 dB -11.28 dB 3:54 05-Sweet Lullaby
DR9 0.00 dB -11.92 dB 4:18 06-Cafe Europa
DR8 0.00 dB -10.76 dB 3:18 07-Freedom Cry
DR12 -0.49 dB -14.97 dB 0:59 08-Far East
DR9 0.00 dB -10.65 dB 4:14 09-Deep Blue Sea(Featuring Anggun)
DR12 0.00 dB -13.87 dB 4:26 10-Savana Dance
DR12 0.00 dB -13.16 dB 3:29 11-Hunting
DR8 0.00 dB -11.76 dB 6:18 12-Endangered Species
DR10 -0.94 dB -12.63 dB 3:25 13-Madazulu
DR8 0.00 dB -10.29 dB 4:55 14-Deep Weather
DR10 -0.03 dB -12.49 dB 4:14 15-Marta's Song
DR12 0.00 dB -13.66 dB 6:23 16-While The Earth Sleeps(Featuring Peter Gabriel)
DR12 -0.01 dB -14.15 dB 3:24 17-Sweet Lullaby(2003version)(Featuring Ana Torroja)
DR9 0.00 dB -11.80 dB 4:07 18-Will You Be Ready(Be prepared remix)
––––––––––––––––––––––––––––––––––––––––

Number of tracks: 18
Official DR value: DR10

Samplerate: 44100 Hz
Channels: 2
Bits per sample: 16
Bitrate: 941 kbps
Codec: FLAC

=====================================

Deep Forest Discography (1992 - 2013)

CD09: Deep Forest - Kusa No Ran (2004)
EAC | Flac(Image) + Cue + Log & MP3 CBR 320Kbps
Idea, IACD 2005 | ~ 183 or 112 Mb | Scans
World Music / New Age / Electronica / House / Tribal / Downtempo / Ambient

Deep Forest make a return to film scoring for ‘Kusa no Ran’ (Rebellion of the Grass), a historical account of the 1884 revolt in the Chichibu region of Japan. The soundtrack was released August 21st, in Japan only, followed by the first public screenings of the movie, September 4th.

It’s the group’s second full-length soundtrack, following ‘Prince du Pacifique’. Deep Forest have also composed a number of original songs for movies like ‘Strange Days’, ‘Pret-A-Porter’ and most recently they composed three thematical pieces for the French-Polynesian project, ‘Napua, the Man’s Earth Princess’ (2005).

But even though Deep Forest has produced music for movies before, there are several suprises on the new score of Kusa no Ran. One of the big ones being that there are 23 tracks, two composed by Michel Sanchez and all the rest by Eric Mouquet! It’s sort of a departure from the team effort that fans are used to seeing from the musical duo, at least under the name Deep Forest.

The album is very instrumental, with the piano being the instrument of choice, found in over half of the songs. The only song with vocals is the theme ballad, Eternal Dream. The beautiful melody of Eternal Dream, which can also be heard on the opening track Haruko Haru Chichibu, includes the soft Japanese vocals of Lyrico. This song more than any of the others, is reminiscent of Mouquet’s pop projects with Ana Torroja and Chitose Hajime.
The remainder of the soundtrack is very different, there are small elements of classical, pop, and new age music. The ethnic presence that Deep Forest followers have come to expect is not nearly as salient as in past albums. What Indigenous influences are there can be heard in the bass, and many times dark, tribal percussion on tracks like Kusa no Koe, the faster tempoed Kusa no Koe II and Konran.

Eric Mouquet did a good job creating many simple, yet elegant pieces for the film, and even though it’s officially a Deep Forest production, the music is very much Mouquet’s. In some instances the music brings to mind Mouquet’s Thorgal soundtrack, when hearing the drumming and uncanny voice layers of the title track Kusa no Ran.

Although Michel Sanchez composed just two of the songs, his short ditty, Ketui, stands out as perhaps the most heart-felt. Ketui, is a slow, somber, piano and violin duet. Most striking is the beautiful violin (regrettably there is no information on the violinist), similar in style to the violin playing you might hear on one of those American civil war programs, during a narration of a letter home. The chorus is equally stunning with a strange but elevating orchestra of synthetic arrangements, like something off of Hieroglyphes.

A majority of the songs are interludes, one to two minutes on average, with the sense that each song was created for a specific scene rather than to be listened to alone. In contrast with Pacifique, where the songs were developed beyond the movie to the point that one might not have even realized it was a soundtrack, the Kusa no Ran soundtrack is much more dependent on the imagery of the film. But even not having seen Kusa no Ran, one can easily tell by the music’s grim tone, that it deals with a much more serious story than ‘Prince du le Pacifique’.

The Kusa no Ran score is undoubtedly a great soundtrack, supported by the positive reviews the film has received so far. The soundtrack is less of a stand alone album than Pacifique, but Deep Forest fans are still going to want to hear it. Unfortunately the album is only available in Japan (HMV will ship to any country), and chances seem slim that it will be released elsewhere.

The story of Kusa no Ran begins in the early 1800′s in a region two hours north-west of modern day central Tokyo, called Chichibu. The region’s economy thrived on the export of raw silk to the Western world. But in 1882 there was a world depression, and the price of silk dropped. The peasants were no longer able to pay the high taxes imposed upon them by the government. Many went into debt and had their land, houses and household goods taken from them by the usury (loan sharks). The peasants pleaded to the courts for help, but nobody would listen. They would later find out that the courts and usury were working together.

Angered by the government’s unwillingness to help, the peasants banded together to form the Freedom and People’s Right Movement. On October 1st, 1884, more than 3,000 farmers armed with bamboo shutes, swords, and rifles gathered at the Muku shrine for the Rebellion of the Grass (commoners).

This film comes at an important time, not only because it is the 120th anniversary of this historic event, but also because of the paralleled frustration felt by the Japanese people today toward their government. Taxes in Japan are very high, many are in dept or don’t have enough money to retire on. A sign of this frustration was expressed by the 8,000 extras who came from across Japan to make Kusa no Ran.

~ deep-forest
Tracklist:

01. Chichibu Faraway (1:54)
02. Voice Of The Grass (0:37)
03. For The Beloved One (0:38)
04. Voice Of The Grass II (0:43)
05. Volition (1:52)
06. Fire Within The Heart (1:36)
07. Unforgiven (0:56)
08. Autumn (2:38)
09. Ryo Shrine - Previous Night (2:03)
10. Forever (0:33)
11. Separation (1:42)
12. Chase - Pursuit (1:04)
13. Wolves Under The Moon (1:03)
14. Mountain Pass (0:48)
15. Rebellion Of The Grass (1:36)
16. Dark Clouds (1:34)
17. Confusion (2:01)
18. Spread Over Mountains And Rivers (4:39)
19. Evening In Chichibu (1:43)
20. Requiem (1:13)
21. Proof For Living (3:09)
22. Eternal Dream (Vocal Lyrico) (4:38)
23. Eternal Dream (karaoke version) (4:37)

Exact Audio Copy V0.99 prebeta 5 from 4. May 2009

EAC extraction logfile from 19. July 2010, 18:29

Deep Forest / Kusa No Ran (Japanese Press & Release)

Used drive : TSSTcorpCDDVDW SH-S223F Adapter: 0 ID: 1

Read mode : Secure
Utilize accurate stream : Yes
Defeat audio cache : Yes
Make use of C2 pointers : No

Read offset correction : 6
Overread into Lead-In and Lead-Out : No
Fill up missing offset samples with silence : Yes
Delete leading and trailing silent blocks : No
Null samples used in CRC calculations : Yes
Used interface : Installed external ASPI interface

Used output format : Internal WAV Routines
Sample format : 44.100 Hz; 16 Bit; Stereo


TOC of the extracted CD

Track | Start | Length | Start sector | End sector
––––––––––––––––––––––––––––-
1 | 0:00.00 | 1:54.00 | 0 | 8549
2 | 1:54.00 | 0:37.12 | 8550 | 11336
3 | 2:31.12 | 0:38.18 | 11337 | 14204
4 | 3:09.30 | 0:43.20 | 14205 | 17449
5 | 3:52.50 | 1:52.00 | 17450 | 25849
6 | 5:44.50 | 1:36.35 | 25850 | 33084
7 | 7:21.10 | 0:56.02 | 33085 | 37286
8 | 8:17.12 | 2:38.10 | 37287 | 49146
9 | 10:55.22 | 2:02.43 | 49147 | 58339
10 | 12:57.65 | 0:33.05 | 58340 | 60819
11 | 13:30.70 | 1:41.52 | 60820 | 68446
12 | 15:12.47 | 1:03.48 | 68447 | 73219
13 | 16:16.20 | 1:03.30 | 73220 | 77974
14 | 17:19.50 | 0:47.50 | 77975 | 81549
15 | 18:07.25 | 1:35.55 | 81550 | 88729
16 | 19:43.05 | 1:34.25 | 88730 | 95804
17 | 21:17.30 | 2:01.30 | 95805 | 104909
18 | 23:18.60 | 4:39.30 | 104910 | 125864
19 | 27:58.15 | 1:42.67 | 125865 | 133581
20 | 29:41.07 | 1:12.53 | 133582 | 139034
21 | 30:53.60 | 3:09.17 | 139035 | 153226
22 | 34:03.02 | 4:37.63 | 153227 | 174064
23 | 38:40.65 | 4:37.27 | 174065 | 194866


Range status and errors

Selected range

Filename K:\Temp\UPLOAD\Deep Forest\Deep Forest (Japanese Press)\Deep Forest 2004 - Kusa No Ran (Japanese Press & Release)\Deep Forest - Kusa No Ran (Japanese Press & Release).wav

Peak level 99.6 %
Range quality 100.0 %
Test CRC 210A3C0F
Copy CRC 210A3C0F
Copy OK

No errors occurred


AccurateRip summary

Track 1 not present in database
Track 2 not present in database
Track 3 not present in database
Track 4 not present in database
Track 5 not present in database
Track 6 not present in database
Track 7 not present in database
Track 8 not present in database
Track 9 not present in database
Track 10 not present in database
Track 11 not present in database
Track 12 not present in database
Track 13 not present in database
Track 14 not present in database
Track 15 not present in database
Track 16 not present in database
Track 17 not present in database
Track 18 not present in database
Track 19 not present in database
Track 20 not present in database
Track 21 not present in database
Track 22 not present in database
Track 23 not present in database

None of the tracks are present in the AccurateRip database

End of status report

foobar2000 1.2.4 / Dynamic Range Meter 1.1.1
log date: 2013-05-28 10:51:07

––––––––––––––––––––––––––––––––––––––––
Analyzed: Deep Forest / Kusa No Ran (Japanese Press & Release)
––––––––––––––––––––––––––––––––––––––––

DR Peak RMS Duration Track
––––––––––––––––––––––––––––––––––––––––
DR10 -3.14 dB -20.26 dB 1:54 01-Chichibu Faraway
DR10 -3.34 dB -15.93 dB 0:37 02-Voice Of The Grass
DR12 -12.95 dB -28.69 dB 0:38 03-For The Beloved One
DR9 -4.82 dB -17.21 dB 0:43 04-Voice Of The Grass II
DR13 -1.43 dB -18.17 dB 1:52 05-Volition
DR10 -3.98 dB -17.45 dB 1:36 06-Fire Within The Heart
DR14 -1.91 dB -21.36 dB 0:56 07-Unforgiven
DR13 -3.72 dB -22.00 dB 2:38 08-Autumn
DR10 -1.67 dB -16.86 dB 2:03 09-Ryo Shrine - Previous Night
DR10 -12.45 dB -28.06 dB 0:33 10-Forever
DR12 -10.73 dB -26.77 dB 1:42 11-Separation
DR9 -3.80 dB -16.67 dB 1:04 12-Chase - Pursuit
DR11 -8.04 dB -21.51 dB 1:03 13-Wolves Under The Moon
DR11 -6.33 dB -18.82 dB 0:48 14-Mountain Pass
DR10 -1.73 dB -17.00 dB 1:36 15-Rebellion Of The Grass
DR11 -5.06 dB -18.54 dB 1:34 16-Dark Clouds
DR10 -1.27 dB -16.72 dB 2:01 17-Confusion
DR10 -2.46 dB -19.29 dB 4:39 18-Spread Over Mountains And Rivers
DR12 -10.76 dB -26.39 dB 1:43 19-Evening In Chichibu
DR10 -9.61 dB -23.44 dB 1:13 20-Requiem
DR15 -11.22 dB -31.04 dB 3:09 21-Proof For Living
DR7 -0.03 dB -11.69 dB 4:38 22-Eternal Dream(Vocal Lyrico)
DR9 -0.23 dB -13.85 dB 4:37 23-Eternal Dream(Karaoke version)
––––––––––––––––––––––––––––––––––––––––

Number of tracks: 23
Official DR value: DR11

Samplerate: 44100 Hz
Channels: 2
Bits per sample: 16
Bitrate: 545 kbps
Codec: FLAC

=====================================

Deep Forest Discography (1992 - 2013)

CD09: Deep Forest - Deep Brasil (2008)
EAC | Flac(Image) + Cue + Log & MP3 CBR 320Kbps
2010 | GUMBO-01 | ~ 382 or 153 Mb | Scans
World Music / New Age / Electronica / House / Tribal / Downtempo / Ambient

s it just me, or should James Cameron recruit Eric Mouquet to create the soundtrack for his Avatar sequels? Deep Brasil seems to provide ample evidence that it would be a perfect fit.

I tend to be musically omnivorous, with tastes ranging from alternative to roots rock to industrial to classical, depending on mood and weather. But when Deep Forest first appeared on the scene with "Sweet Lullaby" circa 1992, blazing a trail for "World Synth" music, my favorite genre was unveiled. I had no idea what the vocalists were actually saying, I just loved that they were saying it. And, of course, the way they were saying it. The "World Mix" album, followed by Boheme and Comparsa, and together with contemporaneous releases by Enigma and Delerium (with a nod to The Shamen!), enshrined my musical pantheon. Music.Detected_, Deep Forest's last full album release in 2002, featured a few groundbreaking tracks (India, Yuki Song), but overall that excursion into techno beats (with lyrics intelligible to an English-speaking audience) was ill-advised.

For years, I have scoured musical reviews and web sites, hopeful that Deep Forest would return to their roots, or that another ensemble would pick up and carry the torch. For a decade, I have searched in vain. When I finally discovered this "album" on Amazon, I was skeptical because it did not seem to be backed by a "major" label, or for that matter any label at all. But then I remembered that music executives wouldn't recognize good music if their lives depended on it (SERIOUSLY), and, encouraged by a smattering of enthusiastic reviews, I ordered away.

Dear readers, I could not be happier that I did. Now, with Deep Brasil, once again I find myself re-visiting the mantra: I have no idea what they're saying, I just love that they're saying it. In constructing this aural masterpiece, Eric Mouquet wisely eases way back on the accordion (Michel Sanchez's territory anyway), instead layering subtle and unpredictable eddies of rhythm and synth waves with those trademark soulful, ineffable lyrics. I don't know where he finds these vocalists, but with Deep Brasil he hits the mother lode. Many of these tracks aren't so much "songs" as they are meandering, uplifting hymns, but not hymns in the traditional religious sense – no, these are hymns to the ecosphere, in all its mystery and diversity, of which humanity is a small but integral part.

Exhibit A is the lead-off track "Amazonia," which inspired my five-year old daughter to observe "I like the sounds of nature, and the kids talking." She has no idea what they're saying, she just loves that they're saying it. Exhibit B: "Goiano." The first (and second, and third) time I heard it, I was simply overcome. The ethereal beginning, coalescing into a gentle & undulating beat, contra-toned vocal harmonies unlike any other… It's like hearing something that had been an integral part of your being, missing without your awareness of its absence, then re-discovered for the first time.

Five stars doesn't do this justice. Try five galaxies. I really don't know what else to say, except MERCI BEAUCOUP to Eric Mouquet – now, unquestionably, one of the premier musical talents of our age, or any age.

By John Dye, amazon
Tracklist CD:

1. Amazonia (05:39)
2. Terra de Indio (03:53)
3. Fazenda (04:20)
4. Ceu do Brasil (04:32)
5. Africa Brasil (03:04)
6. Minas Nascimento (04:26)
7. Pe de Flor (03:09)
8. A Volta (05:05)
9. Goiano (05:44)
10. Terra de Indio (part 2) (00:38)
11. Cerradao (04:28)
12. Sweet Lullaby (Brazilian version) (03:42)
13. Virtual Forest (03:57)
14. Pimenta do Tempero (03:02)

Exact Audio Copy V0.99 prebeta 5 from 4. May 2009

Отчёт EAC об извлечении, выполненном 16. сентября 2010, 11:26

Deep Forest (Eric Mouquet) / Deep Brasil (Japanese Press)

Дисковод: TSSTcorpCDDVDW SH-S223F Adapter: 0 ID: 1

Режим чтения : Достоверность
Использование точного потока : Да
Отключение кэша аудио : Да
Использование указателей C2 : Нет

Коррекция смещения при чтении : 6
Способность читать области Lead-in и Lead-out : Нет
Заполнение пропущенных сэмплов тишиной : Да
Удаление блоков с тишиной в начале и конце : Нет
При вычислениях CRC использовались нулевые сэмплы : Да
Интерфейс : Установленный внешний ASPI-интерфейс

Выходной формат : Внутренние WAV-операции
Формат сэмплов : 44.100 Гц; 16 бит; стерео


TOC извлечённого CD

Трек | Старт | Длительность | Начальный сектор | Конечный сектор
––––––––––––––––––––––––––––––––––-
1 | 0:00.00 | 5:39.10 | 0 | 25434
2 | 5:39.10 | 3:53.17 | 25435 | 42926
3 | 9:32.27 | 4:20.50 | 42927 | 62476
4 | 13:53.02 | 4:32.16 | 62477 | 82892
5 | 18:25.18 | 3:04.54 | 82893 | 96746
6 | 21:29.72 | 4:26.09 | 96747 | 116705
7 | 25:56.06 | 3:09.28 | 116706 | 130908
8 | 29:05.34 | 5:05.12 | 130909 | 153795
9 | 34:10.46 | 5:44.00 | 153796 | 179595
10 | 39:54.46 | 0:38.03 | 179596 | 182448
11 | 40:32.49 | 4:28.01 | 182449 | 202549
12 | 45:00.50 | 3:42.21 | 202550 | 219220
13 | 48:42.71 | 4:00.37 | 219221 | 237257
14 | 52:43.33 | 2:59.28 | 237258 | 250710


Характеристики диапазона извлечения и сообщения об ошибках

Выбранный диапазон

Имя файла K:\LOSSLESS\Upload\Deep Forest (Japanese Press)\Deep Forest 2008 - Deep Brasil (Japanese Press)\Deep Forest (Eric Mouquet) - Deep Brasil (Japanese Press).wav

Пиковый уровень 97.6 %
Качество диапазона 100.0 %
CRC теста 7213A288
CRC копии 7213A288
Копирование… OK

Ошибок не произошло


AccurateRip: сводка

Трек 1 точность не определена (достоверность 1) [34FA9FA5], AccurateRip вернул [1AF44AA2]
Трек 2 точность не определена (достоверность 1) [8E7B8CB7], AccurateRip вернул [3FD35750]
Трек 3 точность не определена (достоверность 1) [B26C8746], AccurateRip вернул [920E71B1]
Трек 4 точность не определена (достоверность 1) [643EF916], AccurateRip вернул [1103EF0F]
Трек 5 точность не определена (достоверность 1) [9E01175F], AccurateRip вернул [2475AB9F]
Трек 6 точность не определена (достоверность 1) [B7E931F6], AccurateRip вернул [034D55B0]
Трек 7 точность не определена (достоверность 1) [80210B98], AccurateRip вернул [51F84C87]
Трек 8 точность не определена (достоверность 1) [98273976], AccurateRip вернул [13B9C693]
Трек 9 точность не определена (достоверность 1) [C1434896], AccurateRip вернул [DCA8D91F]
Трек 10 точность не определена (достоверность 1) [9B723F31], AccurateRip вернул [E510F202]
Трек 11 точность не определена (достоверность 1) [FB39E269], AccurateRip вернул [699E9372]
Трек 12 точность не определена (достоверность 1) [8DF54E8C], AccurateRip вернул [CA24AE7F]
Трек 13 точность не определена (достоверность 1) [5082347A], AccurateRip вернул [53604E01]
Трек 14 точность не определена (достоверность 1) [6AEE2FE2], AccurateRip вернул [8DB8E530]

Ни один трек не прошёл проверки на точность
В вашей базе может быть иной вариант штамповки диска

Конец отчёта

foobar2000 1.2.4 / Dynamic Range Meter 1.1.1
log date: 2013-05-28 10:51:35

––––––––––––––––––––––––––––––––––––––––
Analyzed: Deep Forest (Eric Mouquet) / Deep Brasil (Japanese Press)
––––––––––––––––––––––––––––––––––––––––

DR Peak RMS Duration Track
––––––––––––––––––––––––––––––––––––––––
DR8 -0.41 dB -11.26 dB 5:39 01-Amazonia
DR7 -0.21 dB -9.37 dB 3:53 02-Terra de Indio
DR9 -0.44 dB -12.61 dB 4:21 03-Fazenda
DR9 -0.65 dB -11.91 dB 4:32 04-Ceu do Brasil
DR8 -0.48 dB -10.10 dB 3:05 05-Africa Brasil
DR9 -0.64 dB -11.98 dB 4:26 06-Minas Nascimento
DR8 -0.63 dB -12.22 dB 3:09 07-Pe de Flor
DR10 -0.82 dB -12.41 dB 5:05 08-A Volta
DR9 -0.61 dB -12.82 dB 5:44 09-Goiano
DR12 -3.44 dB -18.51 dB 0:38 10-Terra de Indio (part 2)
DR9 -0.40 dB -11.70 dB 4:28 11-Cerradao
DR12 -1.11 dB -14.76 dB 3:42 12-Sweet Lullaby (Brazilian version)
DR14 -0.80 dB -19.79 dB 4:00 13-Virtual Forest
DR12 -4.00 dB -19.77 dB 2:59 14-Pimenta do Tempero
––––––––––––––––––––––––––––––––––––––––

Number of tracks: 14
Official DR value: DR10

Samplerate: 44100 Hz
Channels: 2
Bits per sample: 16
Bitrate: 879 kbps
Codec: FLAC

=====================================

Deep Forest Discography (1992 - 2013)

CD10: Deep Forest & Rahul Sharma - Deep India (2013)
EAC | Flac(Image) + Cue + Log & MP3 CBR 320Kbps
Sony Music, 88765 45397 2 | ~ 338 or 137 Mb | Scans
World Music / New Age / Electronica / House / Tribal / Downtempo / Ambient

This new album brings back memories of their best work of the 90's, but updated! I enjoyed this more than I enjoyed Deep Brasil. Highly recommended!

By Kirk McKenna Jr., amazon
Tracklist:

01. Viva Madikeri (Karnataka) (5:52)
02. Bihu (Assam) (4:45)
03. Rajasthan (4:54)
04. Dhol Lejhim (Maharashtra) (5:09)
05. Thillelo (Kerala) (3:40)
06. Punjab (5:59)
07. The Village (Sindh) (6:43)
08. Mountain Ballad (Jammu) (7:06)
09. Sounds Of The Village (4:08)
10. Viva Madikeri (Radio Edit) (4:01)

Exact Audio Copy V1.0 beta 3 from 29. August 2011

EAC extraction logfile from 13. February 2013, 21:12

Deep Forest & Rahul Sharma / Deep India

Used drive : SONY DVD RW AD-7260S Adapter: 0 ID: 0

Read mode : Secure
Utilize accurate stream : Yes
Defeat audio cache : Yes
Make use of C2 pointers : No

Read offset correction : 48
Overread into Lead-In and Lead-Out : No
Fill up missing offset samples with silence : Yes
Delete leading and trailing silent blocks : No
Null samples used in CRC calculations : Yes
Used interface : Native Win32 interface for Win NT & 2000

Used output format : Internal WAV Routines
Sample format : 44.100 Hz; 16 Bit; Stereo


TOC of the extracted CD

Track | Start | Length | Start sector | End sector
––––––––––––––––––––––––––––-
1 | 0:00.00 | 5:52.52 | 0 | 26451
2 | 5:52.52 | 4:45.71 | 26452 | 47897
3 | 10:38.48 | 4:54.49 | 47898 | 69996
4 | 15:33.22 | 5:09.15 | 69997 | 93186
5 | 20:42.37 | 3:40.18 | 93187 | 109704
6 | 24:22.55 | 5:59.03 | 109705 | 136632
7 | 30:21.58 | 6:43.33 | 136633 | 166890
8 | 37:05.16 | 7:06.52 | 166891 | 198892
9 | 44:11.68 | 4:08.04 | 198893 | 217496
10 | 48:19.72 | 4:01.58 | 217497 | 235629


Range status and errors

Selected range

Filename R:\Uploads\Deep Forest & Projects\Deep Forest (Albums & Singles)\Albums\Deep Forest 2013 - Deep India\Deep Forest & Rahul Sharma - Deep India.wav

Peak level 100.0 %
Extraction speed 3.9 X
Range quality 99.9 %
Test CRC B80D08EA
Copy CRC B80D08EA
Copy OK

No errors occurred


AccurateRip summary

Track 1 not present in database
Track 2 not present in database
Track 3 not present in database
Track 4 not present in database
Track 5 not present in database
Track 6 not present in database
Track 7 not present in database
Track 8 not present in database
Track 9 not present in database
Track 10 not present in database

None of the tracks are present in the AccurateRip database

End of status report

foobar2000 1.2.4 / Dynamic Range Meter 1.1.1
log date: 2013-05-28 10:52:25

––––––––––––––––––––––––––––––––––––––––
Analyzed: Deep Forest & Rahul Sharma / Deep India
––––––––––––––––––––––––––––––––––––––––

DR Peak RMS Duration Track
––––––––––––––––––––––––––––––––––––––––
DR11 -0.01 dB -13.89 dB 5:53 01-Viva Madikeri (Karnataka)
DR11 -0.12 dB -12.95 dB 4:46 02-Bihu (Assam)
DR11 -0.12 dB -14.92 dB 4:55 03-Rajasthan
DR7 -0.12 dB -9.18 dB 5:09 04-Dhol Lejhim (Maharashtra)
DR9 -0.11 dB -12.10 dB 3:40 05-Thillelo (Kerala)
DR8 0.00 dB -9.74 dB 5:59 06-Punjab
DR11 -0.09 dB -13.32 dB 6:43 07-The Village (Sindh)
DR10 -0.11 dB -13.94 dB 7:07 08-Mountain Ballad (Jammu)
DR14 -0.33 dB -16.73 dB 4:08 09-Sounds Of The Village
DR11 0.00 dB -13.33 dB 4:02 10-Viva Madikeri (Radio Edit)
––––––––––––––––––––––––––––––––––––––––

Number of tracks: 10
Official DR value: DR10

Samplerate: 44100 Hz
Channels: 2
Bits per sample: 16
Bitrate: 841 kbps
Codec: FLAC

=====================================

Deep Forest Discography (1992 - 2013)

CD11: Deep Forest - Deep Africa (2013) [Promo CD]
EAC | Flac(Image) + Cue + Log & MP3 CBR 320Kbps
Universal | ~ 381 or 135 Mb | Scans
World Music / New Age / Electronica / House / Tribal / Downtempo / Ambient

French electronic duo Deep Forest have built their style through incorporating internationally sourced sound rituals, songs, and other sonic elements into their more modernized European electronica. Appearing first in the mid-'90s, Deep Forest rose to huge success and kept the same basic outline for most of their albums. Deep Africa follows Deep India and Deep Brasil in a series of albums where the band focuses on a particular region with their brand of sonic appropriation, blending native sounds with chilled-out beats.

by Fred Thomas, AMG
Tracklist:

01. Amber Opening (3:21)
02. Dub Africa (2:43)
03. Mosika (5:18)
04. Yelele (4:21)
05. Bedi (4:48)
06. Atali Wowo (4:43)
07. Wasis (6:57)
08. Zoulawa (3:44)
09. Ho Mambo (3:33)
10. Alaake (3:41)
11. Lomo (0:58)
12. How Long (6:44)
13. Tiko (3:53)
14. Mosika Ending (1:10)

Exact Audio Copy V1.0 beta 3 from 29. August 2011

EAC extraction logfile from 14. April 2013, 20:40

Deep Forest / Deep Africa (Promo CD Album)

Used drive : SONY DVD RW AD-7260S Adapter: 0 ID: 0

Read mode : Secure
Utilize accurate stream : Yes
Defeat audio cache : Yes
Make use of C2 pointers : No

Read offset correction : 48
Overread into Lead-In and Lead-Out : No
Fill up missing offset samples with silence : Yes
Delete leading and trailing silent blocks : No
Null samples used in CRC calculations : Yes
Used interface : Installed external ASPI interface

Used output format : Internal WAV Routines
Sample format : 44.100 Hz; 16 Bit; Stereo


TOC of the extracted CD

Track | Start | Length | Start sector | End sector
––––––––––––––––––––––––––––-
1 | 0:00.00 | 3:21.44 | 0 | 15118
2 | 3:21.44 | 2:43.37 | 15119 | 27380
3 | 6:05.06 | 5:18.48 | 27381 | 51278
4 | 11:23.54 | 4:21.15 | 51279 | 70868
5 | 15:44.69 | 4:28.70 | 70869 | 91038
6 | 20:13.64 | 4:43.07 | 91039 | 112270
7 | 24:56.71 | 6:57.55 | 112271 | 143600
8 | 31:54.51 | 3:44.20 | 143601 | 160420
9 | 35:38.71 | 3:33.46 | 160421 | 176441
10 | 39:12.42 | 3:41.11 | 176442 | 193027
11 | 42:53.53 | 0:58.10 | 193028 | 197387
12 | 43:51.63 | 6:44.43 | 197388 | 227730
13 | 50:36.31 | 3:53.42 | 227731 | 245247
14 | 54:29.73 | 1:10.48 | 245248 | 250545


Range status and errors

Selected range

Filename Q:\Uploads\Deep Forest & Projects\Deep Forest (Albums & Singles)\Albums\Deep Forest 2013 - Deep Africa\Deep Forest - Deep Africa (Promo CD Album).wav

Peak level 99.7 %
Extraction speed 4.2 X
Range quality 100.0 %
Test CRC AA14D462
Copy CRC AA14D462
Copy OK

No errors occurred


AccurateRip summary

Track 1 not present in database
Track 2 not present in database
Track 3 not present in database
Track 4 not present in database
Track 5 not present in database
Track 6 not present in database
Track 7 not present in database
Track 8 not present in database
Track 9 not present in database
Track 10 not present in database
Track 11 not present in database
Track 12 not present in database
Track 13 not present in database
Track 14 not present in database

None of the tracks are present in the AccurateRip database

End of status report

foobar2000 1.2.4 / Dynamic Range Meter 1.1.1
log date: 2013-05-28 10:51:59

––––––––––––––––––––––––––––––––––––––––
Analyzed: Deep Forest / Deep Africa (Promo CD Album)
––––––––––––––––––––––––––––––––––––––––

DR Peak RMS Duration Track
––––––––––––––––––––––––––––––––––––––––
DR11 -0.02 dB -14.62 dB 3:22 01-Amber Opening
DR7 -0.02 dB -8.67 dB 2:43 02-Dub Africa
DR10 -0.02 dB -12.08 dB 5:19 03-Mosika
DR7 -0.02 dB -9.47 dB 4:21 04-Yelele
DR11 -0.03 dB -14.58 dB 4:29 05-Bedi
DR10 -0.02 dB -10.94 dB 4:43 06-Atali Wowo
DR8 -0.02 dB -10.42 dB 6:58 07-Wasis
DR11 -0.02 dB -12.59 dB 3:44 08-Zoulawa
DR9 -0.02 dB -10.57 dB 3:34 09-Ho Mambo
DR9 -0.02 dB -10.09 dB 3:41 10-Alaake
DR13 -1.08 dB -17.59 dB 0:58 11-Lomo
DR8 -0.02 dB -12.04 dB 6:45 12-How Long
DR11 -0.02 dB -12.53 dB 3:54 13-Tiko
DR11 -2.52 dB -16.99 dB 1:11 14-Mosika Ending
––––––––––––––––––––––––––––––––––––––––

Number of tracks: 14
Official DR value: DR10

Samplerate: 44100 Hz
Channels: 2
Bits per sample: 16
Bitrate: 890 kbps
Codec: FLAC

All thanks go to aylaayla

Download Deep Forest Discography (1992 - 2013):