Depeche Mode - 101 (1989) Germany 1st Press + US 1st Press [Re-Up]

Posted By: Designol
Depeche Mode - 101 (1989) Germany 1st Press + US 1st Press [Re-Up]

Depeche Mode - 101 (1989) Germany 1st Press & US 1st Press
EAC | FLAC | Image (Cue&Log) ~ 660/692 Mb | Mp3 (CBR320) ~ 253/287 Mb | Scans included
Synthpop, Dark Wave, Alternative Pop/Rock | Label: Mute/Sire | # INT 892.650/9 25853-2

101 is a live album and documentary by Depeche Mode released in 1989 chronicling the final leg of the band's Music for the Masses Tour and the final show at the Pasadena Rose Bowl. Group member Alan Wilder is credited with coming up with the name; the performance was the 101st and final performance of the tour (and coincidentally also a famous highway in the area).

As an event, Depeche Mode's huge (attendance around 60,000) Los Angeles Rose Bowl concert in 1988 remains legendary; no single artist show had totally sold out the venue since eight years beforehand, while the film documentary done by Dylan-filmer D.A. Pennebaker based around the show clearly demonstrated fans' intense commitment to a near-decade-old band most mainstream critics continued to stupidly portray as a flash-in-the-pan synth pop effort. This start-to-final-encore record of the concert showcases a band perfectly able to carry its music from studio to stage as well as any other combo worth its salt should be able to do. Understandably focused on Music for the Masses material, the album shows Depeche experimenting with alternate arrangements at various points for live performance; big numbers like "Never Let Me Down Again," "Stripped," and "Blasphemous Rumors" pack even more of a wallop here. Slower numbers and more than a couple of ballads help to vary the hit-packed set, including a fine "Somebody" and "The Things You Said" combination sung by Martin Gore. "Pleasure Little Treasure," on record an okay B-side, becomes a monster rocker live, the type of unexpected surprise one could expect from a solid band no matter what the music. With a triumphant set of closing numbers, including magnificent takes on "Never Let Me Down Again," "Master and Servant," and the set-ending "Everything Counts," with what sounds like the entire audience singing the chorus well after the song has finally ended, 101 does far better at its task than most might have guessed.

Review by Ned Raggett, Allmusic.com

Depeche Mode at Allmusic
Depeche Mode Website
Depeche Mode Wiki



Depeche Mode - 101 (1989) Germany 1st Press + US 1st Press [Re-Up]

Depeche Mode - 101 (1989) Germany 1st Press + US 1st Press [Re-Up]


Mute, INT 892.650 (Germany 1st Press, 1989)

Time: 01:35:59.400

Tracklist:


CD1:

01. Pimpf (Live) (00:58)
02. Behind The Wheel (Live) (05:54)
03. Strangelove (Live) (04:50)
04. Sacred (Live) (05:09)
05. Something To (Live) (03:53)
06. Blasphemous Rumours (Live) (05:09)
07. Stripped (Live) (06:45)
08. Somebody (Live) (04:33)
09. Things You Said (Live) (04:21)

CD2:

01. Black Celebration (Live) (04:55)
02. Shake The Disease (Live) (05:10)
03. Nothing (Live) (04:36)
04. Pleasure, Little Treasure (Live) (04:38)
05. People Are People (Live) (04:59)
06. A Question Of Time (Live) (04:12)
07. Never Let Me Down Again (Live) (06:40)
08. A Question Of Lust (Live) (04:07)
09. Master And Servant (Live) (04:30)
10. Just Can't Get Enough (Live) (04:01)
11. Everything Counts (Live) (06:30)


Exact Audio Copy V0.99 prebeta 5 from 4. May 2009

EAC extraction logfile from 7. October 2011, 20:34

Depeche Mode / 101 (Disc A)

Used drive : SlimtypeBD E DS4E1S Adapter: 0 ID: 1

Read mode : Secure
Utilize accurate stream : Yes
Defeat audio cache : Yes
Make use of C2 pointers : No

Read offset correction : 6
Overread into Lead-In and Lead-Out : No
Fill up missing offset samples with silence : Yes
Delete leading and trailing silent blocks : No
Null samples used in CRC calculations : Yes
Used interface : Native Win32 interface for Win NT & 2000

Used output format : User Defined Encoder
Selected bitrate : 768 kBit/s
Quality : High
Add ID3 tag : No
Command line compressor : C:\Program Files (x86)\Exact Audio Copy\Flac\flac.exe
Additional command line options : -T "DATE=%y" -T "GENRE=%m" -8 -V %s


TOC of the extracted CD

Track | Start | Length | Start sector | End sector
––––––––––––––––––––––––––––-
1 | 0:00.32 | 0:58.55 | 32 | 4436
2 | 0:59.12 | 5:54.70 | 4437 | 31056
3 | 6:54.07 | 4:50.03 | 31057 | 52809
4 | 11:44.10 | 5:09.27 | 52810 | 76011
5 | 16:53.37 | 3:53.63 | 76012 | 93549
6 | 20:47.25 | 5:09.10 | 93550 | 116734
7 | 25:56.35 | 6:45.12 | 116735 | 147121
8 | 32:41.47 | 4:33.43 | 147122 | 167639
9 | 37:15.15 | 4:21.57 | 167640 | 187271


Range status and errors

Selected range

Filename F:\Depeche Mode - 101 (1989) (MUTE INT 892.650) (1st Germany 1989)\Disc A\Depeche Mode - 101 (Disc A).wav

Peak level 91.4 %
Range quality 100.0 %
Test CRC B83197FE
Copy CRC B83197FE
Copy OK

No errors occurred


AccurateRip summary

Track 1 accurately ripped (confidence 79) [6AC99ED4]
Track 2 accurately ripped (confidence 77) [C4ECCF28]
Track 3 accurately ripped (confidence 75) [42B1F89A]
Track 4 accurately ripped (confidence 76) [8ABC23AC]
Track 5 accurately ripped (confidence 77) [60CBAAF0]
Track 6 accurately ripped (confidence 77) [E141D1DE]
Track 7 accurately ripped (confidence 73) [1EAAE421]
Track 8 accurately ripped (confidence 74) [D4A7BB85]
Track 9 accurately ripped (confidence 73) [4F5A9E82]

All tracks accurately ripped

End of status report

foobar2000 1.2 / Dynamic Range Meter 1.1.1
log date: 2013-05-20 18:35:28

––––––––––––––––––––––––––––––––––––––––
Analyzed: Depeche Mode / 101 (Disc A)
––––––––––––––––––––––––––––––––––––––––

DR Peak RMS Duration Track
––––––––––––––––––––––––––––––––––––––––
DR11 -3.48 dB -16.31 dB 0:59 01-Pimpf (Live)
DR12 -2.93 dB -15.88 dB 5:55 02-Behind The Wheel (Live)
DR12 -2.65 dB -16.12 dB 4:50 03-Strangelove (Live)
DR11 -3.02 dB -16.30 dB 5:09 04-Sacred (Live)
DR10 -4.14 dB -15.21 dB 3:54 05-Something To (Live)
DR11 -3.56 dB -15.90 dB 5:09 06-Blasphemous Rumours (Live)
DR12 -0.78 dB -15.94 dB 6:45 07-Stripped (Live)
DR12 -3.39 dB -17.27 dB 4:34 08-Somebody (Live)
DR10 -4.63 dB -16.55 dB 4:22 09-Things You Said (Live)
––––––––––––––––––––––––––––––––––––––––

Number of tracks: 9
Official DR value: DR11

Samplerate: 44100 Hz
Channels: 2
Bits per sample: 16
Bitrate: 876 kbps
Codec: FLAC
================================================================================


Exact Audio Copy V0.99 prebeta 5 from 4. May 2009

EAC extraction logfile from 21. April 2012, 17:32

Depeche Mode / 101 (Disc B)

Used drive : TSSTcorpCD/DVDW TS-L632D Adapter: 0 ID: 0

Read mode : Secure
Utilize accurate stream : Yes
Defeat audio cache : Yes
Make use of C2 pointers : No

Read offset correction : 6
Overread into Lead-In and Lead-Out : No
Fill up missing offset samples with silence : Yes
Delete leading and trailing silent blocks : No
Null samples used in CRC calculations : Yes
Used interface : Native Win32 interface for Win NT & 2000

Used output format : User Defined Encoder
Selected bitrate : 768 kBit/s
Quality : High
Add ID3 tag : No
Command line compressor : C:\Program Files (x86)\Exact Audio Copy\FLAC\FLAC.EXE
Additional command line options : -T "DATE=%y" -T "GENRE=%m" -8 -V %s


TOC of the extracted CD

Track | Start | Length | Start sector | End sector
––––––––––––––––––––––––––––-
1 | 0:00.32 | 4:55.38 | 32 | 22194
2 | 4:55.70 | 5:10.42 | 22195 | 45486
3 | 10:06.37 | 4:36.48 | 45487 | 66234
4 | 14:43.10 | 4:38.52 | 66235 | 87136
5 | 19:21.62 | 4:59.05 | 87137 | 109566
6 | 24:20.67 | 4:12.65 | 109567 | 128531
7 | 28:33.57 | 6:40.40 | 128532 | 158571
8 | 35:14.22 | 4:07.13 | 158572 | 177109
9 | 39:21.35 | 4:30.07 | 177110 | 197366
10 | 43:51.42 | 4:01.30 | 197367 | 215471
11 | 47:52.72 | 6:30.25 | 215472 | 244746


Range status and errors

Selected range

Filename F:\Depeche Mode - 101 (1989) (MUTE INT 892.650) (1st Germany 1989)\Disc B\Depeche Mode - 101 (Disc B).wav

Peak level 90.7 %
Range quality 100.0 %
Test CRC 0BF4381F
Copy CRC 0BF4381F
Copy OK

No errors occurred


AccurateRip summary

Track 1 accurately ripped (confidence 77) [6B1C3137]
Track 2 accurately ripped (confidence 76) [5641838A]
Track 3 accurately ripped (confidence 75) [36B9D9EE]
Track 4 accurately ripped (confidence 76) [DFB4D567]
Track 5 accurately ripped (confidence 75) [DB35A195]
Track 6 accurately ripped (confidence 76) [ACD79CDC]
Track 7 accurately ripped (confidence 75) [7C27C324]
Track 8 accurately ripped (confidence 75) [E6446907]
Track 9 accurately ripped (confidence 75) [2007245F]
Track 10 accurately ripped (confidence 75) [7A8BBABF]
Track 11 accurately ripped (confidence 71) [9FC65003]

All tracks accurately ripped

End of status report

foobar2000 1.2 / Dynamic Range Meter 1.1.1
log date: 2013-05-20 18:35:45

––––––––––––––––––––––––––––––––––––––––
Analyzed: Depeche Mode / 101 (Disc B)
––––––––––––––––––––––––––––––––––––––––

DR Peak RMS Duration Track
––––––––––––––––––––––––––––––––––––––––
DR10 -3.63 dB -15.23 dB 4:56 01-Black Celebration (Live)
DR12 -2.66 dB -15.97 dB 5:11 02-Shake The Disease (Live)
DR11 -1.99 dB -14.71 dB 4:37 03-Nothing (Live)
DR11 -3.00 dB -15.96 dB 4:39 04-Pleasure, Little Treasure (Live)
DR12 -1.91 dB -16.13 dB 4:59 05-People Are People (Live)
DR11 -3.33 dB -15.79 dB 4:13 06-A Question Of Time (Live)
DR11 -0.84 dB -14.24 dB 6:41 07-Never Let Me Down Again (Live)
DR12 -2.04 dB -15.52 dB 4:07 08-A Question Of Lust (Live)
DR12 -2.46 dB -15.97 dB 4:30 09-Master And Servant (Live)
DR12 -2.28 dB -15.87 dB 4:01 10-Just Can't Get Enough (Live)
DR11 -3.24 dB -15.83 dB 6:30 11-Everything Counts (Live)
––––––––––––––––––––––––––––––––––––––––

Number of tracks: 11
Official DR value: DR12

Samplerate: 44100 Hz
Channels: 2
Bits per sample: 16
Bitrate: 886 kbps
Codec: FLAC
================================================================================




Depeche Mode - 101 (1989) Germany 1st Press + US 1st Press [Re-Up]

Depeche Mode - 101 (1989) Germany 1st Press + US 1st Press [Re-Up]


Sire, 9 25853-2 (US 1st Press, 1989)

Time: 01:35:55.027

Tracklist:


CD1:

01. Pimpf (Live) (00:57)
02. Behind The Wheel (Live) (05:54)
03. Strangelove (Live) (04:49)
04. Sacred (Live) (05:12)
05. Something To Do (Live) (03:51)
06. Blasphemous Rumours (Live) (05:09)
07. Stripped (Live) (06:45)
08. Somebody (Live) (04:36)
09. Things You Said (Live) (04:19)

CD2:

01. Black Celebration (Live) (04:54)
02. Shake The Disease (Live) (05:10)
03. Nothing (Live) (04:36)
04. Pleasure Little Treasure (Live) (04:38)
05. People Are People (Live) (04:59)
06. A Question Of Time (Live) (04:12)
07. Never Let Me Down Again (Live) (06:40)
08. A Question Of Lust (Live) (04:07)
09. Master And Servant (Live) (04:30)
10. Just Can't Get Enough (Live) (04:01)
11. Everything Counts (Live) (06:27)


Exact Audio Copy V0.99 prebeta 5 from 4. May 2009

EAC extraction logfile from 21. April 2012, 19:38

Depeche Mode / 101 (Disc A)

Used drive : TSSTcorpCD/DVDW TS-L632D Adapter: 0 ID: 0

Read mode : Secure
Utilize accurate stream : Yes
Defeat audio cache : Yes
Make use of C2 pointers : No

Read offset correction : 6
Overread into Lead-In and Lead-Out : No
Fill up missing offset samples with silence : Yes
Delete leading and trailing silent blocks : No
Null samples used in CRC calculations : Yes
Used interface : Native Win32 interface for Win NT & 2000

Used output format : User Defined Encoder
Selected bitrate : 768 kBit/s
Quality : High
Add ID3 tag : No
Command line compressor : C:\Program Files (x86)\Exact Audio Copy\FLAC\FLAC.EXE
Additional command line options : -T "DATE=%y" -T "GENRE=%m" -8 -V %s


TOC of the extracted CD

Track | Start | Length | Start sector | End sector
––––––––––––––––––––––––––––-
1 | 0:00.33 | 0:57.60 | 33 | 4367
2 | 0:58.18 | 5:54.72 | 4368 | 30989
3 | 6:53.15 | 4:49.68 | 30990 | 52732
4 | 11:43.08 | 5:12.02 | 52733 | 76134
5 | 16:55.10 | 3:51.30 | 76135 | 93489
6 | 20:46.40 | 5:09.05 | 93490 | 116669
7 | 25:55.45 | 6:45.10 | 116670 | 147054
8 | 32:40.55 | 4:36.15 | 147055 | 167769
9 | 37:16.70 | 4:19.10 | 167770 | 187204


Range status and errors

Selected range

Filename F:\Depeche Mode - 101 (1989) (SIRE 9 25853-2) (1st USA 1989)\Disc A\Depeche Mode - 101 (Disc A).wav

Peak level 100.0 %
Range quality 100.0 %
Test CRC CB6611F7
Copy CRC CB6611F7
Copy OK

No errors occurred


AccurateRip summary

Track 1 accurately ripped (confidence 11) [9217F95D]
Track 2 accurately ripped (confidence 11) [FB65F408]
Track 3 accurately ripped (confidence 11) [91A0FA15]
Track 4 accurately ripped (confidence 11) [25AE6967]
Track 5 accurately ripped (confidence 11) [87B6505C]
Track 6 accurately ripped (confidence 11) [66A6AAA6]
Track 7 accurately ripped (confidence 10) [BD7F6A53]
Track 8 accurately ripped (confidence 11) [A68C3A81]
Track 9 accurately ripped (confidence 10) [D4421C8E]

All tracks accurately ripped

End of status report

foobar2000 1.2 / Dynamic Range Meter 1.1.1
log date: 2013-05-20 18:33:29

––––––––––––––––––––––––––––––––––––––––
Analyzed: Depeche Mode / 101 (Disc A)
––––––––––––––––––––––––––––––––––––––––

DR Peak RMS Duration Track
––––––––––––––––––––––––––––––––––––––––
DR11 -1.48 dB -14.48 dB 0:58 01-Pimpf (Live)
DR12 -0.60 dB -14.00 dB 5:55 02-Behind The Wheel (Live)
DR12 -0.81 dB -14.35 dB 4:50 03-Strangelove (Live)
DR11 -0.78 dB -14.62 dB 5:12 04-Sacred (Live)
DR10 -1.86 dB -13.47 dB 3:51 05-Something To Do (Live)
DR11 -1.30 dB -14.06 dB 5:09 06-Blasphemous Rumours (Live)
DR12 0.00 dB -14.20 dB 6:45 07-Stripped (Live)
DR12 -1.57 dB -15.69 dB 4:36 08-Somebody (Live)
DR11 -2.94 dB -14.83 dB 4:19 09-Things You Said (Live)
––––––––––––––––––––––––––––––––––––––––

Number of tracks: 9
Official DR value: DR11

Samplerate: 44100 Hz
Channels: 2
Bits per sample: 16
Bitrate: 908 kbps
Codec: FLAC
================================================================================


Exact Audio Copy V0.99 prebeta 5 from 4. May 2009

EAC extraction logfile from 21. April 2012, 20:18

Depeche Mode / 101 (Disc B)

Used drive : TSSTcorpCD/DVDW TS-L632D Adapter: 0 ID: 0

Read mode : Secure
Utilize accurate stream : Yes
Defeat audio cache : Yes
Make use of C2 pointers : No

Read offset correction : 6
Overread into Lead-In and Lead-Out : No
Fill up missing offset samples with silence : Yes
Delete leading and trailing silent blocks : No
Null samples used in CRC calculations : Yes
Used interface : Native Win32 interface for Win NT & 2000

Used output format : User Defined Encoder
Selected bitrate : 768 kBit/s
Quality : High
Add ID3 tag : No
Command line compressor : C:\Program Files (x86)\Exact Audio Copy\FLAC\FLAC.EXE
Additional command line options : -T "DATE=%y" -T "GENRE=%m" -8 -V %s


TOC of the extracted CD

Track | Start | Length | Start sector | End sector
––––––––––––––––––––––––––––-
1 | 0:00.32 | 4:54.20 | 32 | 22101
2 | 4:54.52 | 5:10.45 | 22102 | 45396
3 | 10:05.22 | 4:36.55 | 45397 | 66151
4 | 14:42.02 | 4:38.48 | 66152 | 87049
5 | 19:20.50 | 4:59.05 | 87050 | 109479
6 | 24:19.55 | 4:12.70 | 109480 | 128449
7 | 28:32.50 | 6:40.37 | 128450 | 158486
8 | 35:13.12 | 4:07.13 | 158487 | 177024
9 | 39:20.25 | 4:30.10 | 177025 | 197284
10 | 43:50.35 | 4:01.27 | 197285 | 215386
11 | 47:51.62 | 6:28.00 | 215387 | 244486


Range status and errors

Selected range

Filename F:\Depeche Mode - 101 (1989) (SIRE 9 25853-2) (1st USA 1989)\Disc B\Depeche Mode - 101 (Disc B).wav

Peak level 100.0 %
Range quality 100.0 %
Test CRC 1A7EE486
Copy CRC 1A7EE486
Copy OK

No errors occurred


AccurateRip summary

Track 1 accurately ripped (confidence 67) [9F2AA746]
Track 2 accurately ripped (confidence 69) [E078608D]
Track 3 accurately ripped (confidence 69) [3CE3DACD]
Track 4 accurately ripped (confidence 71) [547EE177]
Track 5 accurately ripped (confidence 66) [0E8D22EF]
Track 6 accurately ripped (confidence 68) [AD2F2B69]
Track 7 accurately ripped (confidence 68) [C1A9F199]
Track 8 accurately ripped (confidence 64) [66C703DC]
Track 9 accurately ripped (confidence 67) [7C0CBC79]
Track 10 accurately ripped (confidence 64) [E767C01F]
Track 11 accurately ripped (confidence 62) [7C6BCF34]

All tracks accurately ripped

End of status report

foobar2000 1.2 / Dynamic Range Meter 1.1.1
log date: 2013-05-20 18:33:47

––––––––––––––––––––––––––––––––––––––––
Analyzed: Depeche Mode / 101 (Disc B)
––––––––––––––––––––––––––––––––––––––––

DR Peak RMS Duration Track
––––––––––––––––––––––––––––––––––––––––
DR10 -2.22 dB -13.92 dB 4:54 01-Black Celebration (Live)
DR12 -1.57 dB -14.70 dB 5:11 02-Shake The Disease (Live)
DR11 -0.31 dB -13.37 dB 4:37 03-Nothing (Live)
DR12 -1.44 dB -14.71 dB 4:39 04-Pleasure Little Treasure (Live)
DR13 -0.59 dB -14.76 dB 4:59 05-People Are People (Live)
DR11 -1.80 dB -14.45 dB 4:13 06-A Question Of Time (Live)
DR11 0.00 dB -13.02 dB 6:40 07-Never Let Me Down Again (Live)
DR12 -0.49 dB -14.20 dB 4:07 08-A Question Of Lust (Live)
DR12 -0.90 dB -14.62 dB 4:30 09-Master And Servant (Live)
DR13 -0.62 dB -14.48 dB 4:01 10-Just Can't Get Enough (Live)
DR11 -1.98 dB -14.54 dB 6:28 11-Everything Counts (Live)
––––––––––––––––––––––––––––––––––––––––

Number of tracks: 11
Official DR value: DR12

Samplerate: 44100 Hz
Channels: 2
Bits per sample: 16
Bitrate: 910 kbps
Codec: FLAC
================================================================================