Subcategories
Tags
Language
Tags

Devo - Something For Everybody (2010) Japanese Edition

Posted By: Designol
Devo - Something For Everybody (2010) Japanese Edition

Devo - Something For Everybody (2010) Japanese Edition
EAC | FLAC | Image (Cue&Log) ~ 317 Mb | Mp3 (CBR320) ~ 94 Mb | Scans ~ 137 Mb
Label: Warner Bros. Records | # WPCR-13844 | Time: 00:40:13
Alternative Rock, Dance-Rock, Electronic Rock, New Wave, Synthpop

Coming in way above their previous effort, 1990’s Smooth Noodle Maps, Something for Everybody is the album Devo's fans had craved for 28 long years, or maybe 29, if you fall on the sour side of the iffy Oh, No! It's Devo. The synthetic, compressed, and punchy production – courtesy of producer and Bird & the Bee member Greg Kurstin – is a modern take on the sound of 1981’s New Traditionalists, and if you judge by hooks, this is right in line with their 1980 breakthrough, Freedom of Choice, although there’s certainly no “Whip It”-sized megahit here. Instead, there’s the opening “Fresh!” a herky-jerky, infectious number with lead singer Mark Mothersbaugh stuttering as if he just created New Wave’s “My Generation.” The wicked highlight “Don’t Shoot (I’m a Man)” (“They’ll hunt you down/And tase you bro/For playing with the rules”) is the album’s other key track, thanks to Mothersbaugh’s perfect framing of de-evolution’s give (hybrid cars) and take, take, take (Beltway snipers, overzealous cops, etc.). Both highlights are co-produced by Santigold who, like Kurstin, checks her ego at the door, allowing the five spud boys to sound like a functioning band. The twangy guitars of Bob 1 are perfectly balanced with the synths and electronic percussion from new member Josh Freese, while Mothersbaugh’s ironic downers are complemented by co-frontman Jerry Casale’s more snide and silly songs, and the two attempts to re-create the sarcastic grandeur of their masterpiece “Beautiful World” – with “Later Is Now” and “No Place Like Home” – come pretty darn close. While some will complain that the satirical social commentary just isn’t as razor-sharp, and that the wild, primal nerdiness of their first two efforts is long gone, the purposeful Something for Everybody is proudly not a nostalgia trip and is, instead, filled with age-appropriate subversion, right up to its ironic title. "Something for Veteran Fans" is more like it with "Something Surprisingly Vital" being an even better choice.

Review by David Jeffries, Allmusic.com

Devo at Allmusic
Devo at Wiki

Tracklist:

01. Fresh (3:00)
02. What To Do (3:18)
03. Please Baby Please (2:42)
04. Don't Shoot ( I'm A Man) (3:27)
05. Mind Games (2:31)
06. Human Rocket (3:23)
07. Sumthin' (2:47)
08. Step Up (3:01)
09. Cameo (2:50)
10. Later Is Now (3:53)
11. No Place Like Home (3:19)
12. March On (3:53)
13. Watch Us Work It (2:16)


Exact Audio Copy V1.0 beta 1 from 15. November 2010

EAC extraction logfile from 21. December 2010, 0:26

Devo / Something For Everybody

Used drive : PIONEER DVD-RW DVR-112D Adapter: 2 ID: 0

Read mode : Secure
Utilize accurate stream : Yes
Defeat audio cache : Yes
Make use of C2 pointers : No

Read offset correction : 48
Overread into Lead-In and Lead-Out : No
Fill up missing offset samples with silence : Yes
Delete leading and trailing silent blocks : No
Null samples used in CRC calculations : Yes
Used interface : Installed external ASPI interface

Used output format : User Defined Encoder
Selected bitrate : 1024 kBit/s
Quality : High
Add ID3 tag : No
Command line compressor : C:\Program Files (x86)\Exact Audio Copy\Flac\flac.exe
Additional command line options : -5 -V -T "ARTIST=%a" -T "TITLE=%t" -T "ALBUM=%g" -T "DATE=%y" -T "TRACKNUMBER=%n" -T "GENRE=%m" -T "COMMENT=EAC FLAC -5" %s


TOC of the extracted CD

Track | Start | Length | Start sector | End sector
––––––––––––––––––––––––––––-
1 | 0:00.00 | 2:59.61 | 0 | 13485
2 | 2:59.61 | 3:17.11 | 13486 | 28271
3 | 6:16.72 | 2:41.28 | 28272 | 40374
4 | 8:58.25 | 3:26.30 | 40375 | 55854
5 | 12:24.55 | 2:30.06 | 55855 | 67110
6 | 14:54.61 | 3:22.54 | 67111 | 82314
7 | 18:17.40 | 2:46.32 | 82315 | 94796
8 | 21:03.72 | 3:00.65 | 94797 | 108361
9 | 24:04.62 | 2:49.51 | 108362 | 121087
10 | 26:54.38 | 3:52.35 | 121088 | 138522
11 | 30:46.73 | 3:18.41 | 138523 | 153413
12 | 34:05.39 | 3:52.06 | 153414 | 170819
13 | 37:57.45 | 2:15.23 | 170820 | 180967


Range status and errors

Selected range

Filename F:\DEVO - Something For everybody - 2010 (Japan)\Devo - Something For Everybody.wav

Peak level 100.0 %
Extraction speed 0.3 X
Range quality 100.0 %
Test CRC 8C837F7C
Copy CRC 8C837F7C
Copy OK

No errors occurred


AccurateRip summary

Track 1 accurately ripped (confidence 1) [CB10051C]
Track 2 accurately ripped (confidence 1) [F674B42E]
Track 3 accurately ripped (confidence 1) [F22A9822]
Track 4 accurately ripped (confidence 1) [67DD4B48]
Track 5 accurately ripped (confidence 1) [359B8326]
Track 6 accurately ripped (confidence 1) [297EFAED]
Track 7 accurately ripped (confidence 1) [52B69B40]
Track 8 accurately ripped (confidence 1) [A8F2751D]
Track 9 accurately ripped (confidence 1) [F1133C84]
Track 10 accurately ripped (confidence 1) [1B52EE19]
Track 11 accurately ripped (confidence 1) [7A06B975]
Track 12 accurately ripped (confidence 1) [EA0D2E63]
Track 13 accurately ripped (confidence 1) [2394DB3A]

All tracks accurately ripped

End of status report

[CUETools log; Date: 23.06.2021 15:17:00; Version: 2.1.7]
[CTDB TOCID: sS78nOyS3bqLatlIiJg4Ee9W2AA-] found.
Track | CTDB Status
1 | (12/13) Accurately ripped
2 | (12/13) Accurately ripped
3 | (12/13) Accurately ripped
4 | (12/13) Accurately ripped
5 | (12/13) Accurately ripped
6 | (12/13) Accurately ripped
7 | (12/13) Accurately ripped
8 | (12/13) Accurately ripped
9 | (12/13) Accurately ripped
10 | (12/13) Accurately ripped
11 | (12/13) Accurately ripped
12 | (12/13) Accurately ripped
13 | (12/13) Accurately ripped
[AccurateRip ID: 001327da-00c02ec2-c3096c0d] found.
Track [ CRC | V2 ] Status
01 [cb10051c|9783c56c] (2+4/6) Accurately ripped
02 [f674b42e|4a497688] (2+4/6) Accurately ripped
03 [f22a9822|74f0c559] (2+4/6) Accurately ripped
04 [67dd4b48|5de50b8a] (2+4/6) Accurately ripped
05 [359b8326|2b3534b3] (2+4/6) Accurately ripped
06 [297efaed|533f5ef5] (2+4/6) Accurately ripped
07 [52b69b40|b2bb393d] (2+4/6) Accurately ripped
08 [a8f2751d|a758d5a2] (2+4/6) Accurately ripped
09 [f1133c84|5d48bad8] (2+4/6) Accurately ripped
10 [1b52ee19|d2b31fd5] (2+4/6) Accurately ripped
11 [7a06b975|ede8b21e] (2+4/6) Accurately ripped
12 [ea0d2e63|a47bb103] (2+4/6) Accurately ripped
13 [2394db3a|5cb13d8e] (2+4/6) Accurately ripped

Track Peak [ CRC32 ] [W/O NULL] [ LOG ]
– 100,0 [8C837F7C] [6C0E04E5] CRC32
01 98,8 [E607FCD2] [6E551067]
02 98,8 [37F9FC8E] [2D7D6DB7]
03 98,8 [50A71419] [23687548]
04 100,0 [C69E733B] [15874642]
05 98,8 [8474369C] [D5518AD9]
06 98,8 [5E1E269D] [4C409A67]
07 99,7 [6A8DD81C] [CBCAF3C1]
08 98,8 [641FEA9E] [2C8002E3]
09 98,8 [D8973FA1] [94921BC9]
10 100,0 [B188110A] [0DACE557]
11 98,8 [18D59F1B] [20124EB9]
12 98,8 [39E9A01F] [3183B4E4]
13 98,8 [6E5E3F16] [CD37A980]

foobar2000 1.6.3 / Dynamic Range Meter 1.1.1
log date: 2021-06-23 15:29:26

––––––––––––––––––––––––––––––––––––––––
Analyzed: Devo / Something For Everybody
––––––––––––––––––––––––––––––––––––––––

DR Peak RMS Duration Track
––––––––––––––––––––––––––––––––––––––––
DR6 -0.10 dB -7.51 dB 3:00 01-Fresh
DR8 -0.10 dB -8.59 dB 3:17 02-What To Do
DR7 -0.10 dB -8.13 dB 2:41 03-Please Baby Please
DR6 0.00 dB -6.64 dB 3:26 04-Don't Shoot ( I'm A Man)
DR7 -0.10 dB -8.01 dB 2:30 05-Mind Games
DR5 -0.10 dB -6.75 dB 3:23 06-Human Rocket
DR7 -0.02 dB -7.57 dB 2:46 07-Sumthin'
DR6 -0.10 dB -7.92 dB 3:01 08-Step Up
DR7 -0.10 dB -8.58 dB 2:50 09-Cameo
DR6 0.00 dB -7.71 dB 3:52 10-Later Is Now
DR6 -0.10 dB -7.51 dB 3:19 11-No Place Like Home
DR6 -0.10 dB -6.67 dB 3:52 12-March On
DR5 -0.10 dB -6.26 dB 2:15 13-Watch Us Work It
––––––––––––––––––––––––––––––––––––––––

Number of tracks: 13
Official DR value: DR6

Samplerate: 44100 Hz
Channels: 2
Bits per sample: 16
Bitrate: 1097 kbps
Codec: FLAC
================================================================================

Devo - Something For Everybody (2010) Japanese Edition

Devo - Something For Everybody (2010) Japanese Edition

All thanks to original releaser - bvstudio

More interesting music in My Blog