Subcategories

Dr. John - The ATCO Albums Collection 1968-1974 (2017) Remastered 7CD Box Set

Posted By: Designol
Dr. John - The ATCO Albums Collection 1968-1974 (2017) Remastered 7CD Box Set

Dr. John - The ATCO Albums Collection 1968-1974 (2017) 7CD Box Set
EAC | FLAC | Image (Cue&Log) ~ 1.79 Gb | Mp3 (CBR320) ~ 883 Mb | Scans included
Label: ATCO Records/Rhino | # 081227933876 | Time: 04:21:46
Louisiana Blues, Rhythm & Blues, Bayou Funk, Blues-Rock, Psychedelic

Dr. John, a six-time Grammy® Award winner and a Rock and Roll Hall of Fame inductee (2011) began his solo career in 1968 on ATCO Records, where he released seven albums that introduced classics like “Iko Iko”, “Right Place, Wrong Time”, and “Such A Night”. Rhino will explore Dr. John’s early days with a new seven-CD set that follows his evolution from a psychedelic, voodoo witch doctor to a celebrated interpreter of New Orleans standards. All seven studio albums have been remastered for the first time. The set features: Gris-Gris (1968), Babylon (1969), Remedies (1970), The Sun, Moon & Herbs (1971), Dr. John’s Gumbo (1972), In The Right Place (1973), and Desitively Bonnaroo (1974).

Dr. John - The ATCO Albums Collection 1968-1974 (2017) Remastered 7CD Box Set





Dr. John - The ATCO Albums Collection 1968-1974 (2017) Remastered 7CD Box Set

Dr. John, The Night Tripper - Gris-Gris (1968)
EAC | FLAC | Image (Cue&Log) ~ 270 Mb | Mp3 (CBR320) ~ 103 Mb | 00:33:27 | Scans included

Dr. John's Gris-Gris is among the most enduring recordings of the psychedelic era; it sounds as mysterious and spooky in the 21st century as it did in 1968. It is the album where Mac Rebennack established a stage identity that has served him well. A respected studio ace in his native New Orleans, Rebennack was scuffling in L.A. Gris-Gris was his concept, an album that wove various threads of New Orleans music together behind the character of "Dr. John," a real voodoo root doctor from the 19th century. Harold Batiste, another ex-pat New Orleanian and respected arranger in Hollywood, scored him some free studio time left over from a Sonny & Cher session. They assembled a crack band of NOLA exiles and session players including saxophonist Plas Johnson, singers Jessie Hill and Shirley Goodman, and guitarist/mandolinist Richard "Didimus" Washington. Almost everyone played percussion. Gris-Gris sounds like a post-midnight ceremony recorded in the bayou swamp instead of L.A.'s Gold Star Studio where Phil Spector cut hits. The atmosphere is thick, smoky, serpentine, foreboding. Rebennack inhabits his character fully, delivering Creole French and slang English effortlessly in the grain of his half-spoken, half-sung voice. He is high priest and trickster, capable of blessing, cursing, and conning. On the opening incantation "Gris-Gris Gumbo Ya Ya," Dr. John introduces himself as the "night tripper" and boasts of his medicinal abilities accompanied by wafting reverbed mandolins, hand drums, a bubbling bassline, blues harmonica, skeletal electric guitar, and a swaying backing chorus that blurs the line between gospel and soul. On "Danse Kalinda Boom," a calliope-sounding organ, Middle Eastern flute, Spanish-tinged guitars, bells, claves, congas, and drums fuel a wordless chorus in four-part chant harmony as a drum orgy evokes ceremonial rites. The sound of NOLA R&B comes to the fore in the killer soul groove of the breezy "Mama Roux." "Croker Courtboullion" is an exercise in vanguard jazz. Spectral voices, electric guitars, animal cries, flute, and moody saxophone solos and percussion drift in and out of the spacy mix. The set's masterpiece is saved for last, the nearly nearly eight-minute trance vamp in "I Walk on Gilded Splinters" (covered by everyone from Humble Pie, Cher, and Johnny Jenkins to Paul Weller and Papa Mali). Dr. John is brazen about the power of his spells in a slippery, evil-sounding boast. Congas, tom-toms, snaky guitar, and harmonica underscore his juju, while a backing chorus affirms his power like mambo priestesses in unison. A ghostly baritone saxophone wafts through the turnarounds. Droning blues, steamy funk, and loopy R&B are inseparably entwined in its groove. Remarkably, though rightfully considered a psychedelic masterpiece, there is little rock music on Gris-Gris. Its real achievement – besides being a classic collection of startlingly deep tunes – is that it brought New Orleans' cultural iconographies and musical traits to the attention of an emergent rock audience.

Thom Jurek, Allmusic.com

Tracklist:

01. Gris-Gris Gumbo Ya Ya (5:38)
02. Danse Kalinda Ba Doom (3:46)
03. Mama Roux (3:01)
04. Danse Fambeaux (4:58)
05. Croker Courtbullion (6:01)
06. Jump Sturdy (2:23)
07. I Walk On Guilded Splinters (7:40)


Exact Audio Copy V1.0 beta 6 from 9. April 2015

EAC extraction logfile from 16. October 2017, 15:22

Dr. John / Gris -Gris

Used drive : PLEXTOR DVDR PX-891SA Adapter: 0 ID: 2

Read mode : Secure
Utilize accurate stream : Yes
Defeat audio cache : Yes
Make use of C2 pointers : No

Read offset correction : 6
Overread into Lead-In and Lead-Out : No
Fill up missing offset samples with silence : Yes
Delete leading and trailing silent blocks : No
Null samples used in CRC calculations : Yes
Used interface : Installed external ASPI interface

Used output format : User Defined Encoder
Selected bitrate : 320 kBit/s
Quality : High
Add ID3 tag : No
Command line compressor : C:\Program Files\Exact Audio Copy 1.b6\Exact Audio Copy\Flac\flac.exe
Additional command line options : -V -8 -T "Genre=%genre%" -T "Artist=%artist%" -T "Title=%title%" -T "Album=%albumtitle%" -T "Date=%year%" -T "Tracknumber=%tracknr%" -T "Comment=%comment%" %source%


TOC of the extracted CD

Track | Start | Length | Start sector | End sector
––––––––––––––––––––––––––––-
1 | 0:00.00 | 5:38.03 | 0 | 25352
2 | 5:38.03 | 3:46.06 | 25353 | 42308
3 | 9:24.09 | 3:00.56 | 42309 | 55864
4 | 12:24.65 | 4:57.69 | 55865 | 78208
5 | 17:22.59 | 6:01.31 | 78209 | 105314
6 | 23:24.15 | 2:23.13 | 105315 | 116052
7 | 25:47.28 | 7:39.54 | 116053 | 150531


Range status and errors

Selected range

Filename L:\Audio\SWF\Dr. John\The ATCO Album Collection (2017 Rhino Entertainment Company, 081227933876, E.U.)\1968. Gris-Gris\Dr. John - Gris -Gris.wav

Peak level 98.9 %
Extraction speed 7.3 X
Range quality 100.0 %
Test CRC 7478F637
Copy CRC 7478F637
Copy OK

No errors occurred


AccurateRip summary

Track 1 accurately ripped (confidence 2) [5323CA00] (AR v2)
Track 2 accurately ripped (confidence 2) [504C58DD] (AR v2)
Track 3 accurately ripped (confidence 2) [4020FEF1] (AR v2)
Track 4 accurately ripped (confidence 2) [6DC2CA25] (AR v2)
Track 5 accurately ripped (confidence 2) [DF3A686F] (AR v2)
Track 6 accurately ripped (confidence 2) [3D4B2CA4] (AR v2)
Track 7 accurately ripped (confidence 2) [06962779] (AR v2)

All tracks accurately ripped

End of status report

–– CUETools DB Plugin V2.1.6

[CTDB TOCID: HmNGW9WV9Fm1XItCmSiZQJ2kAPo-] found
Submit result: HmNGW9WV9Fm1XItCmSiZQJ2kAPo- has been confirmed
Track | CTDB Status
1 | (2/2) Accurately ripped
2 | (2/2) Accurately ripped
3 | (2/2) Accurately ripped
4 | (2/2) Accurately ripped
5 | (2/2) Accurately ripped
6 | (2/2) Accurately ripped
7 | (2/2) Accurately ripped


==== Log checksum DBE03B913793C4F2A55170782E6E96D3CEDF96A3805FEECE416DC151F7923876 ====

[CUETools log; Date: 29.12.2017 0:59:45; Version: 2.1.4]
[CTDB TOCID: HmNGW9WV9Fm1XItCmSiZQJ2kAPo-] found.
Track | CTDB Status
1 | (8/8) Accurately ripped
2 | (8/8) Accurately ripped
3 | (8/8) Accurately ripped
4 | (8/8) Accurately ripped
5 | (8/8) Accurately ripped
6 | (8/8) Accurately ripped
7 | (8/8) Accurately ripped
[AccurateRip ID: 0008c0c4-00348010-5207d707] found.
Track [ CRC | V2 ] Status
01 [82618a3c|5323ca00] (0+2/2) Accurately ripped
02 [49090726|504c58dd] (0+2/2) Accurately ripped
03 [aadfdf5e|4020fef1] (0+2/2) Accurately ripped
04 [bde78f57|6dc2ca25] (0+2/2) Accurately ripped
05 [f3d771bd|df3a686f] (0+2/2) Accurately ripped
06 [c8cd2e93|3d4b2ca4] (0+2/2) Accurately ripped
07 [5df25184|06962779] (0+2/2) Accurately ripped

Track Peak [ CRC32 ] [W/O NULL] [ LOG ]
– 98,9 [7478F637] [701D7970] CRC32
01 97,6 [57C09A8E] [8AA5331A]
02 98,7 [C90AD68E] [BD99B235]
03 98,6 [F1C84FA7] [789A24D5]
04 96,6 [876F783E] [694CF962]
05 95,0 [4336A709] [FB440343]
06 96,6 [F6481EE3] [D0237FF5]
07 98,9 [750D7CB6] [93CDABDE]

foobar2000 1.2 / Dynamic Range Meter 1.1.1
log date: 2017-12-29 01:01:25

––––––––––––––––––––––––––––––––––––––––
Analyzed: Dr. John / Gris -Gris
––––––––––––––––––––––––––––––––––––––––

DR Peak RMS Duration Track
––––––––––––––––––––––––––––––––––––––––
DR12 -0.21 dB -15.71 dB 5:38 01-Gris-Gris Gumbo Ya Ya
DR13 -0.11 dB -15.39 dB 3:46 02-Danse Kalinda Ba Doom
DR12 -0.11 dB -14.21 dB 3:01 03-Mama Roux
DR14 -0.29 dB -17.74 dB 4:58 04-Danse Fambeaux
DR12 -0.44 dB -14.80 dB 6:01 05-Croker Courtbullion
DR13 -0.30 dB -14.12 dB 2:23 06-Jump Sturdy
DR14 -0.09 dB -16.59 dB 7:40 07-I Walk On Guilded Splinters
––––––––––––––––––––––––––––––––––––––––

Number of tracks: 7
Official DR value: DR13

Samplerate: 44100 Hz
Channels: 2
Bits per sample: 16
Bitrate: 770 kbps
Codec: FLAC
================================================================================




Dr. John - The ATCO Albums Collection 1968-1974 (2017) Remastered 7CD Box Set

Dr. John - Babylon (1969)
EAC | FLAC | Image (Cue&Log) ~ 261 Mb | Mp3 (CBR320) ~ 129 Mb | 00:37:20 | Scans included

Dr. John's ambition remained undiminished on his second solo album, Babylon, released shortly after the groundbreaking voodoo-psychedelia-New Orleans R&B fusion of his debut, Gris-Gris. The results, however, were not nearly as consistent or impressive. Coolly received by critics, the album nonetheless is deserving of attention, though it pales a bit in comparison with Gris-Gris. The production is sparser and more reliant on female backup vocals than his debut. Dr. John remains intent on fusing voodoo and R&B, but the mood is oddly bleak and despairing, in comparison with the wild Mardi Gras-gone-amok tone of his first LP. The hushed, damned atmosphere and after-hours R&B sound a bit like Van Morrison on a bummer trip at times, as peculiar as that might seem. "The Patriotic Flag-Waiver" (sic), in keeping with the mood of the late '60s, damns social ills and hypocrisy of all sorts. An FM underground radio favorite at the time, its ambitious structure remains admirable, though its musical imperfections haven't worn well. To a degree, you could say the same about the album as a whole. But it has enough of an eerie fascination to merit investigation.

Richie Unterberger, Allmusic.com

Tracklist:

01. Babylon (5:25)
02. Glowin' (5:40)
03. Black Widow Spider (4:15)
04. Barefoot Lady (3:11)
05. Twilight Zone (8:17)
06. The Patriotic Flag-Waver (4:57)
07. The Lonesome Guitar Strangler (5:36)


Exact Audio Copy V1.0 beta 6 from 9. April 2015

EAC extraction logfile from 16. October 2017, 15:39

Dr. John / Babylon

Used drive : PLEXTOR DVDR PX-891SA Adapter: 0 ID: 2

Read mode : Secure
Utilize accurate stream : Yes
Defeat audio cache : Yes
Make use of C2 pointers : No

Read offset correction : 6
Overread into Lead-In and Lead-Out : No
Fill up missing offset samples with silence : Yes
Delete leading and trailing silent blocks : No
Null samples used in CRC calculations : Yes
Used interface : Installed external ASPI interface

Used output format : User Defined Encoder
Selected bitrate : 320 kBit/s
Quality : High
Add ID3 tag : No
Command line compressor : C:\Program Files\Exact Audio Copy 1.b6\Exact Audio Copy\Flac\flac.exe
Additional command line options : -V -8 -T "Genre=%genre%" -T "Artist=%artist%" -T "Title=%title%" -T "Album=%albumtitle%" -T "Date=%year%" -T "Tracknumber=%tracknr%" -T "Comment=%comment%" %source%


TOC of the extracted CD

Track | Start | Length | Start sector | End sector
––––––––––––––––––––––––––––-
1 | 0:00.00 | 5:24.44 | 0 | 24343
2 | 5:24.44 | 5:39.66 | 24344 | 49834
3 | 11:04.35 | 4:14.59 | 49835 | 68943
4 | 15:19.19 | 3:10.49 | 68944 | 83242
5 | 18:29.68 | 8:17.07 | 83243 | 120524
6 | 26:47.00 | 4:56.44 | 120525 | 142768
7 | 31:43.44 | 5:35.69 | 142769 | 167962


Range status and errors

Selected range

Filename L:\Audio\SWF\Dr. John\The ATCO Album Collection (2017 Rhino Entertainment Company, 081227933876, E.U.)\1969. Babylon\Dr. John - Babylon.wav

Peak level 95.8 %
Extraction speed 7.2 X
Range quality 100.0 %
Test CRC 54AEE212
Copy CRC 54AEE212
Copy OK

No errors occurred


AccurateRip summary

Track 1 accurately ripped (confidence 2) [655E9D50] (AR v2)
Track 2 accurately ripped (confidence 2) [95359926] (AR v2)
Track 3 accurately ripped (confidence 2) [271D686D] (AR v2)
Track 4 accurately ripped (confidence 2) [6D490BB8] (AR v2)
Track 5 accurately ripped (confidence 2) [1AF5E997] (AR v2)
Track 6 accurately ripped (confidence 2) [6988A610] (AR v2)
Track 7 accurately ripped (confidence 2) [7D6313EE] (AR v2)

All tracks accurately ripped

End of status report

–– CUETools DB Plugin V2.1.6

[CTDB TOCID: W0zcHHurzjUu96wtzrGGWuTsg0A-] found
Submit result: W0zcHHurzjUu96wtzrGGWuTsg0A- has been confirmed
Track | CTDB Status
1 | (2/2) Accurately ripped
2 | (2/2) Accurately ripped
3 | (2/2) Accurately ripped
4 | (2/2) Accurately ripped
5 | (2/2) Accurately ripped
6 | (2/2) Accurately ripped
7 | (2/2) Accurately ripped


==== Log checksum 5D8AAB6D29EAC6300112FA8E7FCC4B8CB4F6FC98102714A9C0E67BF10E81612A ====

[CUETools log; Date: 29.12.2017 0:59:55; Version: 2.1.4]
[CTDB TOCID: W0zcHHurzjUu96wtzrGGWuTsg0A-] found.
Track | CTDB Status
1 | (7/7) Accurately ripped
2 | (7/7) Accurately ripped
3 | (7/7) Accurately ripped
4 | (7/7) Accurately ripped
5 | (7/7) Accurately ripped
6 | (7/7) Accurately ripped
7 | (7/7) Accurately ripped
[AccurateRip ID: 000a08d7-003c5ec6-4e08bf07] found.
Track [ CRC | V2 ] Status
01 [9ceef4a3|655e9d50] (0+2/2) Accurately ripped
02 [c5d038f9|95359926] (0+2/2) Accurately ripped
03 [6d507fc1|271d686d] (0+2/2) Accurately ripped
04 [b034a653|6d490bb8] (0+2/2) Accurately ripped
05 [09133425|1af5e997] (0+2/2) Accurately ripped
06 [c6a7264b|6988a610] (0+2/2) Accurately ripped
07 [d48858f1|7d6313ee] (0+2/2) Accurately ripped

Track Peak [ CRC32 ] [W/O NULL] [ LOG ]
– 95,8 [54AEE212] [672209F2] CRC32
01 82,5 [B13655AC] [D8696716]
02 72,0 [C9EBEF80] [4F098589]
03 78,1 [04DC3D96] [3BF2F198]
04 75,9 [6845D1BF] [38B93479]
05 86,3 [3F095D44] [AC8EC2BD]
06 95,8 [687F6210] [73B3B45C]
07 80,3 [829B7A01] [0C5D5AC2]

foobar2000 1.2 / Dynamic Range Meter 1.1.1
log date: 2017-12-29 01:01:39

––––––––––––––––––––––––––––––––––––––––
Analyzed: Dr. John / Babylon
––––––––––––––––––––––––––––––––––––––––

DR Peak RMS Duration Track
––––––––––––––––––––––––––––––––––––––––
DR12 -1.67 dB -16.11 dB 5:25 01-Babylon
DR12 -2.84 dB -16.71 dB 5:40 02-Glowin'
DR12 -2.15 dB -15.31 dB 4:15 03-Black Widow Spider
DR12 -2.39 dB -16.71 dB 3:11 04-Barefoot Lady
DR12 -1.28 dB -17.48 dB 8:17 05-Twilight Zone
DR13 -0.37 dB -15.99 dB 4:57 06-The Patriotic Flag-Waver
DR13 -1.90 dB -18.13 dB 5:36 07-The Lonesome Guitar Strangler
––––––––––––––––––––––––––––––––––––––––

Number of tracks: 7
Official DR value: DR12

Samplerate: 44100 Hz
Channels: 2
Bits per sample: 16
Bitrate: 816 kbps
Codec: FLAC
================================================================================




Dr. John - The ATCO Albums Collection 1968-1974 (2017) Remastered 7CD Box Set

Dr. John - Remedies (1970)
EAC | FLAC | Image (Cue&Log) ~ 281 Mb | Mp3 (CBR320) ~ 115 Mb | 00:40:44 | Scans included

Remedies is not rock and roll, it is something nearly otherworldly, and almost beyond comprehension. While it includes such standout Dr. John tracks as "Wash Mama Wash" and "Loop Garoo," it also includes "Angola Anthem," which is murky, mysterious and downright evil-sounding. Much of this very long cut is lost without headphones, for the music floats about in a smoky fog while Dr. John and his backup singers chant, moan, and cry out. Progressive radio loved this stuff, and it still sounds great during those late-night flirtations with the dark side of the psyche. Remedies must be heard to be believed.

James Chrispell, Allmusic.com

Tracklist:

01. Loop Garoo (4:42)
02. What Goes Around (Comes Around) (2:58)
03. Wash, Mama, Wash (3:43)
04. Chippy, Chippy (3:33)
05. Mardi Gras Day (8:10)
06. Angola Anthem (17:38)


Exact Audio Copy V1.0 beta 6 from 9. April 2015

EAC extraction logfile from 16. October 2017, 18:38

Dr. John / Remedies

Used drive : PLEXTOR DVDR PX-891SA Adapter: 0 ID: 2

Read mode : Secure
Utilize accurate stream : Yes
Defeat audio cache : Yes
Make use of C2 pointers : No

Read offset correction : 6
Overread into Lead-In and Lead-Out : No
Fill up missing offset samples with silence : Yes
Delete leading and trailing silent blocks : No
Null samples used in CRC calculations : Yes
Used interface : Installed external ASPI interface

Used output format : User Defined Encoder
Selected bitrate : 320 kBit/s
Quality : High
Add ID3 tag : No
Command line compressor : C:\Program Files\Exact Audio Copy 1.b6\Exact Audio Copy\Flac\flac.exe
Additional command line options : -V -8 -T "Genre=%genre%" -T "Artist=%artist%" -T "Title=%title%" -T "Album=%albumtitle%" -T "Date=%year%" -T "Tracknumber=%tracknr%" -T "Comment=%comment%" %source%


TOC of the extracted CD

Track | Start | Length | Start sector | End sector
––––––––––––––––––––––––––––-
1 | 0:00.00 | 4:42.28 | 0 | 21177
2 | 4:42.28 | 2:58.07 | 21178 | 34534
3 | 7:40.35 | 3:42.45 | 34535 | 51229
4 | 11:23.05 | 3:32.66 | 51230 | 67195
5 | 14:55.71 | 8:10.14 | 67196 | 103959
6 | 23:06.10 | 17:38.12 | 103960 | 183321


Range status and errors

Selected range

Filename L:\Audio\SWF\Dr. John\The ATCO Album Collection (2017 Rhino Entertainment Company, 081227933876, E.U.)\1970. Remedies\Dr. John - Remedies.wav

Peak level 99.3 %
Extraction speed 7.3 X
Range quality 100.0 %
Test CRC 490C3AB0
Copy CRC 490C3AB0
Copy OK

No errors occurred


AccurateRip summary

Track 1 accurately ripped (confidence 2) [3B1C4B02] (AR v2)
Track 2 accurately ripped (confidence 2) [5B5AED05] (AR v2)
Track 3 accurately ripped (confidence 2) [2C81B494] (AR v2)
Track 4 accurately ripped (confidence 2) [42D50560] (AR v2)
Track 5 accurately ripped (confidence 2) [51F77009] (AR v2)
Track 6 accurately ripped (confidence 2) [1D4C4E54] (AR v2)

All tracks accurately ripped

End of status report

–– CUETools DB Plugin V2.1.6

[CTDB TOCID: OlWQ10FUuIl1C0dxcDaKAB.qvJY-] found
Submit result: OlWQ10FUuIl1C0dxcDaKAB.qvJY- has been confirmed
Track | CTDB Status
1 | (2/2) Accurately ripped
2 | (2/2) Accurately ripped
3 | (2/2) Accurately ripped
4 | (2/2) Accurately ripped
5 | (2/2) Accurately ripped
6 | (2/2) Accurately ripped


==== Log checksum 95BE65FA3369292AE8BCCD22EBBE29A78791C66A5E52A407030B712521533D82 ====

[CUETools log; Date: 29.12.2017 1:00:07; Version: 2.1.4]
[CTDB TOCID: OlWQ10FUuIl1C0dxcDaKAB.qvJY-] found.
Track | CTDB Status
1 | (8/8) Accurately ripped
2 | (8/8) Accurately ripped
3 | (8/8) Accurately ripped
4 | (8/8) Accurately ripped
5 | (8/8) Accurately ripped
6 | (8/8) Accurately ripped
[AccurateRip ID: 00070a6d-00279454-5b098c06] found.
Track [ CRC | V2 ] Status
01 [47af1946|3b1c4b02] (0+2/2) Accurately ripped
02 [ccc7f3ba|5b5aed05] (0+2/2) Accurately ripped
03 [fd986918|2c81b494] (0+2/2) Accurately ripped
04 [a59c1842|42d50560] (0+2/2) Accurately ripped
05 [0731f8d7|51f77009] (0+2/2) Accurately ripped
06 [e44e6b54|1d4c4e54] (0+2/2) Accurately ripped

Track Peak [ CRC32 ] [W/O NULL] [ LOG ]
– 99,3 [490C3AB0] [CC4E745F] CRC32
01 99,0 [A35696F6] [7A42065A]
02 98,8 [856D0A45] [1724AC9C]
03 98,9 [1598FAF9] [C4827B8A]
04 90,6 [B3EBB941] [C05946AC]
05 98,9 [A4E542F5] [42150B34]
06 99,3 [E51C8A49] [938BD6D5]

foobar2000 1.2 / Dynamic Range Meter 1.1.1
log date: 2017-12-29 01:01:55

––––––––––––––––––––––––––––––––––––––––
Analyzed: Dr. John / Remedies
––––––––––––––––––––––––––––––––––––––––

DR Peak RMS Duration Track
––––––––––––––––––––––––––––––––––––––––
DR12 -0.08 dB -13.91 dB 4:42 01-Loop Garoo
DR11 -0.10 dB -14.15 dB 2:58 02-What Goes Around (Comes Around)
DR12 -0.09 dB -14.35 dB 3:43 03-Wash, Mama, Wash
DR12 -0.85 dB -15.30 dB 3:33 04-Chippy, Chippy
DR12 -0.09 dB -15.07 dB 8:10 05-Mardi Gras Day
DR13 -0.06 dB -16.29 dB 17:38 06-Angola Anthem
––––––––––––––––––––––––––––––––––––––––

Number of tracks: 6
Official DR value: DR12

Samplerate: 44100 Hz
Channels: 2
Bits per sample: 16
Bitrate: 891 kbps
Codec: FLAC
================================================================================




Dr. John - The ATCO Albums Collection 1968-1974 (2017) Remastered 7CD Box Set

Dr. John - The Sun Moon & Herbs (1971)
EAC | FLAC | Image (Cue&Log) ~ 287 Mb | Mp3 (CBR320) ~ 144 Mb | 00:39:26 | Scans included

Originally intended as a triple album, The Sun, Moon & Herbs was chopped up, whittled down and re-assembled into this single-disc release, and while Dr. John never liked this version much, perhaps the single disc is testament to the "less is more" theory. The seven cuts are all quite lengthy and the spells Dr. John and his consorts weave are dark and swampy. "Black John the Conqueror" comes from old Cajun folklore which the good Dr. has modernized and given a beat. The swampy "Craney Crow" is the younger sibling of his earlier "Walk On Guilded Splinters" and has a similar effect on the listener. "Pots on Fiyo (Fils Gumbo)" combines Latin American rhythms with lots of Cajun chants and spells. The vocals are nearly incomprehensible and actually serve as another instrument in the mix. "Zu Zu Mamou" is so thick that you can almost cut the music with a knife. Here, the atmosphere takes on a whole other meaning altogether. The Sun, Moon & Herbs is best listened to on a hot, muggy night with the sound of thunder rumbling off in the distance like jungle drums. Dr. John was definitely onto something here, but just what is left up to the listener.

James Chrispell, Allmusic.com

Tracklist:

01. Black John The Conqueror (6:24)
02. Where Ya At Mule (4:59)
03. Craney Crow (6:43)
04. Familiar Reality (Opening) (5:32)
05. Pots On Fiyo (File Gumbo) - Who I Got To Fall On (If The Pot Get Heavy) (5:53)
06. Zu Zu Mamou (8:03)
07. Familiar Reality (Reprise) (1:52)


Exact Audio Copy V1.0 beta 6 from 9. April 2015

EAC extraction logfile from 16. October 2017, 18:57

Dr. John / The Sun Moon & Herbs

Used drive : PLEXTOR DVDR PX-891SA Adapter: 0 ID: 2

Read mode : Secure
Utilize accurate stream : Yes
Defeat audio cache : Yes
Make use of C2 pointers : No

Read offset correction : 6
Overread into Lead-In and Lead-Out : No
Fill up missing offset samples with silence : Yes
Delete leading and trailing silent blocks : No
Null samples used in CRC calculations : Yes
Used interface : Installed external ASPI interface

Used output format : User Defined Encoder
Selected bitrate : 320 kBit/s
Quality : High
Add ID3 tag : No
Command line compressor : C:\Program Files\Exact Audio Copy 1.b6\Exact Audio Copy\Flac\flac.exe
Additional command line options : -V -8 -T "Genre=%genre%" -T "Artist=%artist%" -T "Title=%title%" -T "Album=%albumtitle%" -T "Date=%year%" -T "Tracknumber=%tracknr%" -T "Comment=%comment%" %source%


TOC of the extracted CD

Track | Start | Length | Start sector | End sector
––––––––––––––––––––––––––––-
1 | 0:00.00 | 6:23.64 | 0 | 28788
2 | 6:23.64 | 4:58.49 | 28789 | 51187
3 | 11:22.38 | 6:43.18 | 51188 | 81430
4 | 18:05.56 | 5:31.72 | 81431 | 106327
5 | 23:37.53 | 5:52.51 | 106328 | 132778
6 | 29:30.29 | 8:03.34 | 132779 | 169037
7 | 37:33.63 | 1:51.65 | 169038 | 177427


Range status and errors

Selected range

Filename L:\Audio\SWF\Dr. John\The ATCO Album Collection (2017 Rhino Entertainment Company, 081227933876, E.U.)\1971. The Sun, Moon & Herbs\Dr. John - The Sun Moon & Herbs.wav

Peak level 99.9 %
Extraction speed 7.3 X
Range quality 100.0 %
Test CRC 3036BA0C
Copy CRC 3036BA0C
Copy OK

No errors occurred


AccurateRip summary

Track 1 accurately ripped (confidence 2) [56E7DA47] (AR v2)
Track 2 accurately ripped (confidence 2) [BC4D4823] (AR v2)
Track 3 accurately ripped (confidence 2) [ACC66F6C] (AR v2)
Track 4 accurately ripped (confidence 2) [64C4F719] (AR v2)
Track 5 accurately ripped (confidence 2) [4769A926] (AR v2)
Track 6 accurately ripped (confidence 2) [14BE663B] (AR v2)
Track 7 accurately ripped (confidence 2) [F790F23E] (AR v2)

All tracks accurately ripped

End of status report

–– CUETools DB Plugin V2.1.6

[CTDB TOCID: iP8dxCYKP4xHEFVzZMw.VJBs9i8-] found
Submit result: iP8dxCYKP4xHEFVzZMw.VJBs9i8- has been confirmed
Track | CTDB Status
1 | (2/2) Accurately ripped
2 | (2/2) Accurately ripped
3 | (2/2) Accurately ripped
4 | (2/2) Accurately ripped
5 | (2/2) Accurately ripped
6 | (2/2) Accurately ripped
7 | (2/2) Accurately ripped


==== Log checksum 37634628A44C49AC394C2AD17942BA53D712953B117F6556E005F1F379671D2E ====

[CUETools log; Date: 29.12.2017 1:00:18; Version: 2.1.4]
[CTDB TOCID: iP8dxCYKP4xHEFVzZMw.VJBs9i8-] found.
Track | CTDB Status
1 | (8/8) Accurately ripped
2 | (8/8) Accurately ripped
3 | (8/8) Accurately ripped
4 | (8/8) Accurately ripped
5 | (8/8) Accurately ripped
6 | (8/8) Accurately ripped
7 | (8/8) Accurately ripped
[AccurateRip ID: 000b65e5-00442c9f-62093d07] found.
Track [ CRC | V2 ] Status
01 [452b6c1e|56e7da47] (0+2/2) Accurately ripped
02 [fc9c0e31|bc4d4823] (0+2/2) Accurately ripped
03 [14e39fce|acc66f6c] (0+2/2) Accurately ripped
04 [95a59576|64c4f719] (0+2/2) Accurately ripped
05 [d59bb322|4769a926] (0+2/2) Accurately ripped
06 [7a14f907|14be663b] (0+2/2) Accurately ripped
07 [324b2872|f790f23e] (0+2/2) Accurately ripped

Track Peak [ CRC32 ] [W/O NULL] [ LOG ]
– 99,9 [3036BA0C] [08B3E50B] CRC32
01 99,0 [C21C92A1] [B738657C]
02 99,2 [A09CACBA] [4EE9342F]
03 81,8 [0F72C3E2] [497E9D2E]
04 99,0 [99C855BB] [8873825E]
05 99,0 [79238B48] [19FCC4BA]
06 99,0 [E8917637] [80F21CAF]
07 99,9 [20B13E05] [5DE3A6F4]

foobar2000 1.2 / Dynamic Range Meter 1.1.1
log date: 2017-12-29 01:02:50

––––––––––––––––––––––––––––––––––––––––
Analyzed: Dr. John / The Sun Moon & Herbs
––––––––––––––––––––––––––––––––––––––––

DR Peak RMS Duration Track
––––––––––––––––––––––––––––––––––––––––
DR11 -0.09 dB -13.54 dB 6:24 01-Black John The Conqueror
DR11 -0.06 dB -12.51 dB 4:59 02-Where Ya At Mule
DR11 -1.74 dB -15.61 dB 6:43 03-Craney Crow
DR12 -0.08 dB -14.02 dB 5:32 04-Familiar Reality (Opening)
DR12 -0.08 dB -14.61 dB 5:53 05-Pots On Fiyo (File Gumbo) - Who I Got To Fall On (If The Pot Get Heavy)
DR15 -0.08 dB -18.67 dB 8:03 06-Zu Zu Mamou
DR11 -0.01 dB -15.93 dB 1:52 07-Familiar Reality (Reprise)
––––––––––––––––––––––––––––––––––––––––

Number of tracks: 7
Official DR value: DR12

Samplerate: 44100 Hz
Channels: 2
Bits per sample: 16
Bitrate: 827 kbps
Codec: FLAC
================================================================================




Dr. John - The ATCO Albums Collection 1968-1974 (2017) Remastered 7CD Box Set

Dr. John - Dr. John's Gumbo (1972)
EAC | FLAC | Image (Cue&Log) ~ 292 Mb | Mp3 (CBR320) ~ 143 Mb | 00:39:50 | Scans included

Dr. John's Gumbo bridged the gap between post-hippie rock and early rock & roll, blues, and R&B, offering a selection of classic New Orleans R&B, including "Tipitina" and "Junko Partner," updated with a gritty, funky beat. There aren't as many psychedelic flourishes as there were on his first two albums, but the ones that are present enhance his sweeping vision of American roots music. And that sly fusion of styles makes Dr. John's Gumbo one of Dr. John's finest albums.

Stephen Thomas Erlewine, Allmusic.com

Tracklist:

01. Iko Iko (4:15)
02. Blow Wind Blow (3:14)
03. Big Chief (3:26)
04. Somebody Changed The Lock (2:43)
05. Mess Around (3:13)
06. Let The Good Times Roll (3:57)
07. Junko Parrtner (4:29)
08. Stack-A-Lee (3:29)
09. Tipitina (2:09)
10. Those Lonely Lonley Nights (2:32)
11. Huey Smith Medley (3:18)
12. Little Liza Jane (3:03)


Exact Audio Copy V1.0 beta 6 from 9. April 2015

EAC extraction logfile from 16. October 2017, 19:31

Dr.John / Gumbo

Used drive : PLEXTOR DVDR PX-891SA Adapter: 0 ID: 2

Read mode : Secure
Utilize accurate stream : Yes
Defeat audio cache : Yes
Make use of C2 pointers : No

Read offset correction : 6
Overread into Lead-In and Lead-Out : No
Fill up missing offset samples with silence : Yes
Delete leading and trailing silent blocks : No
Null samples used in CRC calculations : Yes
Used interface : Installed external ASPI interface

Used output format : User Defined Encoder
Selected bitrate : 320 kBit/s
Quality : High
Add ID3 tag : No
Command line compressor : C:\Program Files\Exact Audio Copy 1.b6\Exact Audio Copy\Flac\flac.exe
Additional command line options : -V -8 -T "Genre=%genre%" -T "Artist=%artist%" -T "Title=%title%" -T "Album=%albumtitle%" -T "Date=%year%" -T "Tracknumber=%tracknr%" -T "Comment=%comment%" %source%


TOC of the extracted CD

Track | Start | Length | Start sector | End sector
––––––––––––––––––––––––––––-
1 | 0:00.00 | 4:14.57 | 0 | 19106
2 | 4:14.57 | 3:14.33 | 19107 | 33689
3 | 7:29.15 | 3:25.71 | 33690 | 49135
4 | 10:55.11 | 2:43.37 | 49136 | 61397
5 | 13:38.48 | 3:12.73 | 61398 | 75870
6 | 16:51.46 | 3:57.33 | 75871 | 93678
7 | 20:49.04 | 4:29.31 | 93679 | 113884
8 | 25:18.35 | 3:29.12 | 113885 | 129571
9 | 28:47.47 | 2:09.21 | 129572 | 139267
10 | 30:56.68 | 2:32.05 | 139268 | 150672
11 | 33:28.73 | 3:18.36 | 150673 | 165558
12 | 36:47.34 | 3:02.44 | 165559 | 179252


Range status and errors

Selected range

Filename L:\Audio\SWF\Dr. John\The ATCO Album Collection (2017 Rhino Entertainment Company, 081227933876, E.U.)\1972. Gumbo\Dr.John - Gumbo.wav

Peak level 99.1 %
Extraction speed 2.8 X
Range quality 100.0 %
Test CRC 838E12D8
Copy CRC 838E12D8
Copy OK

No errors occurred


AccurateRip summary

Track 1 accurately ripped (confidence 2) [2C7E2546] (AR v2)
Track 2 accurately ripped (confidence 2) [F940FA12] (AR v2)
Track 3 accurately ripped (confidence 2) [B6AD82EC] (AR v2)
Track 4 accurately ripped (confidence 2) [6B0338F4] (AR v2)
Track 5 accurately ripped (confidence 2) [96F9939B] (AR v2)
Track 6 accurately ripped (confidence 2) [E49F26FE] (AR v2)
Track 7 accurately ripped (confidence 2) [05B384D1] (AR v2)
Track 8 accurately ripped (confidence 2) [4191199E] (AR v2)
Track 9 accurately ripped (confidence 2) [C41B8FC4] (AR v2)
Track 10 accurately ripped (confidence 2) [61D502A4] (AR v2)
Track 11 accurately ripped (confidence 2) [1D0526A6] (AR v2)
Track 12 accurately ripped (confidence 2) [0426135F] (AR v2)

All tracks accurately ripped

End of status report

–– CUETools DB Plugin V2.1.6

[CTDB TOCID: hEevc.GmOJnT4yKSCQlfcbPpY98-] found
Submit result: hEevc.GmOJnT4yKSCQlfcbPpY98- has been confirmed
Track | CTDB Status
1 | (2/2) Accurately ripped
2 | (2/2) Accurately ripped
3 | (2/2) Accurately ripped
4 | (2/2) Accurately ripped
5 | (2/2) Accurately ripped
6 | (2/2) Accurately ripped
7 | (2/2) Accurately ripped
8 | (2/2) Accurately ripped
9 | (2/2) Accurately ripped
10 | (2/2) Accurately ripped
11 | (2/2) Accurately ripped
12 | (2/2) Accurately ripped


==== Log checksum 0E9783E21BAF5E894E86D91BF172453CF197F10F246F0003A0374D93B0DB4509 ====

[CUETools log; Date: 29.12.2017 1:00:28; Version: 2.1.4]
[CTDB TOCID: hEevc.GmOJnT4yKSCQlfcbPpY98-] found.
Track | CTDB Status
1 | (7/7) Accurately ripped
2 | (7/7) Accurately ripped
3 | (7/7) Accurately ripped
4 | (7/7) Accurately ripped
5 | (7/7) Accurately ripped
6 | (7/7) Accurately ripped
7 | (7/7) Accurately ripped
8 | (7/7) Accurately ripped
9 | (7/7) Accurately ripped
10 | (7/7) Accurately ripped
11 | (7/7) Accurately ripped
12 | (7/7) Accurately ripped
[AccurateRip ID: 00127ad3-00aade9a-8409560c] found.
Track [ CRC | V2 ] Status
01 [9a11e6b9|2c7e2546] (0+2/2) Accurately ripped
02 [87b3e3ed|f940fa12] (0+2/2) Accurately ripped
03 [a94520ce|b6ad82ec] (0+2/2) Accurately ripped
04 [4c27f405|6b0338f4] (0+2/2) Accurately ripped
05 [abb10bac|96f9939b] (0+2/2) Accurately ripped
06 [d68dad1d|e49f26fe] (0+2/2) Accurately ripped
07 [47be5380|05b384d1] (0+2/2) Accurately ripped
08 [2034557a|4191199e] (0+2/2) Accurately ripped
09 [38692d8a|c41b8fc4] (0+2/2) Accurately ripped
10 [fb5877c4|61d502a4] (0+2/2) Accurately ripped
11 [daafaec0|1d0526a6] (0+2/2) Accurately ripped
12 [ebce4ef0|0426135f] (0+2/2) Accurately ripped

Track Peak [ CRC32 ] [W/O NULL] [ LOG ]
– 99,1 [838E12D8] [12D516B5] CRC32
01 98,4 [2414DC0D] [542308E6]
02 98,9 [3DC51A3D] [0D14AD67]
03 98,4 [6CDA7E0C] [18251BD4]
04 99,1 [80BF53EA] [D155EDAB]
05 98,9 [C7470A9D] [F1B8F6B6]
06 99,0 [7F98A7DC] [FC3B690D]
07 98,6 [16101892] [BCD6293E]
08 87,5 [C886FD2A] [19827486]
09 86,3 [0CCF9D76] [43538FC3]
10 87,9 [F89DE16F] [B0665E96]
11 97,1 [04CAB50E] [C61C9497]
12 98,8 [0F30F092] [EA8DB3F3]

foobar2000 1.2 / Dynamic Range Meter 1.1.1
log date: 2017-12-29 01:03:32

––––––––––––––––––––––––––––––––––––––––
Analyzed: Dr.John / Gumbo
––––––––––––––––––––––––––––––––––––––––

DR Peak RMS Duration Track
––––––––––––––––––––––––––––––––––––––––
DR13 -0.13 dB -15.17 dB 4:15 01-Iko Iko
DR12 -0.09 dB -13.55 dB 3:14 02-Blow Wind Blow
DR13 -0.14 dB -15.23 dB 3:26 03-Big Chief
DR13 -0.07 dB -15.75 dB 2:43 04-Somebody Changed The Lock
DR12 -0.10 dB -13.54 dB 3:13 05-Mess Around
DR11 -0.08 dB -14.97 dB 3:57 06-Let The Good Times Roll
DR12 -0.12 dB -14.43 dB 4:29 07-Junko Parrtner
DR12 -1.16 dB -15.96 dB 3:29 08-Stack-A-Lee
DR11 -1.28 dB -15.92 dB 2:09 09-Tipitina
DR12 -1.12 dB -15.66 dB 2:32 10-Those Lonely Lonley Nights
DR13 -0.25 dB -15.11 dB 3:18 11-Huey Smith Medley
DR12 -0.10 dB -14.38 dB 3:03 12-Little Liza Jane
––––––––––––––––––––––––––––––––––––––––

Number of tracks: 12
Official DR value: DR12

Samplerate: 44100 Hz
Channels: 2
Bits per sample: 16
Bitrate: 842 kbps
Codec: FLAC
================================================================================




Dr. John - The ATCO Albums Collection 1968-1974 (2017) Remastered 7CD Box Set

Dr. John - In The Right Place (1973)
EAC | FLAC | Image (Cue&Log) ~ 261 Mb | Mp3 (CBR320) ~ 137 Mb | 00:33:44 | Scans included

Dr. John finally struck paydirt here and was certainly In the Right Place. With the hit single "Right Place Wrong Time" bounding up the charts, this fine collection saw many unaware listeners being initiated into New Orleans-style rock. Also including Allen Toussaint's "Life," and a funky little number entitled "Traveling Mood," which shows off the good doctor's fine piano styling, and with able help from the Meters as backup group, In the Right Place is still a fine collection to own.

James Chrispell, Allmusic.com

Tracklist:

01. Right Place Wrong Time (2:55)
02. Same Old Same Old (2:43)
03. Just The Same (2:53)
04. Qualified (4:51)
05. Traveling Mood (2:52)
06. Peace Brother Peace (2:51)
07. Life (2:31)
08. Such A Night (2:57)
09. Shoo Fly Marches On (3:17)
10. I Been Hoodood (3:15)
11. Cold Cold Cold (2:39)


Exact Audio Copy V1.0 beta 6 from 9. April 2015

EAC extraction logfile from 17. October 2017, 20:50

Dr. John / In The Right Place

Used drive : PLEXTOR DVDR PX-891SA Adapter: 0 ID: 2

Read mode : Secure
Utilize accurate stream : Yes
Defeat audio cache : Yes
Make use of C2 pointers : No

Read offset correction : 6
Overread into Lead-In and Lead-Out : No
Fill up missing offset samples with silence : Yes
Delete leading and trailing silent blocks : No
Null samples used in CRC calculations : Yes
Used interface : Installed external ASPI interface

Used output format : User Defined Encoder
Selected bitrate : 320 kBit/s
Quality : High
Add ID3 tag : No
Command line compressor : C:\Program Files\Exact Audio Copy 1.b6\Exact Audio Copy\Flac\flac.exe
Additional command line options : -V -8 -T "Genre=%genre%" -T "Artist=%artist%" -T "Title=%title%" -T "Album=%albumtitle%" -T "Date=%year%" -T "Tracknumber=%tracknr%" -T "Comment=%comment%" %source%


TOC of the extracted CD

Track | Start | Length | Start sector | End sector
––––––––––––––––––––––––––––-
1 | 0:00.00 | 2:55.13 | 0 | 13137
2 | 2:55.13 | 2:43.06 | 13138 | 25368
3 | 5:38.19 | 2:53.11 | 25369 | 38354
4 | 8:31.30 | 4:50.45 | 38355 | 60149
5 | 13:22.00 | 2:51.63 | 60150 | 73037
6 | 16:13.63 | 2:50.41 | 73038 | 85828
7 | 19:04.29 | 2:30.59 | 85829 | 97137
8 | 21:35.13 | 2:57.37 | 97138 | 110449
9 | 24:32.50 | 3:17.16 | 110450 | 125240
10 | 27:49.66 | 3:14.51 | 125241 | 139841
11 | 31:04.42 | 2:39.18 | 139842 | 151784


Range status and errors

Selected range

Filename L:\Audio\SWF\Dr. John\The ATCO Album Collection (2017 Rhino Entertainment Company, 081227933876, E.U.)\1973. In The Right Place\Dr. John - In The Right Place.wav

Peak level 100.0 %
Extraction speed 2.7 X
Range quality 100.0 %
Test CRC E3296FB0
Copy CRC E3296FB0
Copy OK

No errors occurred


AccurateRip summary

Track 1 accurately ripped (confidence 2) [8C1762BC] (AR v2)
Track 2 accurately ripped (confidence 2) [CF2261B7] (AR v2)
Track 3 accurately ripped (confidence 2) [333202D0] (AR v2)
Track 4 accurately ripped (confidence 2) [2BFAE5F3] (AR v2)
Track 5 accurately ripped (confidence 2) [95E00892] (AR v2)
Track 6 accurately ripped (confidence 2) [EFEDE21F] (AR v2)
Track 7 accurately ripped (confidence 2) [99F3E37B] (AR v2)
Track 8 accurately ripped (confidence 2) [595292A1] (AR v2)
Track 9 accurately ripped (confidence 2) [A03D7FBA] (AR v2)
Track 10 accurately ripped (confidence 2) [F0785B02] (AR v2)
Track 11 accurately ripped (confidence 2) [A3C35C1D] (AR v2)

All tracks accurately ripped

End of status report

–– CUETools DB Plugin V2.1.6

[CTDB TOCID: qZB6E0lW_HgvL9bKHswGKm0KreE-] found
Submit result: qZB6E0lW_HgvL9bKHswGKm0KreE- has been confirmed
Track | CTDB Status
1 | (2/2) Accurately ripped
2 | (2/2) Accurately ripped
3 | (2/2) Accurately ripped
4 | (2/2) Accurately ripped
5 | (2/2) Accurately ripped
6 | (2/2) Accurately ripped
7 | (2/2) Accurately ripped
8 | (2/2) Accurately ripped
9 | (2/2) Accurately ripped
10 | (2/2) Accurately ripped
11 | (2/2) Accurately ripped


==== Log checksum 04190A8769D6CC4C80D23961260DE55FB717B8B9AA63EFADE5EB0FCA41062FF9 ====

[CUETools log; Date: 29.12.2017 1:00:38; Version: 2.1.4]
[CTDB TOCID: qZB6E0lW_HgvL9bKHswGKm0KreE-] found.
Track | CTDB Status
1 | (8/8) Accurately ripped
2 | (8/8) Accurately ripped
3 | (8/8) Accurately ripped
4 | (8/8) Accurately ripped
5 | (8/8) Accurately ripped
6 | (8/8) Accurately ripped
7 | (8/8) Accurately ripped
8 | (8/8) Accurately ripped
9 | (8/8) Accurately ripped
10 | (8/8) Accurately ripped
11 | (8/8) Accurately ripped
[AccurateRip ID: 000e0b0f-0079bf4f-9507e70b] found.
Track [ CRC | V2 ] Status
01 [4d0d6c04|8c1762bc] (0+2/2) Accurately ripped
02 [10d94a8a|cf2261b7] (0+2/2) Accurately ripped
03 [1be18cc6|333202d0] (0+2/2) Accurately ripped
04 [3d2ce978|2bfae5f3] (0+2/2) Accurately ripped
05 [56d59a78|95e00892] (0+2/2) Accurately ripped
06 [1665335d|efede21f] (0+2/2) Accurately ripped
07 [389aeed0|99f3e37b] (0+2/2) Accurately ripped
08 [0920ec23|595292a1] (0+2/2) Accurately ripped
09 [7158964c|a03d7fba] (0+2/2) Accurately ripped
10 [c3f3b741|f0785b02] (0+2/2) Accurately ripped
11 [4ac65025|a3c35c1d] (0+2/2) Accurately ripped

Track Peak [ CRC32 ] [W/O NULL] [ LOG ]
– 100,0 [E3296FB0] [61928747] CRC32
01 99,0 [29CFD847] [856CD83D]
02 90,1 [7C12AAD2] [BD21A03C]
03 93,3 [B01FF343] [0FD7B7F5]
04 100,0 [B53FEAF8] [A21A05B5]
05 99,0 [A3CAAE70] [3A462606]
06 98,9 [4F6B9ECD] [EA14FC6C]
07 98,8 [1FAB4225] [D4B439A3]
08 85,6 [37818E95] [386F401C]
09 98,7 [31DD8F68] [FD3176B7]
10 95,7 [20FFFFD6] [F1E23DFC]
11 96,4 [8FB91FE2] [6847679C]

foobar2000 1.2 / Dynamic Range Meter 1.1.1
log date: 2017-12-29 01:03:46

––––––––––––––––––––––––––––––––––––––––
Analyzed: Dr. John / In The Right Place
––––––––––––––––––––––––––––––––––––––––

DR Peak RMS Duration Track
––––––––––––––––––––––––––––––––––––––––
DR14 -0.08 dB -15.96 dB 2:55 01-Right Place Wrong Time
DR13 -0.90 dB -16.50 dB 2:43 02-Same Old Same Old
DR15 -0.59 dB -19.76 dB 2:53 03-Just The Same
DR13 0.00 dB -14.57 dB 4:51 04-Qualified
DR13 -0.08 dB -15.74 dB 2:52 05-Traveling Mood
DR13 -0.09 dB -15.23 dB 2:51 06-Peace Brother Peace
DR13 -0.10 dB -15.92 dB 2:31 07-Life
DR14 -1.35 dB -17.88 dB 2:57 08-Such A Night
DR13 -0.11 dB -15.39 dB 3:17 09-Shoo Fly Marches On
DR13 -0.38 dB -16.57 dB 3:15 10-I Been Hoodood
DR12 -0.31 dB -16.38 dB 2:39 11-Cold Cold Cold
––––––––––––––––––––––––––––––––––––––––

Number of tracks: 11
Official DR value: DR13

Samplerate: 44100 Hz
Channels: 2
Bits per sample: 16
Bitrate: 830 kbps
Codec: FLAC
================================================================================




Dr. John - The ATCO Albums Collection 1968-1974 (2017) Remastered 7CD Box Set

Dr. John - Desitively Bonnaroo (1974)
EAC | FLAC | Image (Cue&Log) ~ 236 Mb | Mp3 (CBR320) ~ 110 Mb | 00:37:16 | Scans included

When you latch onto a hit formula, don't mess with it, and that is just what the doctor ordered with Desitively Bonnaroo. With installment number three of Dr. John's funky New Orleans-styled rock & roll, trying to strike gold again proved elusive. There wasn't the big hit single this time around to help boost sales, and the tunes were starting to sound a little too familiar. While not a carbon copy of his previous releases, Desitively Bonnaroo was a disappointment to his fans. Good as it was, it was the end of an era for Dr. John and his type of music.

James Chrispell, Allmusic.com

Tracklist:

01. Quitters Never Win (3:17)
02. Stealin' (3:32)
03. What Comes Around (Goes Around) (3:13)
04. Me - You = Loneliness (3:05)
05. Mos' Scoious (2:48)
06. (Everybody Wanna Get Rich) Rite Away (2:45)
07. Let's Make A Better World (2:57)
08. R U 4 Real (4:17)
09. Sing Along Song (2:43)
10. Cant Git Enuff (3:01)
11. Go Tell The People (3:05)
12. Desitively Bonnaroo (2:33)


Exact Audio Copy V1.0 beta 6 from 9. April 2015

EAC extraction logfile from 17. October 2017, 21:06

Dr. John / Desitively Bonnaroo

Used drive : PLEXTOR DVDR PX-891SA Adapter: 0 ID: 2

Read mode : Secure
Utilize accurate stream : Yes
Defeat audio cache : Yes
Make use of C2 pointers : No

Read offset correction : 6
Overread into Lead-In and Lead-Out : No
Fill up missing offset samples with silence : Yes
Delete leading and trailing silent blocks : No
Null samples used in CRC calculations : Yes
Used interface : Installed external ASPI interface

Used output format : User Defined Encoder
Selected bitrate : 320 kBit/s
Quality : High
Add ID3 tag : No
Command line compressor : C:\Program Files\Exact Audio Copy 1.b6\Exact Audio Copy\Flac\flac.exe
Additional command line options : -V -8 -T "Genre=%genre%" -T "Artist=%artist%" -T "Title=%title%" -T "Album=%albumtitle%" -T "Date=%year%" -T "Tracknumber=%tracknr%" -T "Comment=%comment%" %source%


TOC of the extracted CD

Track | Start | Length | Start sector | End sector
––––––––––––––––––––––––––––-
1 | 0:00.00 | 3:17.06 | 0 | 14780
2 | 3:17.06 | 3:31.51 | 14781 | 30656
3 | 6:48.57 | 3:12.64 | 30657 | 45120
4 | 10:01.46 | 3:05.03 | 45121 | 58998
5 | 13:06.49 | 2:47.41 | 58999 | 71564
6 | 15:54.15 | 2:45.03 | 71565 | 83942
7 | 18:39.18 | 2:56.59 | 83943 | 97201
8 | 21:36.02 | 4:17.25 | 97202 | 116501
9 | 25:53.27 | 2:43.15 | 116502 | 128741
10 | 28:36.42 | 3:00.68 | 128742 | 142309
11 | 31:37.35 | 3:05.24 | 142310 | 156208
12 | 34:42.59 | 2:32.62 | 156209 | 167670


Range status and errors

Selected range

Filename L:\Audio\SWF\Dr. John\The ATCO Album Collection (2017 Rhino Entertainment Company, 081227933876, E.U.)\1974. Desitively Bonnaroo\Dr. John - Desitively Bonnaroo.wav

Peak level 98.9 %
Extraction speed 7.2 X
Range quality 100.0 %
Test CRC ECEA7625
Copy CRC ECEA7625
Copy OK

No errors occurred


AccurateRip summary

Track 1 accurately ripped (confidence 2) [0309C268] (AR v2)
Track 2 accurately ripped (confidence 2) [544B4F98] (AR v2)
Track 3 accurately ripped (confidence 2) [A16B2FB5] (AR v2)
Track 4 accurately ripped (confidence 2) [6CF16A97] (AR v2)
Track 5 accurately ripped (confidence 2) [92DA8D67] (AR v2)
Track 6 accurately ripped (confidence 2) [EBB934C6] (AR v2)
Track 7 accurately ripped (confidence 2) [AB8F1B66] (AR v2)
Track 8 accurately ripped (confidence 2) [A0EF806F] (AR v2)
Track 9 accurately ripped (confidence 2) [BBE93F77] (AR v2)
Track 10 accurately ripped (confidence 2) [0ECF031A] (AR v2)
Track 11 accurately ripped (confidence 2) [26A90FB6] (AR v2)
Track 12 accurately ripped (confidence 2) [4457AC9A] (AR v2)

All tracks accurately ripped

End of status report

–– CUETools DB Plugin V2.1.6

[CTDB TOCID: sth8nmoczglu14oz86buDbTY3nk-] found
Submit result: sth8nmoczglu14oz86buDbTY3nk- has been confirmed
Track | CTDB Status
1 | (2/2) Accurately ripped
2 | (2/2) Accurately ripped
3 | (2/2) Accurately ripped
4 | (2/2) Accurately ripped
5 | (2/2) Accurately ripped
6 | (2/2) Accurately ripped
7 | (2/2) Accurately ripped
8 | (2/2) Accurately ripped
9 | (2/2) Accurately ripped
10 | (2/2) Accurately ripped
11 | (2/2) Accurately ripped
12 | (2/2) Accurately ripped


==== Log checksum 6BA30931E6F489A75B65A45EAA86688F38B95437A76B56B03ECE6AD5B8D369DB ====

[CUETools log; Date: 29.12.2017 1:00:48; Version: 2.1.4]
[CTDB TOCID: sth8nmoczglu14oz86buDbTY3nk-] found.
Track | CTDB Status
1 | (8/8) Accurately ripped
2 | (8/8) Accurately ripped
3 | (8/8) Accurately ripped
4 | (8/8) Accurately ripped
5 | (8/8) Accurately ripped
6 | (8/8) Accurately ripped
7 | (8/8) Accurately ripped
8 | (8/8) Accurately ripped
9 | (8/8) Accurately ripped
10 | (8/8) Accurately ripped
11 | (8/8) Accurately ripped
12 | (8/8) Accurately ripped
[AccurateRip ID: 0010fe66-009de2bf-b108bb0c] found.
Track [ CRC | V2 ] Status
01 [3e868f17|0309c268] (0+2/2) Accurately ripped
02 [c3900221|544b4f98] (0+2/2) Accurately ripped
03 [35bd5163|a16b2fb5] (0+2/2) Accurately ripped
04 [3fc14e88|6cf16a97] (0+2/2) Accurately ripped
05 [c1543a57|92da8d67] (0+2/2) Accurately ripped
06 [12a925e0|ebb934c6] (0+2/2) Accurately ripped
07 [3c7a0148|ab8f1b66] (0+2/2) Accurately ripped
08 [fd03c747|a0ef806f] (0+2/2) Accurately ripped
09 [4dab3954|bbe93f77] (0+2/2) Accurately ripped
10 [d308a182|0ecf031a] (0+2/2) Accurately ripped
11 [e8f18eec|26a90fb6] (0+2/2) Accurately ripped
12 [e2461fe0|4457ac9a] (0+2/2) Accurately ripped

Track Peak [ CRC32 ] [W/O NULL] [ LOG ]
– 98,9 [ECEA7625] [528AFA5A] CRC32
01 98,7 [450B4FDA] [3090A147]
02 98,9 [B7DF9D89] [0ABD1DE0]
03 98,9 [97C019EB] [1B901A0A]
04 89,7 [5D3373C5] [E7747C41]
05 98,8 [356CD542] [5701644A]
06 98,9 [1966ED16] [FD033A87]
07 98,5 [36970B25] [3CBFD70A]
08 98,7 [A0B87019] [D425E8B7]
09 98,8 [28E35AE3] [470E0F21]
10 98,9 [76ABFAF3] [9C4B806E]
11 98,8 [FEF10478] [BE29F25B]
12 98,8 [C7FEF91A] [FC493F99]

foobar2000 1.2 / Dynamic Range Meter 1.1.1
log date: 2017-12-29 01:04:04

––––––––––––––––––––––––––––––––––––––––
Analyzed: Dr. John / Desitively Bonnaroo
––––––––––––––––––––––––––––––––––––––––

DR Peak RMS Duration Track
––––––––––––––––––––––––––––––––––––––––
DR13 -0.11 dB -14.73 dB 3:17 01-Quitters Never Win
DR12 -0.09 dB -14.31 dB 3:32 02-Stealin'
DR12 -0.10 dB -14.51 dB 3:13 03-What Comes Around (Goes Around)
DR15 -0.94 dB -19.29 dB 3:05 04-Me - You = Loneliness
DR13 -0.10 dB -15.24 dB 2:48 05-Mos' Scoious
DR13 -0.09 dB -14.96 dB 2:45 06-(Everybody Wanna Get Rich) Rite Away
DR12 -0.13 dB -15.16 dB 2:57 07-Let's Make A Better World
DR14 -0.11 dB -16.46 dB 4:17 08-R U 4 Real
DR12 -0.10 dB -15.26 dB 2:43 09-Sing Along Song
DR11 -0.09 dB -13.52 dB 3:01 10-Cant Git Enuff
DR13 -0.10 dB -15.97 dB 3:05 11-Go Tell The People
DR13 -0.10 dB -14.75 dB 2:33 12-Desitively Bonnaroo
––––––––––––––––––––––––––––––––––––––––

Number of tracks: 12
Official DR value: DR13

Samplerate: 44100 Hz
Channels: 2
Bits per sample: 16
Bitrate: 790 kbps
Codec: FLAC
================================================================================




Dr. John - The ATCO Albums Collection 1968-1974 (2017) Remastered 7CD Box Set

All thanks to original releaser - Swamp Fox

More interesting music in My Blog