Tags
Language
Tags

Enigma - Love Sensually Devotion: Greatest Hits & Remixes (2016) 2CDs [Re-Up]

Posted By: Designol
Enigma - Love Sensually Devotion: Greatest Hits & Remixes (2016) 2CDs [Re-Up]

Enigma - Love Sensually Devotion: Greatest Hits & Remixes (2016) 2CDs
EAC | FLAC | Tracks (Cue&Log) ~ 944 Mb | Mp3 (CBR320) ~ 307 Mb | Scans ~ 57 Mb
Label: Universal | # 06025 5711298 6 | Time: 02:14:24
Electronic, Ambient, Ethnic Fusion, Downtempo

LSD: Love, Sensuality and Devotion gathers over a decade's worth of Enigma's definitive tracks, including the song that started it all, "Sadeness, Pt. 1." "Return to Innocence," "Beyond the Invisible," and "Cross of Changes" are all featured as well, and though the collection ranges from the rock-tinged "I'll Love You…I'll Kill You" to atmospheric, electronic fare like "Shadows in Silence," since it's all essentially Michael Crétu's vision, it flows surprisingly well. Since Enigma's sound has varied fairly drastically over the years, LSD: Love, Sensuality and Devotion is the perfect starting point for anyone curious about Crétu's music, and the only Enigma album that casual fans might need.

Review by Heather Phares, Allmusic.com

Enigma at Allmusic
Enigma at Wiki

Tracklist:

CD1:

01. The Landing (01:05)
02. Turn Around (03:51)
03. Gravity Of Love (03:58)
04. T.N.T. For The Brain (05:17)
05. Modern Crusaders (03:53)
06. Shadows In Silence (04:19)
07. Return To Innocence (04:15)
08. I Love You . . . I'll Kill You (08:01)
09. Principles Of Lust (03:08)
10. Sadeness (04:15)
11. Silence Must Be Heard (04:46)
12. Smell Of Desire (04:32)
13. Mea Culpa (04:31)
14. Push The Limits (03:48)
15. Beyond The Invisible (04:50)
16. Age of Loneliness (04:10)
17. Morphing Thru Time (05:25)
18. The Cross of Changes (02:15)

CD2:

01. Turn Around (Northern Lights Club Mix) (10:28)
02. Age Of Loneliness (Enigmatic Club Mix) (06:15)
03. Push The Limits (ATB Remix) (07:51)
04. Gravity Of Love (Judgement Day Club Mix) (05:59)
05. Return To Innocence (380 Midnight Mix) (05:42)
06. Sadeness (Part I) (Violent U.S. Remix) (04:43)
07. Principles Of Lust (Everlasting Lust Mix) (04:55)
08. Mea Culpa (Fading Shades Mix) (06:04)
09. T.N.T. For The Brain (Midnight Man Mix) (05:56)


Exact Audio Copy V1.1 from 23. June 2015

EAC extraction logfile from 8. October 2016, 2:17

Enigma / Love Sensuality Devotion (The Greatest Hits & Remixes)

Used drive : PLEXTOR DVDR PX-891SA Adapter: 1 ID: 0

Read mode : Secure
Utilize accurate stream : Yes
Defeat audio cache : Yes
Make use of C2 pointers : No

Read offset correction : 6
Overread into Lead-In and Lead-Out : No
Fill up missing offset samples with silence : Yes
Delete leading and trailing silent blocks : No
Null samples used in CRC calculations : Yes
Used interface : Native Win32 interface for Win NT & 2000
Gap handling : Appended to previous track

Used output format : User Defined Encoder
Selected bitrate : 1024 kBit/s
Quality : High
Add ID3 tag : No
Command line compressor : C:\Program Files (x86)\Exact Audio Copy\Flac\flac.exe
Additional command line options : -0 -V -T "ARTIST=%artist%" -T "TITLE=%title%" -T "ALBUM=%albumtitle%" -T "DATE=%year%" -T "TRACKNUMBER=%tracknr%" -T "TOTALTRACKS=%numtracks%" -T "GENRE=%genre%" -T "COMMENT=Naftamusic Release!" %source%


TOC of the extracted CD

Track | Start | Length | Start sector | End sector
––––––––––––––––––––––––––––-
1 | 0:00.00 | 1:05.68 | 0 | 4942
2 | 1:05.68 | 3:51.25 | 4943 | 22292
3 | 4:57.18 | 3:58.65 | 22293 | 40207
4 | 8:56.08 | 5:17.70 | 40208 | 64052
5 | 14:14.03 | 3:53.40 | 64053 | 81567
6 | 18:07.43 | 4:19.13 | 81568 | 101005
7 | 22:26.56 | 4:15.25 | 101006 | 120155
8 | 26:42.06 | 8:01.45 | 120156 | 156275
9 | 34:43.51 | 3:08.45 | 156276 | 170420
10 | 37:52.21 | 4:15.40 | 170421 | 189585
11 | 42:07.61 | 4:46.27 | 189586 | 211062
12 | 46:54.13 | 4:32.35 | 211063 | 231497
13 | 51:26.48 | 4:31.00 | 231498 | 251822
14 | 55:57.48 | 3:48.15 | 251823 | 268937
15 | 59:45.63 | 4:50.15 | 268938 | 290702
16 | 64:36.03 | 4:10.33 | 290703 | 309485
17 | 68:46.36 | 5:25.42 | 309486 | 333902
18 | 74:12.03 | 2:15.36 | 333903 | 344063


Track 1

Filename E:\Nafta Releases\Enigma - Love Sensuality Devotion (The Greatest Hits & Remixes 2 CD 2016)[FLAC]-Naftamusic\CD 1\01 - The Landing.wav

Pre-gap length 0:00:02.00

Peak level 48.3 %
Extraction speed 1.5 X
Track quality 100.0 %
Test CRC A67B63FE
Copy CRC A67B63FE
Track not present in AccurateRip database
Copy OK

Track 2

Filename E:\Nafta Releases\Enigma - Love Sensuality Devotion (The Greatest Hits & Remixes 2 CD 2016)[FLAC]-Naftamusic\CD 1\02 - Turn Around.wav

Peak level 99.0 %
Extraction speed 2.2 X
Track quality 100.0 %
Test CRC 8925BEA1
Copy CRC 8925BEA1
Track not present in AccurateRip database
Copy OK

Track 3

Filename E:\Nafta Releases\Enigma - Love Sensuality Devotion (The Greatest Hits & Remixes 2 CD 2016)[FLAC]-Naftamusic\CD 1\03 - Gravity Of Love.wav

Peak level 99.8 %
Extraction speed 2.4 X
Track quality 100.0 %
Test CRC F9751E78
Copy CRC F9751E78
Track not present in AccurateRip database
Copy OK

Track 4

Filename E:\Nafta Releases\Enigma - Love Sensuality Devotion (The Greatest Hits & Remixes 2 CD 2016)[FLAC]-Naftamusic\CD 1\04 - T.N.T. For The Brain.wav

Peak level 98.0 %
Extraction speed 2.7 X
Track quality 100.0 %
Test CRC A9C50CF1
Copy CRC A9C50CF1
Track not present in AccurateRip database
Copy OK

Track 5

Filename E:\Nafta Releases\Enigma - Love Sensuality Devotion (The Greatest Hits & Remixes 2 CD 2016)[FLAC]-Naftamusic\CD 1\05 - Modern Crusaders.wav

Peak level 99.0 %
Extraction speed 2.8 X
Track quality 100.0 %
Test CRC 854C966A
Copy CRC 854C966A
Track not present in AccurateRip database
Copy OK

Track 6

Filename E:\Nafta Releases\Enigma - Love Sensuality Devotion (The Greatest Hits & Remixes 2 CD 2016)[FLAC]-Naftamusic\CD 1\06 - Shadows In Silence.wav

Peak level 99.0 %
Extraction speed 3.0 X
Track quality 100.0 %
Test CRC 6203A586
Copy CRC 6203A586
Track not present in AccurateRip database
Copy OK

Track 7

Filename E:\Nafta Releases\Enigma - Love Sensuality Devotion (The Greatest Hits & Remixes 2 CD 2016)[FLAC]-Naftamusic\CD 1\07 - Return To Innocence.wav

Peak level 99.0 %
Extraction speed 3.1 X
Track quality 100.0 %
Test CRC A3B472AE
Copy CRC A3B472AE
Track not present in AccurateRip database
Copy OK

Track 8

Filename E:\Nafta Releases\Enigma - Love Sensuality Devotion (The Greatest Hits & Remixes 2 CD 2016)[FLAC]-Naftamusic\CD 1\08 - I Love You . . . I'll Kill You.wav

Peak level 99.0 %
Extraction speed 3.6 X
Track quality 100.0 %
Test CRC 24B51F57
Copy CRC 24B51F57
Track not present in AccurateRip database
Copy OK

Track 9

Filename E:\Nafta Releases\Enigma - Love Sensuality Devotion (The Greatest Hits & Remixes 2 CD 2016)[FLAC]-Naftamusic\CD 1\09 - Principles Of Lust.wav

Peak level 99.0 %
Extraction speed 3.3 X
Track quality 100.0 %
Test CRC F9553584
Copy CRC F9553584
Track not present in AccurateRip database
Copy OK

Track 10

Filename E:\Nafta Releases\Enigma - Love Sensuality Devotion (The Greatest Hits & Remixes 2 CD 2016)[FLAC]-Naftamusic\CD 1\10 - Sadeness.wav

Peak level 99.0 %
Extraction speed 3.6 X
Track quality 100.0 %
Test CRC B77C31A8
Copy CRC B77C31A8
Track not present in AccurateRip database
Copy OK

Track 11

Filename E:\Nafta Releases\Enigma - Love Sensuality Devotion (The Greatest Hits & Remixes 2 CD 2016)[FLAC]-Naftamusic\CD 1\11 - Silence Must Be Heard.wav

Peak level 99.9 %
Extraction speed 3.8 X
Track quality 100.0 %
Test CRC 98C78850
Copy CRC 98C78850
Track not present in AccurateRip database
Copy OK

Track 12

Filename E:\Nafta Releases\Enigma - Love Sensuality Devotion (The Greatest Hits & Remixes 2 CD 2016)[FLAC]-Naftamusic\CD 1\12 - Smell Of Desire.wav

Peak level 99.0 %
Extraction speed 3.9 X
Track quality 100.0 %
Test CRC DBB9AEDF
Copy CRC DBB9AEDF
Track not present in AccurateRip database
Copy OK

Track 13

Filename E:\Nafta Releases\Enigma - Love Sensuality Devotion (The Greatest Hits & Remixes 2 CD 2016)[FLAC]-Naftamusic\CD 1\13 - Mea Culpa.wav

Peak level 99.0 %
Extraction speed 4.0 X
Track quality 100.0 %
Test CRC 974531DE
Copy CRC 974531DE
Track not present in AccurateRip database
Copy OK

Track 14

Filename E:\Nafta Releases\Enigma - Love Sensuality Devotion (The Greatest Hits & Remixes 2 CD 2016)[FLAC]-Naftamusic\CD 1\14 - Push The Limits.wav

Peak level 99.0 %
Extraction speed 4.1 X
Track quality 100.0 %
Test CRC 09D176E5
Copy CRC 09D176E5
Track not present in AccurateRip database
Copy OK

Track 15

Filename E:\Nafta Releases\Enigma - Love Sensuality Devotion (The Greatest Hits & Remixes 2 CD 2016)[FLAC]-Naftamusic\CD 1\15 - Beyond The Invisible.wav

Peak level 99.0 %
Extraction speed 4.3 X
Track quality 100.0 %
Test CRC 38AC0FA3
Copy CRC 38AC0FA3
Track not present in AccurateRip database
Copy OK

Track 16

Filename E:\Nafta Releases\Enigma - Love Sensuality Devotion (The Greatest Hits & Remixes 2 CD 2016)[FLAC]-Naftamusic\CD 1\16 - Age of Loneliness.wav

Peak level 99.0 %
Extraction speed 4.3 X
Track quality 100.0 %
Test CRC AB5C538B
Copy CRC AB5C538B
Track not present in AccurateRip database
Copy OK

Track 17

Filename E:\Nafta Releases\Enigma - Love Sensuality Devotion (The Greatest Hits & Remixes 2 CD 2016)[FLAC]-Naftamusic\CD 1\17 - Morphing Thru Time.wav

Peak level 99.0 %
Extraction speed 4.7 X
Track quality 100.0 %
Test CRC 0C6F0B3B
Copy CRC 0C6F0B3B
Track not present in AccurateRip database
Copy OK

Track 18

Filename E:\Nafta Releases\Enigma - Love Sensuality Devotion (The Greatest Hits & Remixes 2 CD 2016)[FLAC]-Naftamusic\CD 1\18 - The Cross of Changes.wav

Peak level 76.7 %
Extraction speed 2.5 X
Track quality 99.9 %
Test CRC AF4E81C6
Copy CRC AF4E81C6
Track not present in AccurateRip database
Copy OK


None of the tracks are present in the AccurateRip database

No errors occurred

End of status report

==== Log checksum 920E5BDFCF36CB5180770C583F0E948D9917B2E907869EC006286C7AC19B81F3 ====

foobar2000 1.2 / Dynamic Range Meter 1.1.1
log date: 2016-10-09 16:37:27

––––––––––––––––––––––––––––––––––––––––
Analyzed: Enigma / Love Sensuality Devotion (The Greatest Hits & Remixes)
––––––––––––––––––––––––––––––––––––––––

DR Peak RMS Duration Track
––––––––––––––––––––––––––––––––––––––––
DR11 -6.31 dB -22.09 dB 1:06 01-The Landing
DR10 -0.08 dB -11.83 dB 3:51 02-Turn Around
DR6 -0.02 dB -9.24 dB 3:59 03-Gravity Of Love
DR10 -0.17 dB -12.05 dB 5:18 04-T.N.T. For The Brain
DR7 -0.08 dB -9.46 dB 3:54 05-Modern Crusaders
DR10 -0.08 dB -12.70 dB 4:19 06-Shadows In Silence
DR8 -0.08 dB -10.35 dB 4:15 07-Return To Innocence
DR8 -0.08 dB -10.54 dB 8:02 08-I Love You . . . I'll Kill You
DR10 -0.08 dB -12.96 dB 3:09 09-Principles Of Lust
DR8 -0.08 dB -10.48 dB 4:16 10-Sadeness
DR8 0.00 dB -10.83 dB 4:46 11-Silence Must Be Heard
DR9 -0.08 dB -10.56 dB 4:32 12-Smell Of Desire
DR8 -0.08 dB -10.60 dB 4:31 13-Mea Culpa
DR8 -0.09 dB -9.50 dB 3:48 14-Push The Limits
DR7 -0.08 dB -9.18 dB 4:50 15-Beyond The Invisible
DR8 -0.08 dB -9.57 dB 4:10 16-Age of Loneliness
DR8 -0.08 dB -9.85 dB 5:26 17-Morphing Thru Time
DR12 -2.30 dB -17.68 dB 2:15 18-The Cross of Changes
––––––––––––––––––––––––––––––––––––––––

Number of tracks: 18
Official DR value: DR9

Samplerate: 44100 Hz
Channels: 2
Bits per sample: 16
Bitrate: 807 kbps
Codec: FLAC
================================================================================


Exact Audio Copy V1.1 from 23. June 2015

EAC extraction logfile from 8. October 2016, 14:04

Enigma / Love Sensuality Devotion (The Greatest Hits & Remixes)

Used drive : PLEXTOR DVDR PX-891SA Adapter: 1 ID: 0

Read mode : Secure
Utilize accurate stream : Yes
Defeat audio cache : Yes
Make use of C2 pointers : No

Read offset correction : 6
Overread into Lead-In and Lead-Out : No
Fill up missing offset samples with silence : Yes
Delete leading and trailing silent blocks : No
Null samples used in CRC calculations : Yes
Used interface : Native Win32 interface for Win NT & 2000
Gap handling : Appended to previous track

Used output format : User Defined Encoder
Selected bitrate : 1024 kBit/s
Quality : High
Add ID3 tag : No
Command line compressor : C:\Program Files (x86)\Exact Audio Copy\Flac\flac.exe
Additional command line options : -0 -V -T "ARTIST=%artist%" -T "TITLE=%title%" -T "ALBUM=%albumtitle%" -T "DATE=%year%" -T "TRACKNUMBER=%tracknr%" -T "TOTALTRACKS=%numtracks%" -T "GENRE=%genre%" -T "COMMENT=Naftamusic Release!" %source%


TOC of the extracted CD

Track | Start | Length | Start sector | End sector
––––––––––––––––––––––––––––-
1 | 0:00.00 | 10:28.59 | 0 | 47158
2 | 10:28.59 | 6:15.07 | 47159 | 75290
3 | 16:43.66 | 7:51.33 | 75291 | 110648
4 | 24:35.24 | 5:59.30 | 110649 | 137603
5 | 30:34.54 | 5:42.25 | 137604 | 163278
6 | 36:17.04 | 4:43.22 | 163279 | 184525
7 | 41:00.26 | 4:55.72 | 184526 | 206722
8 | 45:56.23 | 6:04.41 | 206723 | 234063
9 | 52:00.64 | 5:56.47 | 234064 | 260810


Track 1

Filename E:\Nafta Releases\Enigma - Love Sensuality Devotion (The Greatest Hits & Remixes 2 CD 2016)[FLAC]-Naftamusic\CD 2\01 - Turn Around (Northern Lights Club Mix).wav

Pre-gap length 0:00:02.00

Peak level 99.0 %
Extraction speed 2.0 X
Track quality 99.9 %
Test CRC 1704E7C7
Copy CRC 1704E7C7
Track not present in AccurateRip database
Copy OK

Track 2

Filename E:\Nafta Releases\Enigma - Love Sensuality Devotion (The Greatest Hits & Remixes 2 CD 2016)[FLAC]-Naftamusic\CD 2\02 - Age Of Loneliness (Enigmatic Club Mix).wav

Peak level 99.0 %
Extraction speed 2.6 X
Track quality 100.0 %
Test CRC B68AEEE8
Copy CRC B68AEEE8
Track not present in AccurateRip database
Copy OK

Track 3

Filename E:\Nafta Releases\Enigma - Love Sensuality Devotion (The Greatest Hits & Remixes 2 CD 2016)[FLAC]-Naftamusic\CD 2\03 - Push The Limits (ATB Remix).wav

Peak level 99.0 %
Extraction speed 2.5 X
Track quality 99.9 %
Test CRC D3582278
Copy CRC D3582278
Track not present in AccurateRip database
Copy OK

Track 4

Filename E:\Nafta Releases\Enigma - Love Sensuality Devotion (The Greatest Hits & Remixes 2 CD 2016)[FLAC]-Naftamusic\CD 2\04 - Gravity Of Love (Judgement Day Club Mix).wav

Peak level 99.5 %
Extraction speed 3.1 X
Track quality 100.0 %
Test CRC 90E83DD9
Copy CRC 90E83DD9
Track not present in AccurateRip database
Copy OK

Track 5

Filename E:\Nafta Releases\Enigma - Love Sensuality Devotion (The Greatest Hits & Remixes 2 CD 2016)[FLAC]-Naftamusic\CD 2\05 - Return To Innocence (380 Midnight Mix).wav

Peak level 93.4 %
Extraction speed 3.4 X
Track quality 100.0 %
Test CRC 08612E96
Copy CRC 08612E96
Track not present in AccurateRip database
Copy OK

Track 6

Filename E:\Nafta Releases\Enigma - Love Sensuality Devotion (The Greatest Hits & Remixes 2 CD 2016)[FLAC]-Naftamusic\CD 2\06 - Sadeness (Part I) (Violent U.S. Remix).wav

Peak level 99.0 %
Extraction speed 3.4 X
Track quality 100.0 %
Test CRC 7909DCD7
Copy CRC 7909DCD7
Track not present in AccurateRip database
Copy OK

Track 7

Filename E:\Nafta Releases\Enigma - Love Sensuality Devotion (The Greatest Hits & Remixes 2 CD 2016)[FLAC]-Naftamusic\CD 2\07 - Principles Of Lust (Everlasting Lust Mix).wav

Peak level 99.0 %
Extraction speed 3.6 X
Track quality 100.0 %
Test CRC 75431A8F
Copy CRC 75431A8F
Track not present in AccurateRip database
Copy OK

Track 8

Filename E:\Nafta Releases\Enigma - Love Sensuality Devotion (The Greatest Hits & Remixes 2 CD 2016)[FLAC]-Naftamusic\CD 2\08 - Mea Culpa (Fading Shades Mix).wav

Peak level 99.0 %
Extraction speed 3.1 X
Track quality 99.9 %
Test CRC B42C6ADF
Copy CRC B42C6ADF
Track not present in AccurateRip database
Copy OK

Track 9

Filename E:\Nafta Releases\Enigma - Love Sensuality Devotion (The Greatest Hits & Remixes 2 CD 2016)[FLAC]-Naftamusic\CD 2\09 - T.N.T. For The Brain (Midnight Man Mix).wav

Peak level 99.0 %
Extraction speed 4.0 X
Track quality 100.0 %
Test CRC E88833B0
Copy CRC E88833B0
Track not present in AccurateRip database
Copy OK


None of the tracks are present in the AccurateRip database

No errors occurred

End of status report

==== Log checksum FAC8DF0E8B0F4649DD2F6106DD13FA8266A6E4FDE46D77B23EA5E0201EACF9F1 ====

foobar2000 1.2 / Dynamic Range Meter 1.1.1
log date: 2016-10-09 16:37:57

––––––––––––––––––––––––––––––––––––––––
Analyzed: Enigma / Love Sensuality Devotion (The Greatest Hits & Remixes)
––––––––––––––––––––––––––––––––––––––––

DR Peak RMS Duration Track
––––––––––––––––––––––––––––––––––––––––
DR9 -0.08 dB -12.07 dB 10:29 01-Turn Around (Northern Lights Club Mix)
DR7 -0.08 dB -9.90 dB 6:15 02-Age Of Loneliness (Enigmatic Club Mix)
DR8 -0.08 dB -10.11 dB 7:51 03-Push The Limits (ATB Remix)
DR8 -0.04 dB -10.11 dB 5:59 04-Gravity Of Love (Judgement Day Club Mix)
DR7 -0.59 dB -8.90 dB 5:42 05-Return To Innocence (380 Midnight Mix)
DR9 -0.08 dB -9.97 dB 4:43 06-Sadeness (Part I) (Violent U.S. Remix)
DR9 -0.08 dB -11.63 dB 4:56 07-Principles Of Lust (Everlasting Lust Mix)
DR8 -0.08 dB -10.99 dB 6:05 08-Mea Culpa (Fading Shades Mix)
DR8 -0.08 dB -10.86 dB 5:57 09-T.N.T. For The Brain (Midnight Man Mix)
––––––––––––––––––––––––––––––––––––––––

Number of tracks: 9
Official DR value: DR8

Samplerate: 44100 Hz
Channels: 2
Bits per sample: 16
Bitrate: 990 kbps
Codec: FLAC
================================================================================

Enigma - Love Sensually Devotion: Greatest Hits & Remixes (2016) 2CDs [Re-Up]

Enigma - Love Sensually Devotion: Greatest Hits & Remixes (2016) 2CDs [Re-Up]

All thanks to original releaser - thoms01

More interesting music in My Blog