Subcategories
Tags
Language
Tags

The Incredible String Band - First Four Albums 1966-1968 (5CD) Remastered Reissues 2010 [Re-Up]

Posted By: Designol
The Incredible String Band - First Four Albums 1966-1968 (5CD) Remastered Reissues 2010 [Re-Up]

The Incredible String Band - First Four Albums 1966-1968 (5CD) Remastered Reissues 2010
FLAC | Tracks (Cue&Log) ~ 1.37 Mb | Mp3 (CBR320) ~ 583 Mb | Scans included
British Folk, Psychedelic Folk, British Folk-Rock | Label: Fledg'ling | Time: 03:53:04

In the liner notes to these carefully packaged reissues, all four of the Incredible String Band principals– co-founder Clive Palmer, core duo Mike Heron and Robin Williamson, and Elektra records executive Joe Boyd– offer their insights in separate essays. Three of them mention the smell of patchouli. Such were the times, certainly, but the ISB are loved equally by avant-garde musicians, psychedelia enthusiasts, and those slightly dweeby young gentlemen who hang around music shops on college campuses. The reissue of their first four albums probably put to rest any notion that the ISB were a properly great band, releasing just one true classic, but they were rarely anything less than brave, inspired, and profoundly weird.

These reissues contain no extras or unreleased material, which might call to question their utility, but much of this music has been out of print in the U.S., or at least difficult to acquire, for years (previous reclamations only unearthed odd pieces of the catalog). The remastering was necessary, but my old copy of The Hangman's Beautiful Daughter never sounded too thin or affectless; the new versions offer more space between the instruments and a general clarity, but they're not revelations in the way that many mid-1960s edits are.

The ISB probably weren't the first band to incorporate Eastern modes and instruments into folk music, but they were the first to achieve any manner of noticeable repute doing so. By 1968 the group was selling out venues like the Royal Albert Hall; they played at Woodstock. They had famous fans– Paul McCartney and Robert Plant were public admirers– and they still do: Stephen Malkmus once called ISB "the greatest band of all time." There remain plenty of reasons to think about the ISB in 2010, not the least of which are the raves garnered by the likes of Joanna Newsom and Grizzly Bear. Messy, schoolyard orchestras like Neutral Milk Hotel and the Decemberists owe a debt as well.

The ISB met while playing in folk clubs around Scotland. They started slowly: Their self-titled debut was a mostly guitars-and-voices affair that openly aped Bob Dylan and Donovan. Heron and Williamson would grow to be legitimately adventurous songwriters, but neither is an overbearing personality, and the debut is understated. Gypsy violins ("Maybe Someday") and Celtic influences ("Schaeffer's Jig") hinted at broader vistas, but the self-titled is strictly for completists.

After the debut, Palmer split for the hippie trail while Williamson departed for Morocco, later returning with armfuls of (at the time) exotic instruments. The 5000 Spirits or Layers of the Onion was released during 1967's "Summer of Love", and everything from the album's painfully fried cover to its gently progressive arrangements (sitars, saloon pianos, bongos) reinforces this. Williamson and Heron earn credit as individual songwriters, and each album contains hints of competition. Heron wins 5000 Spirits via "The Hedgehog's Song", a small blues-pop masterpiece, and the fact that the more adventurous Williamson still seems dependent on the facile eccentricity of psychedelia.

Nothing, however, was facile about The Hangman's Beautiful Daughter. The band finally earns its name, stuffing complex songs full of dulcimers, gimbris, ouds, and harps. The ISB are pretty easy to figure out, if you want to: Hangman's is their best album, and its centerpiece, Heron's "A Very Cellular Song", is their best song. It's a 13-minute tour de force, and I'd swap the band's first two albums for it to last one minute longer, so completely does it outpace the rest of their catalog. The rest of Hangman's is similarly superior, as everything from the pop gems ("Mercy I Cry City") to the true oddities ("The Minotaur's Song", in which the narrator bellows, "Porridge for my porridge bowl!" and a chorus echoes him, "Porridge for his porridge bowl!") seem richer, weirder, and more fun.

Hangman's showed the band could benefit from excess, and its 2xLP followup, Wee Tam and the Big Huge, tested that. Released the same year as Hangman's, Official Band Girlfriends Rose and Licorice played increasing roles in loosely conceived epics about religion and myth. It's easier listening than Hangman's, with the band blending psych and folk smoothly; sitars rub against guitars without any hint of experimentation. Williamson's monstrous nine-minute jams ("Ducks on a Pond" and "Maya") themselves justify the sprawl, but the band also loses itself in religious imagery ("The Mountain of God") and far-flung melodies.

Many reissues see the involved rally around the idea that it's "all about the music, man" in some sort of arcane attempt to shout down context. The ISB are delightfully aware of their place in history, as everything from their essays to the unmistakably dated 5000 Spirits suggests. The patchouli, it turns out, mattered. But the ISB helped bring Eastern and African influence to folk music, and Hangman's and WT&TBH set the table for some of the conceptual epics we still see today. The Incredible String Band: come for the context, stay for the minotaur's porridge.

Andrew Gaerig, Pitchfork.com

The Incredible String Band - First Four Albums 1966-1968 (5CD) Remastered Reissues 2010 [Re-Up]






The Incredible String Band - First Four Albums 1966-1968 (5CD) Remastered Reissues 2010 [Re-Up]

The Incredible String Band - Their First Album (1966) Remastered 2010
EAC | FLAC | Tracks (Cue&Log) ~ 254 Mb | Mp3 (CBR320) ~ 118 Mb | Scans included
Label: Fledg'ling | # FLED 3076 | Time: 00:45:21

The debut release from the original Incredible String Band trio – Robin Williamson (violin/whistle/mandolin/guitar/vocals), Clive Palmer (banjo/guitar/vocals), and Mike Heron (guitar/vocals) – was also their most simple. It is this minimalism that allowed the natural radiance of the band's (mostly) original material to be evident in the purist sense, and likewise without many of the somewhat intricate distractions and musical tangents that their future work would incorporate. Immediately striking is the group's remarkable and collective prowess on seemingly all things stringed – hence, their apropos moniker. With an unmistakable blend of distinct instrumentation and harmony vocals, the Incredible String Band take inspiration from traditional music on both sides of the Atlantic. Their impish charm and tongue-in-cheek fairytale mythology also add to their folkie mystique. This first long-player – originally issued in 1966 – contains a bevy of songs that, while steeped in conventional folk music, are completely unique. This likewise holds true for the three traditional pieces, "Schaeffer's Jig," "Whistle Tune," and the rare Clive Palmer instrumental solo, "Niggertown." Palmer, formerly of the highly underrated Famous Jug Band, would exit the Incredible String Band after this record, and thus the perpetually rotating personnel that would guide the group for the remainder of its existence began, perhaps aptly, at the beginning. The original songs range from light and airy love ballads – such as the Williamson solo "Womankind" or the understated mischief of "Dandelion Blues" – to the high and lonesome sound of Mike Heron's mandolin-driven "How Happy I Am." There are likewise darker – yet no less poignant – tunes such as "Empty Pocket Blues" and the haunting "Good As Gone." While this album is a tremendous launch pad for potential enthusiasts, be aware that every Incredible String Band recording is also extremely individual and reflects the current membership of the group.

Review by Lindsay Planer, Allmusic.com

Tracklist:

01. Maybe Someday (2:21)
02. October Song (4:10)
03. When the Music Starts to Play (2:44)
04. Schaeffer's Jig (0:59)
05. Womankind (3:46)
06. The Tree (2:56)
07. Whistle Tune (1:02)
08. Dandelion Blues (3:03)
09. How Happy I Am (2:21)
10. Empty Pocket Blues (4:48)
11. Smoke Shovelling Song (3:48)
12. Can't Keep Me Here (2:15)
13. Good as Gone (3:31)
14. Footsteps of the Heron (3:15)
15. Niggertown (2:10)
16. Everything's Fine Right Now (2:13)


Exact Audio Copy V1.0 beta 3 from 29. August 2011

EAC extraction logfile from 12. July 2012, 20:52

The Incredible String Band / Their First Album

Used drive : HL-DT-STBD-RE BH10LS30 Adapter: 0 ID: 2

Read mode : Secure
Utilize accurate stream : Yes
Defeat audio cache : Yes
Make use of C2 pointers : No

Read offset correction : 667
Overread into Lead-In and Lead-Out : No
Fill up missing offset samples with silence : Yes
Delete leading and trailing silent blocks : No
Null samples used in CRC calculations : Yes
Used interface : Native Win32 interface for Win NT & 2000
Gap handling : Appended to previous track

Used output format : User Defined Encoder
Selected bitrate : 768 kBit/s
Quality : High
Add ID3 tag : No
Command line compressor : C:\Program Files (x86)\Exact Audio Copy\FLAC\FLAC.EXE
Additional command line options : -6 -V -T "ARTIST=%artist%" -T "TITLE=%title%" -T "ALBUM=%albumtitle%" -T "DATE=%year%" -T "TRACKNUMBER=%tracknr%" -T "GENRE=%genre%" -T "COMMENT=%comment%" -T "BAND=%albuminterpret%" -T "ALBUMARTIST=%albuminterpret%" -T "COMPOSER=%composer%" %haslyrics%–tag-from-file=LYRICS="%lyricsfile%"%haslyrics% -T "DISCNUMBER=%cdnumber%" -T "TOTALDISCS=%totalcds%" -T "TOTALTRACKS=%numtracks%" %hascover%–picture="%coverfile%"%hascover% %source% -o %dest%


TOC of the extracted CD

Track | Start | Length | Start sector | End sector
––––––––––––––––––––––––––––-
1 | 0:00.00 | 2:20.72 | 0 | 10571
2 | 2:20.72 | 4:10.28 | 10572 | 29349
3 | 6:31.25 | 2:43.70 | 29350 | 41644
4 | 9:15.20 | 0:59.05 | 41645 | 46074
5 | 10:14.25 | 3:46.07 | 46075 | 63031
6 | 14:00.32 | 2:55.71 | 63032 | 76227
7 | 16:56.28 | 1:02.18 | 76228 | 80895
8 | 17:58.46 | 3:03.19 | 80896 | 94639
9 | 21:01.65 | 2:20.54 | 94640 | 105193
10 | 23:22.44 | 4:47.70 | 105194 | 126788
11 | 28:10.39 | 3:47.70 | 126789 | 143883
12 | 31:58.34 | 2:15.04 | 143884 | 154012
13 | 34:13.38 | 3:31.20 | 154013 | 169857
14 | 37:44.58 | 3:14.63 | 169858 | 184470
15 | 40:59.46 | 2:09.51 | 184471 | 194196
16 | 43:09.22 | 2:12.39 | 194197 | 204135


Track 1

Filename C:\Rip\The Incredible String Band\Their First Album\01 - Maybe Someday.wav

Pre-gap length 0:00:02.00

Peak level 100.0 %
Extraction speed 0.9 X
Track quality 100.0 %
Test CRC 58C30106
Copy CRC 58C30106
Accurately ripped (confidence 4) [3BA21552] (AR v2)
Copy OK

Track 2

Filename C:\Rip\The Incredible String Band\Their First Album\02 - October Song.wav

Pre-gap length 0:00:03.37

Peak level 93.3 %
Extraction speed 1.2 X
Track quality 100.0 %
Test CRC F0E65D5A
Copy CRC F0E65D5A
Accurately ripped (confidence 4) [706F8D1F] (AR v2)
Copy OK

Track 3

Filename C:\Rip\The Incredible String Band\Their First Album\03 - When the Music Starts to Play.wav

Pre-gap length 0:00:02.06

Peak level 82.0 %
Extraction speed 1.2 X
Track quality 100.0 %
Test CRC 03F61353
Copy CRC 03F61353
Accurately ripped (confidence 4) [F724C8A6] (AR v2)
Copy OK

Track 4

Filename C:\Rip\The Incredible String Band\Their First Album\04 - Schaeffer's Jig.wav

Pre-gap length 0:00:02.80

Peak level 81.2 %
Extraction speed 0.6 X
Track quality 99.8 %
Test CRC 483BFACF
Copy CRC 483BFACF
Accurately ripped (confidence 4) [B13A29A3] (AR v2)
Copy OK

Track 5

Filename C:\Rip\The Incredible String Band\Their First Album\05 - Womankind.wav

Pre-gap length 0:00:03.12

Peak level 98.3 %
Extraction speed 1.2 X
Track quality 99.9 %
Test CRC 22FFFFBD
Copy CRC 22FFFFBD
Accurately ripped (confidence 4) [9816017F] (AR v2)
Copy OK

Track 6

Filename C:\Rip\The Incredible String Band\Their First Album\06 - The Tree.wav

Pre-gap length 0:00:02.64

Peak level 77.0 %
Extraction speed 1.2 X
Track quality 99.9 %
Test CRC ABCFCAEE
Copy CRC ABCFCAEE
Accurately ripped (confidence 4) [CFD6A97C] (AR v2)
Copy OK

Track 7

Filename C:\Rip\The Incredible String Band\Their First Album\07 - Whistle Tune.wav

Pre-gap length 0:00:02.90

Peak level 61.1 %
Extraction speed 1.1 X
Track quality 100.0 %
Test CRC 9D3E7FE3
Copy CRC 9D3E7FE3
Accurately ripped (confidence 4) [5BA589B7] (AR v2)
Copy OK

Track 8

Filename C:\Rip\The Incredible String Band\Their First Album\08 - Dandelion Blues.wav

Pre-gap length 0:00:02.50

Peak level 90.7 %
Extraction speed 1.3 X
Track quality 99.9 %
Test CRC 3AFD3BA2
Copy CRC 3AFD3BA2
Accurately ripped (confidence 4) [A1AD01AE] (AR v2)
Copy OK

Track 9

Filename C:\Rip\The Incredible String Band\Their First Album\09 - How Happy I Am.wav

Pre-gap length 0:00:04.32

Peak level 98.5 %
Extraction speed 1.2 X
Track quality 99.9 %
Test CRC 9034D424
Copy CRC 9034D424
Accurately ripped (confidence 4) [D27EEBF2] (AR v2)
Copy OK

Track 10

Filename C:\Rip\The Incredible String Band\Their First Album\10 - Empty Pocket Blues.wav

Pre-gap length 0:00:02.44

Peak level 95.6 %
Extraction speed 1.7 X
Track quality 100.0 %
Test CRC A1EEBDE7
Copy CRC A1EEBDE7
Accurately ripped (confidence 4) [971195DD] (AR v2)
Copy OK

Track 11

Filename C:\Rip\The Incredible String Band\Their First Album\11 - Smoke Shovelling Song.wav

Pre-gap length 0:00:02.58

Peak level 99.7 %
Extraction speed 1.7 X
Track quality 100.0 %
Test CRC 965AC58F
Copy CRC 965AC58F
Accurately ripped (confidence 4) [56BC1F16] (AR v2)
Copy OK

Track 12

Filename C:\Rip\The Incredible String Band\Their First Album\12 - Can't Keep Me Here.wav

Pre-gap length 0:00:02.66

Peak level 79.4 %
Extraction speed 1.6 X
Track quality 100.0 %
Test CRC 3C289F95
Copy CRC 3C289F95
Accurately ripped (confidence 4) [4EAE5431] (AR v2)
Copy OK

Track 13

Filename C:\Rip\The Incredible String Band\Their First Album\13 - Good as Gone.wav

Pre-gap length 0:00:02.61

Peak level 84.8 %
Extraction speed 1.8 X
Track quality 100.0 %
Test CRC 14ECADBE
Copy CRC 14ECADBE
Accurately ripped (confidence 4) [5552F009] (AR v2)
Copy OK

Track 14

Filename C:\Rip\The Incredible String Band\Their First Album\14 - Footsteps of the Heron.wav

Pre-gap length 0:00:02.66

Peak level 100.0 %
Extraction speed 1.6 X
Track quality 99.9 %
Test CRC 3EEA13E2
Copy CRC 3EEA13E2
Accurately ripped (confidence 4) [C535D606] (AR v2)
Copy OK

Track 15

Filename C:\Rip\The Incredible String Band\Their First Album\15 - Niggertown.wav

Pre-gap length 0:00:02.45

Peak level 99.7 %
Extraction speed 1.8 X
Track quality 100.0 %
Test CRC 269F6AA5
Copy CRC 269F6AA5
Accurately ripped (confidence 4) [96428FA6] (AR v2)
Copy OK

Track 16

Filename C:\Rip\The Incredible String Band\Their First Album\16 - Everything's Fine Right Now.wav

Pre-gap length 0:00:02.88

Peak level 98.6 %
Extraction speed 1.5 X
Track quality 99.9 %
Test CRC A7E52628
Copy CRC A7E52628
Accurately ripped (confidence 4) [0102235E] (AR v2)
Copy OK


All tracks accurately ripped

No errors occurred

End of status report

==== Log checksum 46F85659BAB1E8A67CD7CDCC066418A851225816B11A9E1E35231B4E1F663547 ====

foobar2000 1.2 / Dynamic Range Meter 1.1.1
log date: 2015-10-31 14:20:20

––––––––––––––––––––––––––––––––––––––––
Analyzed: The Incredible String Band / Their First Album
––––––––––––––––––––––––––––––––––––––––

DR Peak RMS Duration Track
––––––––––––––––––––––––––––––––––––––––
DR11 0.00 dB -14.44 dB 2:21 01-Maybe Someday
DR11 -0.59 dB -15.84 dB 4:10 02-October Song
DR10 -1.72 dB -15.72 dB 2:44 03-When the Music Starts to Play
DR12 -1.80 dB -17.05 dB 0:59 04-Schaeffer's Jig
DR13 -0.14 dB -19.52 dB 3:46 05-Womankind
DR12 -2.26 dB -18.97 dB 2:56 06-The Tree
DR6 -4.27 dB -16.19 dB 1:02 07-Whistle Tune
DR14 -0.85 dB -17.51 dB 3:03 08-Dandelion Blues
DR12 -0.13 dB -15.53 dB 2:21 09-How Happy I Am
DR13 -0.39 dB -17.27 dB 4:48 10-Empty Pocket Blues
DR12 -0.02 dB -15.30 dB 3:48 11-Smoke Shovelling Song
DR14 -1.99 dB -20.32 dB 2:15 12-Can't Keep Me Here
DR12 -1.43 dB -17.63 dB 3:31 13-Good as Gone
DR14 0.00 dB -17.08 dB 3:15 14-Footsteps of the Heron
DR13 -0.02 dB -15.71 dB 2:10 15-Niggertown
DR12 -0.11 dB -14.30 dB 2:13 16-Everything's Fine Right Now
––––––––––––––––––––––––––––––––––––––––

Number of tracks: 16
Official DR value: DR12

Samplerate: 44100 Hz
Channels: 2
Bits per sample: 16
Bitrate: 803 kbps
Codec: FLAC
================================================================================




The Incredible String Band - First Four Albums 1966-1968 (5CD) Remastered Reissues 2010 [Re-Up]

The Incredible String Band - The 5000 Spirits or the Layers of the Onion (1967) Remastered 2010
EAC | FLAC | Tracks (Cue&Log) ~ 303 Mb | Mp3 (CBR320) ~ 126 Mb | Scans included
Label: Fledg'ling | # FLED 3077 | Time: 00:50:06

In 1967, Joe Boyd had signed the Incredible String Band, who were then down to Robin Williamson, Mike Heron, and Licorice McKechnie, to Elektra. The 5000 Spirits or Layers of the Onion had been crafted in a cottage in Glasgow, but Boyd wanted a proper recording studio to get it on tape. He chose engineer John Wood's Chelsea studio for the sessions. Recorded on a four-track machine, Boyd and Wood proceeded to capture the very best of the dozens of songs Williamson and Heron brought in. Influenced heavily by the era – this was the summer of love, after all – and North African music due to Williamson’s recent trip to Morocco, the set is one of the most ambitious albums in the band’s catalog. The trio were also accompanied by Danny Thompson on bass on seven tracks, as well as Nazir Jarazbhoy on sitar. The standout tracks include “First Girl I Loved” (later covered by Judy Collins and Jackson Browne), and the cosmic folk-blues “The Mad Hatter’s Song.” On this set, British folk often comes up against against Williamson’s fascination with Middle Eastern sounds – check the bowed gimbri hovering and flitting about the acoustic guitar on “Chinese White,” and the hand drums underscoring the acoustic slide guitar on “The Hedgehog Song.” Thompson’s bass and Williamson’s harmonica are the only elements that keep “Blues for the Muse” on the ground – barely a blues at all because of the way it pushes the 12-bar envelope. The brief “My Name Is Death” begins as a one-chord drone before it moves back to a more formally constructed 18th century traditional song. The meld of all ISB’s influences are heard on “Gently Tender,” a beautiful if somewhat anarchic tune where flutes, acoustic blues, hand drums, bass, gimbri, and sitar are all employed. This set stands as one of the true masterpieces in the group's catalog.

Review by Thom Jurek, Allmusic.com

Tracklist:

01. Chinese White (3:41)
02. No Sleep Blues (3:53)
03. Painting Box (4:04)
04. The Mad Hatter's Song (5:40)
05. Little Cloud (4:05)
06. The Eyes of Fate (4:02)
07. Blues for the Muse (2:48)
08. The Hedgehog's Song (3:30)
09. First Girl I Loved (4:54)
10. You Know What You Could Be (2:46)
11. My Name Is Death (2:46)
12. Gently Tender (4:48)
13. Way Back in the 1960s (3:10)


Exact Audio Copy V1.0 beta 2 from 29. April 2011

EAC extraction logfile from 8. July 2011, 10:11

The Incredible String Band / The 5000 Spirits or the Layers of the Onion

Used drive : ASUS SDRW-08D2S-U Adapter: 1 ID: 0

Read mode : Secure
Utilize accurate stream : Yes
Defeat audio cache : Yes
Make use of C2 pointers : No

Read offset correction : 103
Overread into Lead-In and Lead-Out : No
Fill up missing offset samples with silence : Yes
Delete leading and trailing silent blocks : No
Null samples used in CRC calculations : Yes
Used interface : Native Win32 interface for Win NT & 2000
Gap handling : Appended to previous track

Used output format : User Defined Encoder
Selected bitrate : 1024 kBit/s
Quality : High
Add ID3 tag : No
Command line compressor : C:\Program Files (x86)\Exact Audio Copy\Flac\flac.exe
Additional command line options : -8 -V -T "ARTIST=%artist%" -T "TITLE=%title%" -T "ALBUM=%albumtitle%" -T "DATE=%year%" -T "TRACKNUMBER=%tracknr%" -T "GENRE=%genre%" -T "PERFORMER=%albuminterpret%" -T "COMPOSER=%composer%" %haslyrics%–tag-from-file=LYRICS


TOC of the extracted CD

Track | Start | Length | Start sector | End sector
––––––––––––––––––––––––––––-
1 | 0:00.00 | 3:40.45 | 0 | 16544
2 | 3:40.45 | 3:52.50 | 16545 | 33994
3 | 7:33.20 | 4:03.55 | 33995 | 52274
4 | 11:37.00 | 5:39.48 | 52275 | 77747
5 | 17:16.48 | 4:04.45 | 77748 | 96092
6 | 21:21.18 | 4:02.22 | 96093 | 114264
7 | 25:23.40 | 2:48.27 | 114265 | 126891
8 | 28:11.67 | 3:30.05 | 126892 | 142646
9 | 31:41.72 | 4:53.69 | 142647 | 164690
10 | 36:35.66 | 2:46.16 | 164691 | 177156
11 | 39:22.07 | 2:45.64 | 177157 | 189595
12 | 42:07.71 | 4:48.37 | 189596 | 211232
13 | 46:56.33 | 3:10.33 | 211233 | 225515


Track 1

Filename C:\Rips\The Incredible String Band - The 5000 Spirits or the Layers of the Onion (1967; 2010) [FLAC]\01 - Chinese White.wav

Pre-gap length 0:00:02.00

Peak level 95.3 %
Extraction speed 1.2 X
Track quality 100.0 %
Test CRC 38BF2B86
Copy CRC 38BF2B86
Accurately ripped (confidence 2) [1D1F7871] (AR v2)
Copy OK

Track 2

Filename C:\Rips\The Incredible String Band - The 5000 Spirits or the Layers of the Onion (1967; 2010) [FLAC]\02 - No Sleep Blues.wav

Pre-gap length 0:00:02.65

Peak level 98.3 %
Extraction speed 1.3 X
Track quality 100.0 %
Test CRC BAB022E2
Copy CRC BAB022E2
Accurately ripped (confidence 2) [8D25A08A] (AR v2)
Copy OK

Track 3

Filename C:\Rips\The Incredible String Band - The 5000 Spirits or the Layers of the Onion (1967; 2010) [FLAC]\03 - Painting Box.wav

Pre-gap length 0:00:02.54

Peak level 94.5 %
Extraction speed 1.5 X
Track quality 100.0 %
Test CRC 1B5CF77D
Copy CRC 1B5CF77D
Accurately ripped (confidence 2) [F1BB5E52] (AR v2)
Copy OK

Track 4

Filename C:\Rips\The Incredible String Band - The 5000 Spirits or the Layers of the Onion (1967; 2010) [FLAC]\04 - The Mad Hatter's Song.wav

Pre-gap length 0:00:03.24

Peak level 100.0 %
Extraction speed 1.5 X
Track quality 99.9 %
Test CRC D8090028
Copy CRC D8090028
Accurately ripped (confidence 2) [B7C5312F] (AR v2)
Copy OK

Track 5

Filename C:\Rips\The Incredible String Band - The 5000 Spirits or the Layers of the Onion (1967; 2010) [FLAC]\05 - Little Cloud.wav

Pre-gap length 0:00:03.02

Peak level 95.4 %
Extraction speed 1.7 X
Track quality 100.0 %
Test CRC 43F0AD44
Copy CRC 43F0AD44
Accurately ripped (confidence 2) [ECE1FD73] (AR v2)
Copy OK

Track 6

Filename C:\Rips\The Incredible String Band - The 5000 Spirits or the Layers of the Onion (1967; 2010) [FLAC]\06 - The Eyes of Fate.wav

Pre-gap length 0:00:02.59

Peak level 98.6 %
Extraction speed 1.8 X
Track quality 100.0 %
Test CRC FA5B66ED
Copy CRC FA5B66ED
Accurately ripped (confidence 2) [D9FD9D48] (AR v2)
Copy OK

Track 7

Filename C:\Rips\The Incredible String Band - The 5000 Spirits or the Layers of the Onion (1967; 2010) [FLAC]\07 - Blues for the Muse.wav

Pre-gap length 0:00:02.70

Peak level 99.8 %
Extraction speed 1.8 X
Track quality 100.0 %
Test CRC 8F90B572
Copy CRC 8F90B572
Accurately ripped (confidence 2) [1B1F68B6] (AR v2)
Copy OK

Track 8

Filename C:\Rips\The Incredible String Band - The 5000 Spirits or the Layers of the Onion (1967; 2010) [FLAC]\08 - The Hedgehog's Song.wav

Pre-gap length 0:00:02.60

Peak level 96.1 %
Extraction speed 1.9 X
Track quality 100.0 %
Test CRC A0C94BE4
Copy CRC A0C94BE4
Accurately ripped (confidence 2) [93A4F5D1] (AR v2)
Copy OK

Track 9

Filename C:\Rips\The Incredible String Band - The 5000 Spirits or the Layers of the Onion (1967; 2010) [FLAC]\09 - First Girl I Loved.wav

Pre-gap length 0:00:02.62

Peak level 97.5 %
Extraction speed 2.1 X
Track quality 100.0 %
Test CRC C4C4D9BF
Copy CRC C4C4D9BF
Accurately ripped (confidence 2) [DD307656] (AR v2)
Copy OK

Track 10

Filename C:\Rips\The Incredible String Band - The 5000 Spirits or the Layers of the Onion (1967; 2010) [FLAC]\10 - You Know What You Could Be.wav

Pre-gap length 0:00:02.51

Peak level 98.8 %
Extraction speed 2.0 X
Track quality 100.0 %
Test CRC F6E6A3BB
Copy CRC F6E6A3BB
Accurately ripped (confidence 2) [59684092] (AR v2)
Copy OK

Track 11

Filename C:\Rips\The Incredible String Band - The 5000 Spirits or the Layers of the Onion (1967; 2010) [FLAC]\11 - My Name Is Death.wav

Pre-gap length 0:00:02.41

Peak level 90.4 %
Extraction speed 2.1 X
Track quality 100.0 %
Test CRC 4C55D525
Copy CRC 4C55D525
Accurately ripped (confidence 2) [ED7CCF2F] (AR v2)
Copy OK

Track 12

Filename C:\Rips\The Incredible String Band - The 5000 Spirits or the Layers of the Onion (1967; 2010) [FLAC]\12 - Gently Tender.wav

Pre-gap length 0:00:02.71

Peak level 98.8 %
Extraction speed 2.1 X
Track quality 99.9 %
Test CRC 9B87909D
Copy CRC 9B87909D
Accurately ripped (confidence 2) [ADE32B73] (AR v2)
Copy OK

Track 13

Filename C:\Rips\The Incredible String Band - The 5000 Spirits or the Layers of the Onion (1967; 2010) [FLAC]\13 - Way Back in the 1960s.wav

Pre-gap length 0:00:02.72

Peak level 98.8 %
Extraction speed 2.2 X
Track quality 100.0 %
Test CRC 6168D3CB
Copy CRC 6168D3CB
Accurately ripped (confidence 2) [5F801954] (AR v2)
Copy OK


All tracks accurately ripped

No errors occurred

End of status report

==== Log checksum AF595C0B6433203CB409A34556CC81C7A7FAE9083BF1A963D42F107F3B7B43E5 ====

foobar2000 1.2 / Dynamic Range Meter 1.1.1
log date: 2015-10-31 14:20:33

––––––––––––––––––––––––––––––––––––––––
Analyzed: The Incredible String Band / The 5000 Spirits or the Layers of the Onion
––––––––––––––––––––––––––––––––––––––––

DR Peak RMS Duration Track
––––––––––––––––––––––––––––––––––––––––
DR11 -0.41 dB -15.40 dB 3:41 01-Chinese White
DR11 -0.14 dB -14.37 dB 3:53 02-No Sleep Blues
DR11 -0.48 dB -14.20 dB 4:04 03-Painting Box
DR11 0.00 dB -14.82 dB 5:40 04-The Mad Hatter's Song
DR12 -0.40 dB -15.01 dB 4:05 05-Little Cloud
DR11 -0.12 dB -15.53 dB 4:02 06-The Eyes of Fate
DR10 -0.01 dB -12.59 dB 2:48 07-Blues for the Muse
DR12 -0.34 dB -15.75 dB 3:30 08-The Hedgehog's Song
DR11 -0.22 dB -15.01 dB 4:54 09-First Girl I Loved
DR11 -0.10 dB -14.68 dB 2:46 10-You Know What You Could Be
DR11 -0.88 dB -16.65 dB 2:46 11-My Name Is Death
DR12 -0.10 dB -15.38 dB 4:48 12-Gently Tender
DR10 -0.10 dB -12.79 dB 3:10 13-Way Back in the 1960s
––––––––––––––––––––––––––––––––––––––––

Number of tracks: 13
Official DR value: DR11

Samplerate: 44100 Hz
Channels: 2
Bits per sample: 16
Bitrate: 877 kbps
Codec: FLAC
================================================================================




The Incredible String Band - First Four Albums 1966-1968 (5CD) Remastered Reissues 2010 [Re-Up]

The Incredible String Band - The Hangman's Beautiful Daughter (1968) Remastered 2010
XLD | FLAC | Tracks (Cue&Log) ~ 315 Mb | Mp3 (CBR320) ~ 123 Mb | Scans included
Label: Fledg'ling | # FLED 3078 | Time: 00:49:40

The Hangman’s Beautiful Daughter stands as the Incredible String Band's undisputed classic among critics and musicians alike – ask Robert Plant, who touted its influence on Led Zeppelin's first album and general direction. Recorded and released in 1968, the album hit number five on the U.K. album charts, and was nominated for a Grammy in the U.S. It was produced by Joe Boyd, and engineered by John Wood using 24-track technology. Robin Williamson, Mike Heron, and Licorice McKechnie also utilized the talents of Dolly Collins (vocals, flute, organ, and piano), and David Snell (harp). Williamson and Heron employed a vast array of instruments on these songs including sitar, gimbri, pan pipe, oud, chahanai, mandolin, guitars, Hammond B-3, dulcimer, harpsichord, pan pipes, oud, water harp, and harmonica. The songs were much more freeform and experimental. Check Heron’s 13-minute “A Very Cellular Song,” which incorporates elements from a Sikh hymn and a Bahamian spiritual. Using the Hammond, a gimbri, pan pipes, handclaps, and other instruments, it begins on a two-chord vamp that employs a vocal round in five-part harmony, with secular and spiritual lyrics. It’s simply infectious. Other notables include the stellar “The Minotaur’s Song,” with its call and response chorus played on guitars, upright piano, and six-part harmonies. It melds a children's song with a drinking song to humorous and utterly memorable effect. Elsewhere, “Waltz of the New Moon,” employs two-chord drones on acoustic guitar with a meld of Middle Eastern vocal styles and Scottish field songs. “Three Is a Green Crown” is a psychedelic folk song in all its hypnotic droning glory with Williamson’s primitive sitar playing featured prominently. The tender, exotic, "Nightfall,” the album’s closer, is a lullaby, with guitar and sitar accompanying the vocal in whole tone intervals. The Hangman’s Beautiful Daughter is the most ambitious, focused, and brilliantly executed record in ISB’s catalog.

Review by Thom Jurek, Allmusic.com

Tracklist:

01. Koeeoaddi There (4:48)
02. The Minotaur's Song (3:20)
03. Witches Hat (2:35)
04. A Very Cellular Song (13:04)
05. Mercy I Cry City (2:47)
06. Waltz of the New Moon (5:08)
07. The Water Song (2:52)
08. Three Is a Green Crown (7:44)
09. Swift as the Wind (4:52)
10. Nightfall (2:31)


X Lossless Decoder version 20100711 (120.5)

XLD extraction logfile from 2010-07-12 20:39:07 -0400

The Incredible String Band / The Hangman's Beautiful Daughter

Used drive : MATSHITA CD-RW CW-8221 (revision GA0H)

Use cdparanoia mode : YES (CDParanoia III 10.2 engine)
Disable audio cache : OK for the drive with cache less than 2750KB
Make use of C2 pointers : NO
Read offset correction : 102
Max retry count : 100
Gap status : Analyzed, Appended

TOC of the extracted CD
Track | Start | Length | Start sector | End sector
––––––––––––––––––––––––––––-
1 | 00:00:00 | 04:47:74 | 0 | 21598
2 | 04:47:74 | 03:19:73 | 21599 | 36596
3 | 08:07:72 | 02:34:68 | 36597 | 48214
4 | 10:42:65 | 13:03:64 | 48215 | 107003
5 | 23:46:54 | 02:46:42 | 107004 | 119495
6 | 26:33:21 | 05:07:57 | 119496 | 142577
7 | 31:41:03 | 02:52:29 | 142578 | 155506
8 | 34:33:32 | 07:44:29 | 155507 | 190335
9 | 42:17:61 | 04:51:64 | 190336 | 212224
10 | 47:09:50 | 02:30:42 | 212225 | 223516


Track 01
Filename : /Users/victorychimp/Desktop/rips/01 Koeeoaddi There.flac
/Users/victorychimp/Desktop/rips/01 Koeeoaddi There.mp3

Pre-gap length : 00:02:00

CRC32 hash (test run) : 36276693
CRC32 hash : 36276693
CRC32 hash (skip zero) : 2AC86D9D
AccurateRip signature : ADD5BEC1
->Accurately ripped! (confidence 1)
Statistics
Read error : 0
Skipped (treated as error) : 0
Edge jitter error (maybe fixed) : 0
Atom jitter error (maybe fixed) : 0
Drift error (maybe fixed) : 0
Dropped bytes error (maybe fixed) : 0
Duplicated bytes error (maybe fixed) : 0
Inconsistency in error sectors : 0

Track 02
Filename : /Users/victorychimp/Desktop/rips/02 The Minotaur's Song.flac
/Users/victorychimp/Desktop/rips/02 The Minotaur's Song.mp3

Pre-gap length : 00:01:50

CRC32 hash (test run) : DC0561F7
CRC32 hash : DC0561F7
CRC32 hash (skip zero) : 167E3224
AccurateRip signature : 64A2D043
->Accurately ripped! (confidence 1)
Statistics
Read error : 0
Skipped (treated as error) : 0
Edge jitter error (maybe fixed) : 0
Atom jitter error (maybe fixed) : 0
Drift error (maybe fixed) : 0
Dropped bytes error (maybe fixed) : 0
Duplicated bytes error (maybe fixed) : 0
Inconsistency in error sectors : 0

Track 03
Filename : /Users/victorychimp/Desktop/rips/03 Witches Hat.flac
/Users/victorychimp/Desktop/rips/03 Witches Hat.mp3

Pre-gap length : 00:02:74

CRC32 hash (test run) : C6F52D7D
CRC32 hash : C6F52D7D
CRC32 hash (skip zero) : 1EABB2D2
AccurateRip signature : 3000BFC0
->Accurately ripped! (confidence 1)
Statistics
Read error : 0
Skipped (treated as error) : 0
Edge jitter error (maybe fixed) : 0
Atom jitter error (maybe fixed) : 0
Drift error (maybe fixed) : 0
Dropped bytes error (maybe fixed) : 0
Duplicated bytes error (maybe fixed) : 0
Inconsistency in error sectors : 0

Track 04
Filename : /Users/victorychimp/Desktop/rips/04 A Very Cellular Song.flac
/Users/victorychimp/Desktop/rips/04 A Very Cellular Song.mp3

Pre-gap length : 00:04:66

CRC32 hash (test run) : 09EAF92D
CRC32 hash : 09EAF92D
CRC32 hash (skip zero) : 5CF5CB48
AccurateRip signature : 7DA0E54E
->Accurately ripped! (confidence 1)
Statistics
Read error : 0
Skipped (treated as error) : 0
Edge jitter error (maybe fixed) : 0
Atom jitter error (maybe fixed) : 0
Drift error (maybe fixed) : 0
Dropped bytes error (maybe fixed) : 0
Duplicated bytes error (maybe fixed) : 0
Inconsistency in error sectors : 0

Track 05
Filename : /Users/victorychimp/Desktop/rips/05 Mercy I Cry City.flac
/Users/victorychimp/Desktop/rips/05 Mercy I Cry City.mp3

Pre-gap length : 00:03:19

CRC32 hash (test run) : 3A7DBD61
CRC32 hash : 3A7DBD61
CRC32 hash (skip zero) : 7A7D5F29
AccurateRip signature : F69C9CDE
->Accurately ripped! (confidence 1)
Statistics
Read error : 0
Skipped (treated as error) : 0
Edge jitter error (maybe fixed) : 0
Atom jitter error (maybe fixed) : 0
Drift error (maybe fixed) : 0
Dropped bytes error (maybe fixed) : 0
Duplicated bytes error (maybe fixed) : 0
Inconsistency in error sectors : 0

Track 06
Filename : /Users/victorychimp/Desktop/rips/06 Waltz of the New Moon.flac
/Users/victorychimp/Desktop/rips/06 Waltz of the New Moon.mp3

Pre-gap length : 00:04:74

CRC32 hash (test run) : 77AB50B8
CRC32 hash : 77AB50B8
CRC32 hash (skip zero) : D00AF1D7
AccurateRip signature : 7BE7E58D
->Accurately ripped! (confidence 1)
Statistics
Read error : 0
Skipped (treated as error) : 0
Edge jitter error (maybe fixed) : 0
Atom jitter error (maybe fixed) : 0
Drift error (maybe fixed) : 0
Dropped bytes error (maybe fixed) : 0
Duplicated bytes error (maybe fixed) : 0
Inconsistency in error sectors : 0

Track 07
Filename : /Users/victorychimp/Desktop/rips/07 The Water Song.flac
/Users/victorychimp/Desktop/rips/07 The Water Song.mp3

CRC32 hash (test run) : 8FC69D4A
CRC32 hash : 8FC69D4A
CRC32 hash (skip zero) : BA1FF6B8
AccurateRip signature : 7B391E8C
->Accurately ripped! (confidence 1)
Statistics
Read error : 0
Skipped (treated as error) : 0
Edge jitter error (maybe fixed) : 0
Atom jitter error (maybe fixed) : 0
Drift error (maybe fixed) : 0
Dropped bytes error (maybe fixed) : 0
Duplicated bytes error (maybe fixed) : 0
Inconsistency in error sectors : 0

Track 08
Filename : /Users/victorychimp/Desktop/rips/08 Three Is a Green Crown.flac
/Users/victorychimp/Desktop/rips/08 Three Is a Green Crown.mp3

Pre-gap length : 00:04:37

CRC32 hash (test run) : 0FF28FF2
CRC32 hash : 0FF28FF2
CRC32 hash (skip zero) : CFDDA5B4
AccurateRip signature : ED2819FA
->Accurately ripped! (confidence 1)
Statistics
Read error : 0
Skipped (treated as error) : 0
Edge jitter error (maybe fixed) : 0
Atom jitter error (maybe fixed) : 0
Drift error (maybe fixed) : 0
Dropped bytes error (maybe fixed) : 0
Duplicated bytes error (maybe fixed) : 0
Inconsistency in error sectors : 0

Track 09
Filename : /Users/victorychimp/Desktop/rips/09 Swift as the Wind.flac
/Users/victorychimp/Desktop/rips/09 Swift as the Wind.mp3

Pre-gap length : 00:03:69

CRC32 hash (test run) : 3D029422
CRC32 hash : 3D029422
CRC32 hash (skip zero) : 0584A15E
AccurateRip signature : 84C5D047
->Accurately ripped! (confidence 1)
Statistics
Read error : 0
Skipped (treated as error) : 0
Edge jitter error (maybe fixed) : 0
Atom jitter error (maybe fixed) : 0
Drift error (maybe fixed) : 0
Dropped bytes error (maybe fixed) : 0
Duplicated bytes error (maybe fixed) : 0
Inconsistency in error sectors : 0

Track 10
Filename : /Users/victorychimp/Desktop/rips/10 Nightfall.flac
/Users/victorychimp/Desktop/rips/10 Nightfall.mp3

Pre-gap length : 00:03:48

CRC32 hash (test run) : ECA773E2
CRC32 hash : ECA773E2
CRC32 hash (skip zero) : 765F0789
AccurateRip signature : 906EE6DB
->Accurately ripped! (confidence 1)
Statistics
Read error : 0
Skipped (treated as error) : 0
Edge jitter error (maybe fixed) : 0
Atom jitter error (maybe fixed) : 0
Drift error (maybe fixed) : 0
Dropped bytes error (maybe fixed) : 0
Duplicated bytes error (maybe fixed) : 0
Inconsistency in error sectors : 0

No errors occurred

End of status report

foobar2000 1.2 / Dynamic Range Meter 1.1.1
log date: 2015-10-31 14:20:47

––––––––––––––––––––––––––––––––––––––––
Analyzed: The Incredible String Band / The Hangman's Beautiful Daughter
––––––––––––––––––––––––––––––––––––––––

DR Peak RMS Duration Track
––––––––––––––––––––––––––––––––––––––––
DR9 -1.65 dB -12.35 dB 4:48 01-Koeeoaddi There
DR7 -1.34 dB -11.20 dB 3:20 02-The Minotaur's Song
DR10 -1.91 dB -14.46 dB 2:35 03-Witches Hat
DR10 0.00 dB -13.33 dB 13:04 04-A Very Cellular Song
DR9 -0.79 dB -13.13 dB 2:47 05-Mercy I Cry City
DR8 -0.70 dB -11.46 dB 5:08 06-Waltz of the New Moon
DR9 -2.69 dB -15.51 dB 2:52 07-The Water Song
DR8 -0.10 dB -11.23 dB 7:44 08-Three Is a Green Crown
DR9 -0.59 dB -12.78 dB 4:52 09-Swift as the Wind
DR10 -1.45 dB -14.70 dB 2:31 10-Nightfall
––––––––––––––––––––––––––––––––––––––––

Number of tracks: 10
Official DR value: DR9

Samplerate: 44100 Hz
Channels: 2
Bits per sample: 16
Bitrate: 829 kbps
Codec: FLAC
================================================================================




The Incredible String Band - First Four Albums 1966-1968 (5CD) Remastered Reissues 2010 [Re-Up]

The Incredible String Band - Wee Tam & The Big Huge (1968) 2CD Remastered 2010
EAC | FLAC | Tracks (Cue&Log) ~ 530 Mb | Mp3 (CBR320) ~ 215 Mb | Scans included
Label: Fledg'ling | # FLED 3079 | Time: 01:27:55

Originally issued as a double LP set in 1968 in the U.K, Wee Tam & the Big Huge was split into two LPs for the U.S. market in 1969 to no avail; they still didn't sell. The music on these two albums is ultimately kinder than the Incredible String Band's earlier albums, their self-titled debut, and The 5000 Spirits or the Layers of the Onion and The Hangman's Beautiful Daughter. While the bandmembers didn't give up their use of many Eastern string and reed instruments, they did employ more conventional Western folk song structures (somewhat), making the ease-of-listening factor much higher. Robin Williamson and Mike Heron, with Rose Simpson and Licorice McKechie, began to move toward the forefront of the collective here, asserting their often complementary but sometimes clashing styles over the gorgeous voices of the two women. The songs on the the Wee Tam half are somewhat stronger, but those on the latter one possess a certain spaciness and childishness that is charmingly anarchic in spirit. What sets these records apart from the previous albums is that here the Incredible String Band accepted their mantle as a band, letting the excess fall by the wayside and actually writing "conventional" songs without giving up either their love for arcane music and quirky humor or the influence of LSD culture that informed their artistic venture from the jump. Wee Tam & the Big Huge is not the innocent journey of a host of lost hippies in love with making weird, wonderful music from the wreckage of the distant past. Instead, the mysticism of the then-present era of the 1960s is fused together with progressive and ancient British Isles folk styles to produce a startlingly focused work. Ultimately, Wee Tam & the Big Huge is the sound of a band coming into its own.

Review by Thom Jurek, Allmusic.com

Tracklist:

CD1 - Wee Tam:

01. Job's Tears (6:50)
02. Puppies (5:25)
03. Beyond the See (2:21)
04. The Yellow Snake (2:09)
05. Log Cabin Home in the Sky (4:05)
06. You Get Brighter (5:50)
07. The Half-Remarkable Question (5:07)
08. Air (3:18)
09. Ducks on a Pond (9:11)

CD2 - The Big Huge:

01. Maya (9:24)
02. Greatest Friend (3:47)
03. The Son of Noah's Brother (0:22)
04. Lordly Nightshade (5:14)
05. The Mountain of God (1:56)
06. Cousin Caterpillar (5:19)
07. The Iron Stone (6:32)
08. Douglas Traherne Harding (6:21)
09. The Circle Is Unbroken (4:41)


Exact Audio Copy V1.0 beta 2 from 29. April 2011

EAC extraction logfile from 8. July 2011, 23:10

The Incredible String Band / Wee Tam & The Big Huge

Used drive : ASUS SDRW-08D2S-U Adapter: 1 ID: 0

Read mode : Secure
Utilize accurate stream : Yes
Defeat audio cache : Yes
Make use of C2 pointers : No

Read offset correction : 103
Overread into Lead-In and Lead-Out : No
Fill up missing offset samples with silence : Yes
Delete leading and trailing silent blocks : No
Null samples used in CRC calculations : Yes
Used interface : Native Win32 interface for Win NT & 2000
Gap handling : Appended to previous track

Used output format : User Defined Encoder
Selected bitrate : 1024 kBit/s
Quality : High
Add ID3 tag : No
Command line compressor : C:\Program Files (x86)\Exact Audio Copy\Flac\flac.exe
Additional command line options : -8 -V -T "ARTIST=%artist%" -T "TITLE=%title%" -T "ALBUM=%albumtitle%" -T "DATE=%year%" -T "TRACKNUMBER=%tracknr%" -T "GENRE=%genre%" -T "PERFORMER=%albuminterpret%" -T "COMPOSER=%composer%" %haslyrics%–tag-from-file=LYRICS


TOC of the extracted CD

Track | Start | Length | Start sector | End sector
––––––––––––––––––––––––––––-
1 | 0:00.00 | 6:49.61 | 0 | 30735
2 | 6:49.61 | 5:25.05 | 30736 | 55115
3 | 12:14.66 | 2:21.32 | 55116 | 65722
4 | 14:36.23 | 2:09.35 | 65723 | 75432
5 | 16:45.58 | 4:05.34 | 75433 | 93841
6 | 20:51.17 | 5:50.24 | 93842 | 120115
7 | 26:41.41 | 5:07.11 | 120116 | 143151
8 | 31:48.52 | 3:18.09 | 143152 | 158010
9 | 35:06.61 | 9:10.55 | 158011 | 199315


Track 1

Filename C:\Rips\The Incredible String Band - Wee Tam & The Big Huge (1969; 2010 Remaster) [FLAC]\Disc 1 (Wee Tam)\01 - Job's Tears.wav

Pre-gap length 0:00:02.00

Peak level 77.1 %
Extraction speed 1.3 X
Track quality 100.0 %
Test CRC C22D1428
Copy CRC C22D1428
Accurately ripped (confidence 6) [7F71422E] (AR v1)
Copy OK

Track 2

Filename C:\Rips\The Incredible String Band - Wee Tam & The Big Huge (1969; 2010 Remaster) [FLAC]\Disc 1 (Wee Tam)\02 - Puppies.wav

Pre-gap length 0:00:05.21

Peak level 94.9 %
Extraction speed 1.5 X
Track quality 100.0 %
Test CRC 01964E29
Copy CRC 01964E29
Accurately ripped (confidence 6) [434CF6B0] (AR v1)
Copy OK

Track 3

Filename C:\Rips\The Incredible String Band - Wee Tam & The Big Huge (1969; 2010 Remaster) [FLAC]\Disc 1 (Wee Tam)\03 - Beyond the See.wav

Pre-gap length 0:00:01.73

Peak level 68.6 %
Extraction speed 1.2 X
Track quality 99.9 %
Test CRC 668E31CF
Copy CRC 668E31CF
Accurately ripped (confidence 6) [A962304D] (AR v1)
Copy OK

Track 4

Filename C:\Rips\The Incredible String Band - Wee Tam & The Big Huge (1969; 2010 Remaster) [FLAC]\Disc 1 (Wee Tam)\04 - The Yellow Snake.wav

Pre-gap length 0:00:05.27

Peak level 67.2 %
Extraction speed 1.2 X
Track quality 99.9 %
Test CRC 34ECBBFA
Copy CRC 34ECBBFA
Accurately ripped (confidence 6) [56816D91] (AR v1)
Copy OK

Track 5

Filename C:\Rips\The Incredible String Band - Wee Tam & The Big Huge (1969; 2010 Remaster) [FLAC]\Disc 1 (Wee Tam)\05 - Log Cabin Home in the Sky.wav

Pre-gap length 0:00:04.17

Peak level 84.2 %
Extraction speed 1.7 X
Track quality 100.0 %
Test CRC A9FB9382
Copy CRC A9FB9382
Accurately ripped (confidence 6) [D2B48A6F] (AR v1)
Copy OK

Track 6

Filename C:\Rips\The Incredible String Band - Wee Tam & The Big Huge (1969; 2010 Remaster) [FLAC]\Disc 1 (Wee Tam)\06 - You Get Brighter.wav

Pre-gap length 0:00:03.39

Peak level 68.7 %
Extraction speed 1.9 X
Track quality 100.0 %
Test CRC 0E9C791F
Copy CRC 0E9C791F
Accurately ripped (confidence 6) [EA8DF653] (AR v1)
Copy OK

Track 7

Filename C:\Rips\The Incredible String Band - Wee Tam & The Big Huge (1969; 2010 Remaster) [FLAC]\Disc 1 (Wee Tam)\07 - The Half-Remarkable Question.wav

Pre-gap length 0:00:03.67

Peak level 74.8 %
Extraction speed 2.0 X
Track quality 100.0 %
Test CRC 352AF8CA
Copy CRC 352AF8CA
Accurately ripped (confidence 6) [635AB942] (AR v1)
Copy OK

Track 8

Filename C:\Rips\The Incredible String Band - Wee Tam & The Big Huge (1969; 2010 Remaster) [FLAC]\Disc 1 (Wee Tam)\08 - Air.wav

Pre-gap length 0:00:04.00

Peak level 86.7 %
Extraction speed 2.0 X
Track quality 100.0 %
Test CRC A599927F
Copy CRC A599927F
Accurately ripped (confidence 6) [5D6C90AF] (AR v1)
Copy OK

Track 9

Filename C:\Rips\The Incredible String Band - Wee Tam & The Big Huge (1969; 2010 Remaster) [FLAC]\Disc 1 (Wee Tam)\09 - Ducks on a Pond.wav

Pre-gap length 0:00:03.29

Peak level 100.0 %
Extraction speed 2.4 X
Track quality 100.0 %
Test CRC 9E2BAFA9
Copy CRC 9E2BAFA9
Accurately ripped (confidence 6) [C5DCE72A] (AR v1)
Copy OK


All tracks accurately ripped

No errors occurred

End of status report

==== Log checksum 10B47225FCF378A37E6188859AFB16E9A31AED8EEDF85793CB46858B2B15BB15 ====

foobar2000 1.2 / Dynamic Range Meter 1.1.1
log date: 2015-10-31 14:20:59

––––––––––––––––––––––––––––––––––––––––
Analyzed: The Incredible String Band / Wee Tam & The Big Huge
––––––––––––––––––––––––––––––––––––––––

DR Peak RMS Duration Track
––––––––––––––––––––––––––––––––––––––––
DR9 -2.25 dB -14.95 dB 6:50 01-Job's Tears
DR12 -0.45 dB -17.19 dB 5:25 02-Puppies
DR9 -3.26 dB -16.61 dB 2:21 03-Beyond the See
DR10 -3.44 dB -17.47 dB 2:09 04-The Yellow Snake
DR9 -1.49 dB -12.94 dB 4:05 05-Log Cabin Home in the Sky
DR9 -3.25 dB -14.73 dB 5:50 06-You Get Brighter
DR10 -2.51 dB -15.32 dB 5:07 07-The Half-Remarkable Question
DR9 -1.24 dB -13.71 dB 3:18 08-Air
DR11 0.00 dB -13.55 dB 9:11 09-Ducks on a Pond
––––––––––––––––––––––––––––––––––––––––

Number of tracks: 9
Official DR value: DR10

Samplerate: 44100 Hz
Channels: 2
Bits per sample: 16
Bitrate: 887 kbps
Codec: FLAC
================================================================================


Exact Audio Copy V1.0 beta 2 from 29. April 2011

EAC extraction logfile from 9. July 2011, 8:42

The Incredible String Band / Wee Tam & The Big Huge

Used drive : ASUS SDRW-08D2S-U Adapter: 1 ID: 0

Read mode : Secure
Utilize accurate stream : Yes
Defeat audio cache : Yes
Make use of C2 pointers : No

Read offset correction : 103
Overread into Lead-In and Lead-Out : No
Fill up missing offset samples with silence : Yes
Delete leading and trailing silent blocks : No
Null samples used in CRC calculations : Yes
Used interface : Native Win32 interface for Win NT & 2000
Gap handling : Appended to previous track

Used output format : User Defined Encoder
Selected bitrate : 1024 kBit/s
Quality : High
Add ID3 tag : No
Command line compressor : C:\Program Files (x86)\Exact Audio Copy\Flac\flac.exe
Additional command line options : -8 -V -T "ARTIST=%artist%" -T "TITLE=%title%" -T "ALBUM=%albumtitle%" -T "DATE=%year%" -T "TRACKNUMBER=%tracknr%" -T "GENRE=%genre%" -T "PERFORMER=%albuminterpret%" -T "COMPOSER=%composer%" %haslyrics%–tag-from-file=LYRICS


TOC of the extracted CD

Track | Start | Length | Start sector | End sector
––––––––––––––––––––––––––––-
1 | 0:00.00 | 9:23.73 | 0 | 42297
2 | 9:23.73 | 3:47.37 | 42298 | 59359
3 | 13:11.35 | 0:22.19 | 59360 | 61028
4 | 13:33.54 | 5:13.69 | 61029 | 84572
5 | 18:47.48 | 1:56.29 | 84573 | 93301
6 | 20:44.02 | 5:19.28 | 93302 | 117254
7 | 26:03.30 | 6:31.72 | 117255 | 146651
8 | 32:35.27 | 6:21.16 | 146652 | 175242
9 | 38:56.43 | 4:41.16 | 175243 | 196333


Track 1

Filename C:\Rips\The Incredible String Band - Wee Tam & The Big Huge (1969; 2010 Remaster) [FLAC]\Disc 2 (The Big Huge)\01 - Maya.wav

Pre-gap length 0:00:02.00

Peak level 91.3 %
Extraction speed 1.4 X
Track quality 100.0 %
Test CRC 9FE2A01D
Copy CRC 9FE2A01D
Track not present in AccurateRip database
Copy OK

Track 2

Filename C:\Rips\The Incredible String Band - Wee Tam & The Big Huge (1969; 2010 Remaster) [FLAC]\Disc 2 (The Big Huge)\02 - Greatest Friend.wav

Peak level 83.3 %
Extraction speed 1.5 X
Track quality 100.0 %
Test CRC 45E74A54
Copy CRC 45E74A54
Track not present in AccurateRip database
Copy OK

Track 3

Filename C:\Rips\The Incredible String Band - Wee Tam & The Big Huge (1969; 2010 Remaster) [FLAC]\Disc 2 (The Big Huge)\03 - The Son of Noah's Brother.wav

Pre-gap length 0:00:06.06

Peak level 49.8 %
Extraction speed 0.4 X
Track quality 99.5 %
Test CRC 1CC2F9DC
Copy CRC 1CC2F9DC
Track not present in AccurateRip database
Copy OK

Track 4

Filename C:\Rips\The Incredible String Band - Wee Tam & The Big Huge (1969; 2010 Remaster) [FLAC]\Disc 2 (The Big Huge)\04 - Lordly Nightshade.wav

Pre-gap length 0:00:05.00

Peak level 85.8 %
Extraction speed 1.7 X
Track quality 100.0 %
Test CRC 3615E212
Copy CRC 3615E212
Track not present in AccurateRip database
Copy OK

Track 5

Filename C:\Rips\The Incredible String Band - Wee Tam & The Big Huge (1969; 2010 Remaster) [FLAC]\Disc 2 (The Big Huge)\05 - The Mountain of God.wav

Peak level 63.9 %
Extraction speed 1.5 X
Track quality 100.0 %
Test CRC 880DD6AB
Copy CRC 880DD6AB
Track not present in AccurateRip database
Copy OK

Track 6

Filename C:\Rips\The Incredible String Band - Wee Tam & The Big Huge (1969; 2010 Remaster) [FLAC]\Disc 2 (The Big Huge)\06 - Cousin Caterpillar.wav

Pre-gap length 0:00:03.03

Peak level 81.1 %
Extraction speed 1.7 X
Track quality 99.9 %
Test CRC 00A1DCAE
Copy CRC 00A1DCAE
Track not present in AccurateRip database
Copy OK

Track 7

Filename C:\Rips\The Incredible String Band - Wee Tam & The Big Huge (1969; 2010 Remaster) [FLAC]\Disc 2 (The Big Huge)\07 - The Iron Stone.wav

Pre-gap length 0:00:03.62

Peak level 85.0 %
Extraction speed 2.1 X
Track quality 100.0 %
Test CRC 4615B355
Copy CRC 4615B355
Track not present in AccurateRip database
Copy OK

Track 8

Filename C:\Rips\The Incredible String Band - Wee Tam & The Big Huge (1969; 2010 Remaster) [FLAC]\Disc 2 (The Big Huge)\08 - Douglas Traherne Harding.wav

Pre-gap length 0:00:03.72

Peak level 76.9 %
Extraction speed 2.2 X
Track quality 100.0 %
Test CRC 868A9581
Copy CRC 868A9581
Track not present in AccurateRip database
Copy OK

Track 9

Filename C:\Rips\The Incredible String Band - Wee Tam & The Big Huge (1969; 2010 Remaster) [FLAC]\Disc 2 (The Big Huge)\09 - The Circle Is Unbroken.wav

Pre-gap length 0:00:04.18

Peak level 67.0 %
Extraction speed 2.0 X
Track quality 99.9 %
Test CRC 99DF5972
Copy CRC 99DF5972
Track not present in AccurateRip database
Copy OK


None of the tracks are present in the AccurateRip database

No errors occurred

End of status report

==== Log checksum 6AE8C999191E0CA8B738191052F135F793E6F5A114965CD56551E8FE1ECE1842 ====

foobar2000 1.2 / Dynamic Range Meter 1.1.1
log date: 2015-10-31 14:21:10

––––––––––––––––––––––––––––––––––––––––
Analyzed: The Incredible String Band / Wee Tam & The Big Huge
––––––––––––––––––––––––––––––––––––––––

DR Peak RMS Duration Track
––––––––––––––––––––––––––––––––––––––––
DR11 -0.78 dB -16.01 dB 9:24 01-Maya
DR12 -1.58 dB -19.45 dB 3:47 02-Greatest Friend
DR10 -6.05 dB -21.96 dB 0:22 03-The Son of Noah's Brother
DR11 -1.32 dB -16.47 dB 5:14 04-Lordly Nightshade
DR10 -3.89 dB -17.65 dB 1:56 05-The Mountain of God
DR10 -1.81 dB -15.26 dB 5:19 06-Cousin Caterpillar
DR10 -1.41 dB -14.84 dB 6:32 07-The Iron Stone
DR10 -2.27 dB -14.61 dB 6:21 08-Douglas Traherne Harding
DR8 -3.47 dB -15.23 dB 4:41 09-The Circle Is Unbroken
––––––––––––––––––––––––––––––––––––––––

Number of tracks: 9
Official DR value: DR10

Samplerate: 44100 Hz
Channels: 2
Bits per sample: 16
Bitrate: 789 kbps
Codec: FLAC
================================================================================