Tags
Language
Tags

Jeroen van Veen - Minimal Piano Collection, Volumes I-IX (2006) 9CD Box Set [Re-Up]

Posted By: Designol
Jeroen van Veen - Minimal Piano Collection, Volumes I-IX (2006) 9CD Box Set [Re-Up]

Jeroen van Veen - Minimal Piano Collection, Volumes I-IX (2006) 9CD Box Set
Philip Glass - Michael Nyman - John Adams - Terry Riley - Arvo Pärt - John Cage
Friedrich Nietzsche - Erik Satie - Tom Johnson - Wim Mertens - Jacob ter Veldhuis
Yann Tiersen - Klaas de Vries - Simeon ten Holt - John Borstlap - Carlos Micháns

EAC | FLAC | Image (Cue&Log) ~ 2 Gb | Scans ~ 63 Mb | Time: 10:15:53
Classical, Minimalism, Contemporary | Label: Brilliant Classics | # 8551

There's perhaps a touch of irony in the title of Dutch pianist and composer Jeroen van Veen's box set Minimal Piano Collection because at nine discs, it's a pretty massive collection. The program booklet notes that he recorded the entire set, which includes more than ten hours of music, in only six days, an astounding feat. In the program notes, van Veen offers a remarkably clear and concise history of minimalism in music. He defines it broadly enough (following the lead of composer and critic Tom Johnson) to include works by Friedrich Nietzsche and Satie. Philip Glass is the composer most widely represented, with three of the set's nine CDs devoted to his music originally for piano, as well as transcriptions from his film scores and operas. Two discs are given to van Veen's mammoth 24 Préludes, organized according to the framework of Bach's Well-Tempered Clavier. Other composers range from the very well known, such as Michael Nyman, John Adams, Terry Riley, Arvo Pärt, and John Cage, to the familiar-to-specialists, like Tom Johnson, Wim Mertens, and Jacob ter Veldhuis, to those little-known to American audiences, like Klaas de Vries, Simeon ten Holt, John Borstlap, Yann Tiersen, and Carlos Micháns.

Van Veen's passionate feeling for this repertoire is evident in the care he devotes to discovering and bringing out the distinctiveness of each piece. His style may not please some purists who demand a more reserved and less individualistic approach to this music – he plays with great attention to the expressive possibilities of shapely phrasing, making some pieces sound downright Romantic. He is also a master of contrapuntal clarity and of bringing out inner voices. He makes "Opening" from Glassworks, which, when played less than brilliantly, can seem like a dusty exercise in arpeggios, into a masterpiece of contrapuntal writing. (He takes the liberty of inserting a chordal section into the middle of the piece, which works, but it's not in the score.) Van Veen proves himself a genuine virtuoso of the old-fashioned variety, with the dazzling technique and endurance to tear through Simeon ten Holt's knuckle-busting 35-minute perpetuum mobile, Solodevilsdance IV, and make it thrillingly expressive. A number of the movements of van Veen's own two-hour set of 24 Minimal Préludes reveal his predilection for Glass' aesthetic, but some are farther ranging, even requiring preparing the piano, and they make an appealing set, if a daunting challenge for a performer. The set closes, appropriately, with an hour-long, multitrack version of the granddaddy of minimalist music, Riley's In C, which is surprisingly effective and richly textured with keyboards playing all the parts.

Brilliant's sound is clean and clear, but a little closely miked, which can be remedied by adjusting the volume down a few notches. Any enthusiast of minimalism, as well as fans of plain old pianistic virtuosity, owe it to themselves to hear van Veen's remarkable performances in this budget-priced collection.

Review by Stephen Eddins, Allmusic.com

Jeroen van Veen - Minimal Piano Collection, Volumes I-IX (2006) 9CD Box Set [Re-Up]




Tracklist:

CD1: (1:11:19)

Philip GLASS (b. 1937)
01. Opening from 'Glassworks' (8:54)
02. Metamorphosis One (7:03)
03. Metamorphosis Two (6:55)
04. Metamorphosis Three (4:23)
05. Metamorphosis Four (5:53)
06. Metamorphosis Five (6:08)
07. Mad Rush (15:13)
08. Wichita Vortex Sutra (7:26)
09. Opening from 'Glassworks' (9:25)


CD2 (59:47):

Philip GLASS
01. The Poet Acts (3:36)
02. Morning Passages (5:26)
03. Something She Has To Do (3:30)
04. I'm Going To Make A Cake (3:45)
05. An Unwelcome Friend (4:33)
06. Dead Things (3:56)
07. Why Does Someone Have to Die? (3:37)
08. Tearing Herself Away (4:08)
09. Escape! (3:34)
10. Choosing Life (4:10)
11. The Hours (7:13)
12. Truman Sleeps, from 'The Truman Show' (2:10)
13. Opening from 'Glassworks' (6:10)
14. Olympian (3:58)


CD3 (53:07)

Philip GLASS
01. Modern Love Waltz (4:58)
02. How Now (25:09)
'Trilogy' Sonata
03. I. Knee Play No.4 from Einstein on the Beach (7:43)
04. II. Satyagraha, Conclusion, Act III (8:51)
05. III. Dance, from Aknaten (Scene 3) (6:26)


CD4 (1:19:46):

John ADAMS (b.1947)
01. China Gates (5:43)

Arvo PÄRT (b.1935)
02. Fur Alina (2:51)
03. Variationen zur Gesundung von Arinuschka (4:33)

John CAGE (1912-1992)
04. In a Landscape (8:53)

Simeon ten HOLT (1923-2012)
05. Solodevilsdance IV (34:58)

Friedrich NIETZSCHE (1844-1900)
06. Das 'Fragment an sich' (9:47)

Erik SATIE (1866-1925)
07. Vexations (7:43)

John BORSTLAP (b. 1950)
08. Borstlap - Avatara (5:19)


CD5 (1:18:16):

Yann TIERSEN (b. 1970)
01. Comptine d'un autre ete; l'apres-midi (2:23)
02. Le moulin (3:14)
03. La dispute (2:12)
04. Sur le fil (4:27)
05. La valse d'Amelie (2:44)
06. Comptine d'ete no. 1 (2:57)
07. Comptine d'ete no. 2 (2:42)
08. Comptine d'ete no. 3 (2:47)
09. Le vieux en veut encore (1:41)
10. Toujours la (1:14)
11. La piece vide (1:53)

Michael NYMAN (b. 1944)
12. Big my Secret (3:52)
13. Lost and Found (3:01)
14. The mood that passes through you (3:03)
15. Deep sleep playing (2:09)
16. Silver-Fingered fling (3:38)
17. The attraction of the pedalling ankle (6:45)
18. The heart asks pleasure first (3:14)
19. Time Lapse (3:17)
20. Fly Drive (1:05)
21. If (4:23)
22. Love (3:33)
23. Digital Tragedy (2:59)
24. Sheep 'n Tides (2:41)
25. Lost and Found (3:00)
26. The heart asks pleasure first (3:24)


CD6 (52:56):

Jeroen van VEEN (b.1969)
01. Prelude nr.1 in C (5:41)
02. Prelude nr.2 in A minor (4:01)
03. Prelude nr.3 in G (4:38)
04. Prelude nr.4 in E minor (4:23)
05. Prelude nr.5 in D (3:25)
06. Prelude nr.6 in B minor (3:48)
07. Prelude nr.7 in A (1:04)
08. Prelude nr.8 in F# minor (2:41)
09. Prelude nr.9 in E (5:01)
10. Prelude nr.10 in C# minor (7:19)
11. Prelude nr.11 in B (5:53)
12. Prelude nr.12 in G# minor (5:03)


CD7 (1:07:19):

Jeroen van VEEN
01. Prelude nr.13 in F sharp (6:53)
02. Prelude nr.14 in E flat minor (5:18)
03. Prelude nr.15 in D flat (2:36)
04. Prelude nr.16 in B flat minor (2:56)
05. Prelude nr.17 in A flat (4:34)
06. Prelude nr.18 in F minor (10:40)
07. Prelude nr.19 in E flat (3:24)
08. Prelude nr.20 in C minor (4:13)
09. Prelude nr.21 in B flat (4:38)
10. Prelude nr.22 in G minor (6:05)
11. Prelude nr.23 in F (6:07)
12. Prelude nr.24 in D minor (9:54)


CD8: (1:14:06)

Wim MERTENS (b.1953)
01. Stuggle for Pleasure (5:09)

Tom JOHNSON (b.1939)
02. An Hour for Piano (59:23)

Jacob Ter VELDHUIS (b. 1951)
03. Postnuclear Winterscenario (9:34)


CD9 (1:19:17)

Klaas de VRIES (b. 1944)
01. Toccata Americana (7:03)
02. Echo (3:05)

Carlos MICHÁNS (b.1950)
03. Three Minimal Preludes (11:12)

Terry RILEY (b. 1935)
04. In C (57:57)


Exact Audio Copy V0.99 prebeta 5 from 4. May 2009

Отчёт EAC об извлечении, выполненном 13. октября 2010, 22:48

Jeroen van Veen / Minimal Piano Collection Vol. I

Дисковод: Optiarc DVD RW AD-7203A Adapter: 4 ID: 1

Режим чтения : Достоверность
Использование точного потока : Да
Отключение кэша аудио : Да
Использование указателей C2 : Нет

Коррекция смещения при чтении : 48
Способность читать области Lead-in и Lead-out : Нет
Заполнение пропущенных сэмплов тишиной : Да
Удаление блоков с тишиной в начале и конце : Нет
При вычислениях CRC использовались нулевые сэмплы : Да
Интерфейс : Встроенный Win32-интерфейс для Win NT/2000

Выходной формат : Пользовательский кодировщик
Выбранный битрейт : 128 kBit/s
Качество : Высокий
Добавление ID3-тэга : Нет
Утилита сжатия : C:\Program Files\FLAC\flac.exe
Дополнительные параметры : -5 -V %s


TOC извлечённого CD

Трек | Старт | Длительность | Начальный сектор | Конечный сектор
––––––––––––––––––––––––––––––––––-
1 | 0:00.00 | 8:53.71 | 0 | 40045
2 | 8:53.71 | 7:03.29 | 40046 | 71799
3 | 15:57.25 | 6:54.52 | 71800 | 102901
4 | 22:52.02 | 4:23.04 | 102902 | 122630
5 | 27:15.06 | 5:53.17 | 122631 | 149122
6 | 33:08.23 | 6:07.39 | 149123 | 176686
7 | 39:15.62 | 15:12.39 | 176687 | 245125
8 | 54:28.26 | 7:25.67 | 245126 | 278567
9 | 61:54.18 | 9:25.02 | 278568 | 320944


Характеристики диапазона извлечения и сообщения об ошибках

Выбранный диапазон

Имя файла D:\EAC\Jeroen van Veen - Minimal Piano Collection Vol. I.wav

Пиковый уровень 75.4 %
Качество диапазона 100.0 %
CRC теста 47FE30C7
CRC копии 47FE30C7
Копирование… OK

Ошибок не произошло


AccurateRip: сводка

Трек 1 точное извлечение (доверие 5) [074D6B11]
Трек 2 точное извлечение (доверие 5) [16537A41]
Трек 3 точное извлечение (доверие 5) [DFF4C466]
Трек 4 точное извлечение (доверие 5) [15CDD81A]
Трек 5 точное извлечение (доверие 5) [73C25421]
Трек 6 точное извлечение (доверие 5) [FA655F96]
Трек 7 точное извлечение (доверие 5) [D4376984]
Трек 8 точное извлечение (доверие 5) [2F607A95]
Трек 9 точное извлечение (доверие 5) [A9C9F396]

Все треки извлечены точно

Конец отчёта

[CUETools log; Date: 22.06.2017 19:01:27; Version: 2.1.4]
[CTDB TOCID: KYpj58Svo0dwKfjQlu.qLj9ONzM-] found.
Track | CTDB Status
1 | (12/38) Accurately ripped
2 | (37/38) Accurately ripped
3 | (38/38) Accurately ripped
4 | (38/38) Accurately ripped
5 | (37/38) Accurately ripped
6 | (38/38) Accurately ripped
7 | (38/38) Accurately ripped
8 | (38/38) Accurately ripped
9 | (37/38) Accurately ripped
[AccurateRip ID: 001701f4-00a9d21d-8710b709] found.
Track [ CRC | V2 ] Status
01 [074d6b11|81464d74] (06+06/35) Accurately ripped
02 [16537a41|5cd72d0f] (06+06/36) Accurately ripped
03 [dff4c466|d84d48ee] (06+06/36) Accurately ripped
04 [15cdd81a|ebf53539] (06+06/35) Accurately ripped
05 [73c25421|cb8c31ca] (06+06/36) Accurately ripped
06 [fa655f96|b5954c15] (06+06/36) Accurately ripped
07 [d4376984|990cb109] (06+06/36) Accurately ripped
08 [2f607a95|17daa7cf] (06+06/36) Accurately ripped
09 [a9c9f396|02d641bc] (06+06/36) Accurately ripped
Offsetted by -18:
01 [6a81279d] (00/35) No match (V2 was not tested)
02 [98ba334f] (02/36) Accurately ripped
03 [9e653ef0] (02/36) Accurately ripped
04 [95f4cfd3] (02/35) Accurately ripped
05 [9858cb57] (02/36) Accurately ripped
06 [e2fb2a2d] (02/36) Accurately ripped
07 [7ed15123] (02/36) Accurately ripped
08 [ddd75ab6] (02/36) Accurately ripped
09 [824314c1] (02/36) Accurately ripped
Offsetted by -12:
01 [100f1042] (00/35) No match (V2 was not tested)
02 [dee06fd3] (03/36) Accurately ripped
03 [09126c6c] (03/36) Accurately ripped
04 [c9163f65] (02/35) Accurately ripped
05 [1c67b850] (03/36) Accurately ripped
06 [786b3cc2] (03/36) Accurately ripped
07 [2b3eac4a] (03/36) Accurately ripped
08 [99650e8b] (03/36) Accurately ripped
09 [9b621712] (03/36) Accurately ripped

Track Peak [ CRC32 ] [W/O NULL] [ LOG ]
– 75,4 [47FE30C7] [0989993A] CRC32
01 75,2 [17D84952] [6165CF91]
02 75,3 [48768C81] [25F5A9C6]
03 75,2 [386CE905] [53F8B118]
04 75,3 [370EA344] [F230B126]
05 75,3 [468E4C8A] [E0340DCA]
06 75,2 [63EB225F] [BB44957E]
07 75,2 [679E02B5] [2037E3DE]
08 75,4 [5E6CCE50] [07A669B5]
09 71,3 [11A43047] [34C1A587]

foobar2000 1.2 / Dynamic Range Meter 1.1.1
log date: 2017-06-22 18:47:59

––––––––––––––––––––––––––––––––––––––––
Analyzed: Jeroen van Veen / Minimal Piano Collection Vol. I
––––––––––––––––––––––––––––––––––––––––

DR Peak RMS Duration Track
––––––––––––––––––––––––––––––––––––––––
DR10 -2.47 dB -15.42 dB 8:54 01-Glass - Opening from 'Glassworks'
DR14 -2.46 dB -19.92 dB 7:03 02-Glass - Metamorphosis One
DR11 -2.47 dB -19.15 dB 6:55 03-Glass - Metamorphosis Two
DR9 -2.46 dB -14.42 dB 4:23 04-Glass - Metamorphosis Three
DR9 -2.46 dB -14.59 dB 5:53 05-Glass - Metamorphosis Four
DR12 -2.47 dB -20.05 dB 6:08 06-Glass - Metamorphosis Five
DR11 -2.47 dB -16.68 dB 15:13 07-Glass - Mad Rush
DR8 -2.45 dB -13.90 dB 7:26 08-Glass - Wichita Vortex Sutra
DR9 -2.93 dB -13.88 dB 9:25 09-Glass - Opening from 'Glassworks'
––––––––––––––––––––––––––––––––––––––––

Number of tracks: 9
Official DR value: DR10

Samplerate: 44100 Hz
Channels: 2
Bits per sample: 16
Bitrate: 414 kbps
Codec: FLAC
================================================================================


Exact Audio Copy V0.99 prebeta 5 from 4. May 2009

Отчёт EAC об извлечении, выполненном 13. октября 2010, 23:25

Jeroen van Veen / Minimal Piano Collection Vol. II

Дисковод: Optiarc DVD RW AD-7203A Adapter: 4 ID: 1

Режим чтения : Достоверность
Использование точного потока : Да
Отключение кэша аудио : Да
Использование указателей C2 : Нет

Коррекция смещения при чтении : 48
Способность читать области Lead-in и Lead-out : Нет
Заполнение пропущенных сэмплов тишиной : Да
Удаление блоков с тишиной в начале и конце : Нет
При вычислениях CRC использовались нулевые сэмплы : Да
Интерфейс : Встроенный Win32-интерфейс для Win NT/2000

Выходной формат : Пользовательский кодировщик
Выбранный битрейт : 128 kBit/s
Качество : Высокий
Добавление ID3-тэга : Нет
Утилита сжатия : C:\Program Files\FLAC\flac.exe
Дополнительные параметры : -5 -V %s


TOC извлечённого CD

Трек | Старт | Длительность | Начальный сектор | Конечный сектор
––––––––––––––––––––––––––––––––––-
1 | 0:00.00 | 3:35.66 | 0 | 16190
2 | 3:35.66 | 5:25.68 | 16191 | 40633
3 | 9:01.59 | 3:30.28 | 40634 | 56411
4 | 12:32.12 | 3:44.68 | 56412 | 73279
5 | 16:17.05 | 4:32.53 | 73280 | 93732
6 | 20:49.58 | 3:55.68 | 93733 | 111425
7 | 24:45.51 | 3:37.16 | 111426 | 127716
8 | 28:22.67 | 4:07.43 | 127717 | 146284
9 | 32:30.35 | 3:34.04 | 146285 | 162338
10 | 36:04.39 | 4:10.05 | 162339 | 181093
11 | 40:14.44 | 7:13.35 | 181094 | 213603
12 | 47:28.04 | 2:10.30 | 213604 | 223383
13 | 49:38.34 | 6:10.35 | 223384 | 251168
14 | 55:48.69 | 3:58.22 | 251169 | 269040


Характеристики диапазона извлечения и сообщения об ошибках

Выбранный диапазон

Имя файла D:\EAC\Jeroen van Veen - Minimal Piano Collection Vol. II.wav

Пиковый уровень 78.4 %
Качество диапазона 100.0 %
CRC теста E362D635
CRC копии E362D635
Копирование… OK

Ошибок не произошло


AccurateRip: сводка

Трек 1 точное извлечение (доверие 5) [2C7A1AF9]
Трек 2 точное извлечение (доверие 5) [C3C3B27C]
Трек 3 точное извлечение (доверие 5) [71751AE1]
Трек 4 точное извлечение (доверие 5) [F97B7F77]
Трек 5 точное извлечение (доверие 5) [04855482]
Трек 6 точное извлечение (доверие 5) [8A9E3EC9]
Трек 7 точное извлечение (доверие 5) [260B8E6A]
Трек 8 точное извлечение (доверие 5) [4319D606]
Трек 9 точное извлечение (доверие 5) [A9004979]
Трек 10 точное извлечение (доверие 5) [B901C553]
Трек 11 точное извлечение (доверие 5) [FD86FEF5]
Трек 12 точное извлечение (доверие 5) [219E3544]
Трек 13 точное извлечение (доверие 5) [70002A56]
Трек 14 точное извлечение (доверие 5) [DB614ACA]

Все треки извлечены точно

Конец отчёта

[CUETools log; Date: 22.06.2017 19:01:42; Version: 2.1.4]
[CTDB TOCID: 9xD2iCIpAzY.SFq_Vto_naphCKg-] found.
Track | CTDB Status
1 | (12/37) Accurately ripped
2 | (37/37) Accurately ripped
3 | (37/37) Accurately ripped
4 | (37/37) Accurately ripped
5 | (37/37) Accurately ripped
6 | (37/37) Accurately ripped
7 | (37/37) Accurately ripped
8 | (37/37) Accurately ripped
9 | (37/37) Accurately ripped
10 | (37/37) Accurately ripped
11 | (36/37) Accurately ripped
12 | (37/37) Accurately ripped
13 | (37/37) Accurately ripped
14 | (37/37) Accurately ripped
[AccurateRip ID: 001e00e5-0141601b-c40e030e] found.
Track [ CRC | V2 ] Status
01 [2c7a1af9|b359e17c] (06+06/36) Accurately ripped
02 [c3c3b27c|2753a2f7] (06+06/35) Accurately ripped
03 [71751ae1|10482b3a] (06+06/35) Accurately ripped
04 [f97b7f77|6d8cc995] (06+06/35) Accurately ripped
05 [04855482|ff822e81] (06+06/36) Accurately ripped
06 [8a9e3ec9|804b6db1] (06+06/36) Accurately ripped
07 [260b8e6a|22c2e65c] (06+06/35) Accurately ripped
08 [4319d606|6a91a394] (06+06/35) Accurately ripped
09 [a9004979|44fedf35] (06+06/36) Accurately ripped
10 [b901c553|b3474971] (06+06/36) Accurately ripped
11 [fd86fef5|eb424c81] (06+06/34) Accurately ripped
12 [219e3544|81dd38cf] (06+06/36) Accurately ripped
13 [70002a56|34e08f09] (06+06/35) Accurately ripped
14 [db614aca|c3f8e81a] (06+06/35) Accurately ripped
Offsetted by -18:
01 [c9c25a06] (00/36) No match (V2 was not tested)
02 [44df7552] (02/35) Accurately ripped
03 [9b377f15] (02/35) Accurately ripped
04 [97f96033] (02/35) Accurately ripped
05 [086666d8] (02/36) Accurately ripped
06 [c6a617d6] (02/36) Accurately ripped
07 [612754c4] (02/35) Accurately ripped
08 [b583bd50] (02/35) Accurately ripped
09 [12479f6b] (02/36) Accurately ripped
10 [8a4c6580] (02/36) Accurately ripped
11 [db93e038] (02/34) Accurately ripped
12 [364b460e] (02/36) Accurately ripped
13 [d7e1f117] (02/35) Accurately ripped
14 [8c9dd230] (02/35) Accurately ripped
Offsetted by -12:
01 [3bfcea16] (00/36) No match (V2 was not tested)
02 [8fbb6de5] (02/35) Accurately ripped
03 [c9f79e9b] (02/35) Accurately ripped
04 [d1cbdd89] (02/35) Accurately ripped
05 [ab62005d] (03/36) Accurately ripped
06 [43b738dc] (03/36) Accurately ripped
07 [a6ed47eb] (02/35) Accurately ripped
08 [cc0ff231] (02/35) Accurately ripped
09 [a17f62f4] (03/36) Accurately ripped
10 [c3e246da] (03/36) Accurately ripped
11 [b0fc7fd7] (02/34) Accurately ripped
12 [39621f05] (03/36) Accurately ripped
13 [c7f06eab] (02/35) Accurately ripped
14 [bc103f69] (02/35) Accurately ripped

Track Peak [ CRC32 ] [W/O NULL] [ LOG ]
– 78,4 [E362D635] [57F687C7] CRC32
01 60,4 [2075F793] [689BCCDB]
02 78,4 [8C515A4D] [A636F40E]
03 78,2 [CAB214CD] [68EB2784]
04 78,2 [A3BD996F] [0D358566]
05 64,2 [B58BC371] [0846473C]
06 78,2 [AAF6A9B0] [988EBBF4]
07 78,1 [6345E4A2] [26BFCE51]
08 78,4 [1A967ECD] [DCC36E79]
09 69,2 [C374EDA7] [1614D2A1]
10 71,3 [F6D235AB] [9EDF2D6B]
11 78,3 [655E812B] [2C384AFC]
12 78,3 [3BE6FCDF] [9F45FCAF]
13 73,1 [2D73017B] [355B5542]
14 78,3 [E8F38B81] [A0653FD4]

foobar2000 1.2 / Dynamic Range Meter 1.1.1
log date: 2017-06-22 18:48:18

––––––––––––––––––––––––––––––––––––––––
Analyzed: Jeroen van Veen / Minimal Piano Collection Vol. II
––––––––––––––––––––––––––––––––––––––––

DR Peak RMS Duration Track
––––––––––––––––––––––––––––––––––––––––
DR11 -4.37 dB -18.63 dB 3:36 01-Glass - The Poet Acts
DR10 -2.11 dB -15.00 dB 5:26 02-Glass - Morning Passages
DR12 -2.13 dB -20.16 dB 3:30 03-Glass - Something She Has To Do
DR10 -2.13 dB -15.16 dB 3:45 04-Glass - I'm Going To Make A Cake
DR11 -3.84 dB -19.38 dB 4:33 05-Glass - An Unwelcome Friend
DR12 -2.13 dB -16.22 dB 3:56 06-Glass - Dead Things
DR12 -2.14 dB -17.12 dB 3:37 07-Glass - Why Does Someone Have to Die?
DR10 -2.10 dB -16.05 dB 4:08 08-Glass - Tearing Herself Away
DR12 -3.20 dB -20.81 dB 3:34 09-Glass - Escape!
DR13 -2.93 dB -19.62 dB 4:10 10-Glass - Choosing Life
DR10 -2.12 dB -14.64 dB 7:13 11-Glass - The Hours
DR12 -2.12 dB -18.05 dB 2:10 12-Glass - Truman Sleeps, from 'The Truman Show'
DR10 -2.71 dB -15.10 dB 6:10 13-Glass - Opening from 'Glassworks'
DR9 -2.12 dB -13.61 dB 3:58 14-Glass - Olympian
––––––––––––––––––––––––––––––––––––––––

Number of tracks: 14
Official DR value: DR11

Samplerate: 44100 Hz
Channels: 2
Bits per sample: 16
Bitrate: 415 kbps
Codec: FLAC
================================================================================


Exact Audio Copy V0.99 prebeta 5 from 4. May 2009

Отчёт EAC об извлечении, выполненном 14. октября 2010, 20:02

Jeroen van Veen / Minimal Piano Collection Vol. III

Дисковод: Optiarc DVD RW AD-7203A Adapter: 4 ID: 1

Режим чтения : Достоверность
Использование точного потока : Да
Отключение кэша аудио : Да
Использование указателей C2 : Нет

Коррекция смещения при чтении : 48
Способность читать области Lead-in и Lead-out : Нет
Заполнение пропущенных сэмплов тишиной : Да
Удаление блоков с тишиной в начале и конце : Нет
При вычислениях CRC использовались нулевые сэмплы : Да
Интерфейс : Встроенный Win32-интерфейс для Win NT/2000

Выходной формат : Пользовательский кодировщик
Выбранный битрейт : 128 kBit/s
Качество : Высокий
Добавление ID3-тэга : Нет
Утилита сжатия : C:\Program Files\FLAC\flac.exe
Дополнительные параметры : -5 -V %s


TOC извлечённого CD

Трек | Старт | Длительность | Начальный сектор | Конечный сектор
––––––––––––––––––––––––––––––––––-
1 | 0:00.00 | 4:58.24 | 0 | 22373
2 | 4:58.24 | 25:08.74 | 22374 | 135547
3 | 30:07.23 | 7:42.63 | 135548 | 170260
4 | 37:50.11 | 8:50.56 | 170261 | 210066
5 | 46:40.67 | 6:25.53 | 210067 | 238994


Характеристики диапазона извлечения и сообщения об ошибках

Выбранный диапазон

Имя файла D:\EAC\Jeroen van Veen - Minimal Piano Collection Vol. III.wav

Пиковый уровень 78.2 %
Качество диапазона 100.0 %
CRC теста F0C83A49
CRC копии F0C83A49
Копирование… OK

Ошибок не произошло


AccurateRip: сводка

Трек 1 точное извлечение (доверие 5) [A6A93A9E]
Трек 2 точное извлечение (доверие 5) [A9191939]
Трек 3 точное извлечение (доверие 5) [B63F40E4]
Трек 4 точное извлечение (доверие 5) [2B5480ED]
Трек 5 точное извлечение (доверие 5) [36950B3A]

Все треки извлечены точно

Конец отчёта

[CUETools log; Date: 22.06.2017 19:01:58; Version: 2.1.4]
[CTDB TOCID: PL4aChnQI0rPEjsi2vkLVMlUkSo-] found.
Track | CTDB Status
1 | (35/46) Accurately ripped, or (11/46) differs in 2755 samples @00:00:09-00:00:22
2 | (46/46) Accurately ripped
3 | (46/46) Accurately ripped
4 | (46/46) Accurately ripped
5 | (46/46) Accurately ripped
[AccurateRip ID: 000bdc1d-00372fe6-300c7205] found.
Track [ CRC | V2 ] Status
01 [a6a93a9e|2b9c5fbd] (06+06/40) Accurately ripped
02 [a9191939|5819d59d] (06+05/37) Accurately ripped
03 [b63f40e4|b99d1f42] (06+06/38) Accurately ripped
04 [2b5480ed|556377cf] (06+06/40) Accurately ripped
05 [36950b3a|df503f6c] (06+06/40) Accurately ripped
Offsetted by -18:
01 [36824efb] (02/40) Accurately ripped
02 [92404a3a] (02/37) Accurately ripped
03 [1d0ff5be] (02/38) Accurately ripped
04 [ca22a0f0] (02/40) Accurately ripped
05 [72765b0d] (02/40) Accurately ripped
Offsetted by -12:
01 [1278f961] (02/40) Accurately ripped
02 [6f7fa6d9] (00/37) No match (V2 was not tested)
03 [3bfa537e] (00/38) No match (V2 was not tested)
04 [9f26ae39] (02/40) Accurately ripped
05 [1cc0c621] (02/40) Accurately ripped
Offsetted by -6:
01 [3c745024] (00/40) No match (V2 was not tested)
02 [bfdc40ab] (00/37) No match (V2 was not tested)
03 [cdd2584a] (00/38) No match (V2 was not tested)
04 [fd810728] (00/40) No match (V2 was not tested)
05 [331bab3f] (00/40) No match (V2 was not tested)

Track Peak [ CRC32 ] [W/O NULL] [ LOG ]
– 78,2 [F0C83A49] [9B41A2BA] CRC32
01 64,7 [46DC9D2A] [9C7BF902]
02 78,2 [495940EA] [8D033B73]
03 78,1 [81E80ACC] [AE8A87F7]
04 78,1 [F498D5F3] [D1F9D56F]
05 78,2 [2DD602A6] [7C5434B1]

foobar2000 1.2 / Dynamic Range Meter 1.1.1
log date: 2017-06-22 18:48:35

––––––––––––––––––––––––––––––––––––––––
Analyzed: Jeroen van Veen / Minimal Piano Collection Vol. III
––––––––––––––––––––––––––––––––––––––––

DR Peak RMS Duration Track
––––––––––––––––––––––––––––––––––––––––
DR11 -3.77 dB -17.93 dB 4:58 01-Glass - Modern Love Waltz
DR10 -2.13 dB -14.29 dB 25:09 02-Glass - How Now
DR12 -2.14 dB -16.94 dB 7:43 03-Glass - 'Trilogy' Sonata - I. Knee Play No.4 from Einstein on the Beach
DR11 -2.14 dB -15.55 dB 8:51 04-Glass - 'Trilogy' Sonata - II. Satyagraha, Conclusion, Act III
DR9 -2.13 dB -13.18 dB 6:26 05-Glass - 'Trilogy' Sonata - III. Dance, from Aknaten (Scene 3)
––––––––––––––––––––––––––––––––––––––––

Number of tracks: 5
Official DR value: DR11

Samplerate: 44100 Hz
Channels: 2
Bits per sample: 16
Bitrate: 459 kbps
Codec: FLAC
================================================================================


Exact Audio Copy V0.99 prebeta 5 from 4. May 2009

Отчёт EAC об извлечении, выполненном 14. октября 2010, 20:49

Jeroen van Veen / Minimal Piano Collection Vol. IV

Дисковод: Optiarc DVD RW AD-7203A Adapter: 4 ID: 1

Режим чтения : Достоверность
Использование точного потока : Да
Отключение кэша аудио : Да
Использование указателей C2 : Нет

Коррекция смещения при чтении : 48
Способность читать области Lead-in и Lead-out : Нет
Заполнение пропущенных сэмплов тишиной : Да
Удаление блоков с тишиной в начале и конце : Нет
При вычислениях CRC использовались нулевые сэмплы : Да
Интерфейс : Встроенный Win32-интерфейс для Win NT/2000

Выходной формат : Пользовательский кодировщик
Выбранный битрейт : 128 kBit/s
Качество : Высокий
Добавление ID3-тэга : Нет
Утилита сжатия : C:\Program Files\FLAC\flac.exe
Дополнительные параметры : -5 -V %s


TOC извлечённого CD

Трек | Старт | Длительность | Начальный сектор | Конечный сектор
––––––––––––––––––––––––––––––––––-
1 | 0:00.00 | 5:43.02 | 0 | 25726
2 | 5:43.02 | 2:50.65 | 25727 | 38541
3 | 8:33.67 | 4:32.57 | 38542 | 58998
4 | 13:06.49 | 8:53.27 | 58999 | 99000
5 | 22:00.01 | 34:58.06 | 99001 | 256356
6 | 56:58.07 | 9:46.49 | 256357 | 300355
7 | 66:44.56 | 7:42.46 | 300356 | 335051
8 | 74:27.27 | 5:18.60 | 335052 | 358961


Характеристики диапазона извлечения и сообщения об ошибках

Выбранный диапазон

Имя файла D:\EAC\Jeroen van Veen - Minimal Piano Collection Vol. IV.wav

Пиковый уровень 78.3 %
Качество диапазона 100.0 %
CRC теста 5BB2A193
CRC копии 5BB2A193
Копирование… OK

Ошибок не произошло


AccurateRip: сводка

Трек 1 точное извлечение (доверие 4) [B7539481]
Трек 2 точное извлечение (доверие 4) [8DA9B08E]
Трек 3 точное извлечение (доверие 4) [35F04714]
Трек 4 точное извлечение (доверие 4) [357149D8]
Трек 5 точное извлечение (доверие 4) [D8BA9E48]
Трек 6 точное извлечение (доверие 4) [105B1993]
Трек 7 точное извлечение (доверие 4) [B5CF820D]
Трек 8 точное извлечение (доверие 3) [0D729D7F]

Все треки извлечены точно

Конец отчёта

[CUETools log; Date: 22.06.2017 19:02:18; Version: 2.1.4]
[CTDB TOCID: QFoqfEM4g3ZJbU_2auTY5qqDsAA-] found.
Track | CTDB Status
1 | (12/16) Accurately ripped
2 | (16/16) Accurately ripped
3 | (16/16) Accurately ripped
4 | (16/16) Accurately ripped
5 | (15/16) Accurately ripped
6 | (16/16) Accurately ripped
7 | (14/16) Accurately ripped
8 | (16/16) Accurately ripped
[AccurateRip ID: 001679e4-009f737e-6212b208] found.
Track [ CRC | V2 ] Status
01 [b7539481|1f529e7f] (05+06/17) Accurately ripped
02 [8da9b08e|2376a0b4] (05+06/19) Accurately ripped
03 [35f04714|dba00669] (05+06/19) Accurately ripped
04 [357149d8|3251c1b9] (05+06/17) Accurately ripped
05 [d8ba9e48|519dbd10] (05+06/17) Accurately ripped
06 [105b1993|2fa62f26] (05+06/19) Accurately ripped
07 [b5cf820d|caae7082] (05+06/17) Accurately ripped
08 [0d729d7f|8c938798] (04+06/18) Accurately ripped
Offsetted by -12:
01 [04c78dab] (00/17) No match (V2 was not tested)
02 [2ad9d7c7] (02/19) Accurately ripped
03 [0ce609fc] (02/19) Accurately ripped
04 [d1cd9a58] (00/17) No match (V2 was not tested)
05 [f6891b61] (00/17) No match (V2 was not tested)
06 [9c3edc32] (02/19) Accurately ripped
07 [f5b24e81] (00/17) No match (V2 was not tested)
08 [3a6b3a4a] (02/18) Accurately ripped

Track Peak [ CRC32 ] [W/O NULL] [ LOG ]
– 78,3 [5BB2A193] [14DF27EB] CRC32
01 78,3 [3927497F] [46BE224B]
02 37,8 [3095B5F7] [BF3F6223]
03 51,5 [8C06BBB0] [E14B15F9]
04 60,6 [533E27F2] [EFB27FDA]
05 78,2 [6D99AA1D] [CF03265E]
06 78,0 [EE31B063] [3AECDC25]
07 52,9 [C66C7AAC] [69865D36]
08 78,1 [6FB4884E] [4F6245B1]

foobar2000 1.2 / Dynamic Range Meter 1.1.1
log date: 2017-06-22 18:48:59

––––––––––––––––––––––––––––––––––––––––
Analyzed: Jeroen van Veen / Minimal Piano Collection Vol. IV
––––––––––––––––––––––––––––––––––––––––

DR Peak RMS Duration Track
––––––––––––––––––––––––––––––––––––––––
DR11 -2.12 dB -15.70 dB 5:43 01-Adams - China Gates
DR17 -8.43 dB -31.96 dB 2:51 02-Part - Fur Alina
DR13 -5.76 dB -23.47 dB 4:33 03-Part - Variationen zur Gesundung von Arinuschka
DR14 -4.34 dB -21.85 dB 8:53 04-Cage - In a Landscape
DR9 -2.13 dB -14.60 dB 34:58 05-Holt - Solodevilsdance IV
DR14 -2.15 dB -20.96 dB 9:47 06-Nietzsche - Das 'Fragment an sich'
DR13 -5.53 dB -23.77 dB 7:43 07-Satie - Vexations
DR10 -2.14 dB -15.44 dB 5:19 08-Borstlap - Avatara
––––––––––––––––––––––––––––––––––––––––

Number of tracks: 8
Official DR value: DR13

Samplerate: 44100 Hz
Channels: 2
Bits per sample: 16
Bitrate: 402 kbps
Codec: FLAC
================================================================================


Exact Audio Copy V0.99 prebeta 5 from 4. May 2009

Отчёт EAC об извлечении, выполненном 15. октября 2010, 22:24

Jeroen van Veen / Minimal Piano Collection Vol. V

Дисковод: Optiarc DVD RW AD-7203A Adapter: 4 ID: 1

Режим чтения : Достоверность
Использование точного потока : Да
Отключение кэша аудио : Да
Использование указателей C2 : Нет

Коррекция смещения при чтении : 48
Способность читать области Lead-in и Lead-out : Нет
Заполнение пропущенных сэмплов тишиной : Да
Удаление блоков с тишиной в начале и конце : Нет
При вычислениях CRC использовались нулевые сэмплы : Да
Интерфейс : Встроенный Win32-интерфейс для Win NT/2000

Выходной формат : Пользовательский кодировщик
Выбранный битрейт : 128 kBit/s
Качество : Высокий
Добавление ID3-тэга : Нет
Утилита сжатия : C:\Program Files\FLAC\flac.exe
Дополнительные параметры : -5 -V %s


TOC извлечённого CD

Трек | Старт | Длительность | Начальный сектор | Конечный сектор
––––––––––––––––––––––––––––––––––-
1 | 0:00.00 | 2:22.55 | 0 | 10704
2 | 2:22.55 | 3:13.56 | 10705 | 25235
3 | 5:36.36 | 2:11.53 | 25236 | 35113
4 | 7:48.14 | 4:27.13 | 35114 | 55151
5 | 12:15.27 | 2:43.44 | 55152 | 67420
6 | 14:58.71 | 2:56.40 | 67421 | 80660
7 | 17:55.36 | 2:42.32 | 80661 | 92842
8 | 20:37.68 | 2:46.41 | 92843 | 105333
9 | 23:24.34 | 1:40.74 | 105334 | 112907
10 | 25:05.33 | 1:14.06 | 112908 | 118463
11 | 26:19.39 | 1:53.32 | 118464 | 126970
12 | 28:12.71 | 3:52.30 | 126971 | 144400
13 | 32:05.26 | 3:01.23 | 144401 | 157998
14 | 35:06.49 | 3:02.52 | 157999 | 171700
15 | 38:09.26 | 2:08.41 | 171701 | 181341
16 | 40:17.67 | 3:38.11 | 181342 | 197702
17 | 43:56.03 | 6:45.28 | 197703 | 228105
18 | 50:41.31 | 3:13.53 | 228106 | 242633
19 | 53:55.09 | 3:16.44 | 242634 | 257377
20 | 57:11.53 | 1:04.53 | 257378 | 262230
21 | 58:16.31 | 4:23.19 | 262231 | 281974
22 | 62:39.50 | 3:32.58 | 281975 | 297932
23 | 66:12.33 | 2:59.24 | 297933 | 311381
24 | 69:11.57 | 2:40.38 | 311382 | 323419
25 | 71:52.20 | 2:59.65 | 323420 | 336909
26 | 74:52.10 | 3:23.48 | 336910 | 352182


Характеристики диапазона извлечения и сообщения об ошибках

Выбранный диапазон

Имя файла D:\EAC\Jeroen van Veen - Minimal Piano Collection Vol. V.wav

Пиковый уровень 78.4 %
Качество диапазона 100.0 %
CRC теста 81A964A0
CRC копии 81A964A0
Копирование… OK

Ошибок не произошло


AccurateRip: сводка

Трек 1 точное извлечение (доверие 5) [FF2B6F6D]
Трек 2 точное извлечение (доверие 5) [4CC8B99F]
Трек 3 точное извлечение (доверие 5) [9481838F]
Трек 4 точное извлечение (доверие 5) [FE62E43C]
Трек 5 точное извлечение (доверие 5) [4BAC791E]
Трек 6 точное извлечение (доверие 5) [0477A41B]
Трек 7 точное извлечение (доверие 5) [12E20ECA]
Трек 8 точное извлечение (доверие 5) [93D534EA]
Трек 9 точное извлечение (доверие 5) [DA3D6193]
Трек 10 точное извлечение (доверие 5) [F6BEA4FF]
Трек 11 точное извлечение (доверие 5) [907D37FA]
Трек 12 точное извлечение (доверие 5) [205F54C5]
Трек 13 точное извлечение (доверие 5) [5C76D66C]
Трек 14 точное извлечение (доверие 5) [CB4F382A]
Трек 15 точное извлечение (доверие 5) [CE15B2D7]
Трек 16 точное извлечение (доверие 5) [E6BAB266]
Трек 17 точное извлечение (доверие 5) [7A00C04A]
Трек 18 точное извлечение (доверие 5) [D89CF601]
Трек 19 точное извлечение (доверие 5) [B5BCC499]
Трек 20 точное извлечение (доверие 5) [A8B10463]
Трек 21 точное извлечение (доверие 5) [5B653BA6]
Трек 22 точное извлечение (доверие 5) [8A415BCC]
Трек 23 точное извлечение (доверие 5) [31BBB53F]
Трек 24 точное извлечение (доверие 5) [E37CC2CD]
Трек 25 точное извлечение (доверие 5) [F69610CA]
Трек 26 точное извлечение (доверие 5) [59439404]

Все треки извлечены точно

Конец отчёта

[CUETools log; Date: 22.06.2017 19:02:40; Version: 2.1.4]
[CTDB TOCID: J2tVmIfELdd_Gae7zTRa0BhHkmc-] found.
Track | CTDB Status
1 | (14/14) Accurately ripped
2 | (14/14) Accurately ripped
3 | (14/14) Accurately ripped
4 | (14/14) Accurately ripped
5 | (14/14) Accurately ripped
6 | (14/14) Accurately ripped
7 | (14/14) Accurately ripped
8 | (14/14) Accurately ripped
9 | (14/14) Accurately ripped
10 | (14/14) Accurately ripped
11 | (14/14) Accurately ripped
12 | (14/14) Accurately ripped
13 | (14/14) Accurately ripped
14 | (14/14) Accurately ripped
15 | (14/14) Accurately ripped
16 | (14/14) Accurately ripped
17 | (14/14) Accurately ripped
18 | (14/14) Accurately ripped
19 | (14/14) Accurately ripped
20 | (14/14) Accurately ripped
21 | (14/14) Accurately ripped
22 | (14/14) Accurately ripped
23 | (14/14) Accurately ripped
24 | (14/14) Accurately ripped
25 | (14/14) Accurately ripped
26 | (11/14) Accurately ripped
[AccurateRip ID: 0045db3b-0524fb7a-7b12571a] found.
Track [ CRC | V2 ] Status
01 [ff2b6f6d|79ef3cc0] (06+06/18) Accurately ripped
02 [4cc8b99f|deb1f889] (06+06/20) Accurately ripped
03 [9481838f|3ba03693] (06+06/20) Accurately ripped
04 [fe62e43c|be9fd833] (06+06/20) Accurately ripped
05 [4bac791e|ff5a0fcc] (06+06/18) Accurately ripped
06 [0477a41b|4b4a65d4] (06+06/20) Accurately ripped
07 [12e20eca|aebcc818] (06+06/20) Accurately ripped
08 [93d534ea|63b4b3d0] (06+06/20) Accurately ripped
09 [da3d6193|bf736308] (06+06/18) Accurately ripped
10 [f6bea4ff|e97e15cc] (06+06/18) Accurately ripped
11 [907d37fa|25d51de1] (06+06/18) Accurately ripped
12 [205f54c5|ba009a6f] (06+06/18) Accurately ripped
13 [5c76d66c|fc33f31c] (06+06/18) Accurately ripped
14 [cb4f382a|c65dc623] (06+06/18) Accurately ripped
15 [ce15b2d7|1de02fe0] (06+06/18) Accurately ripped
16 [e6bab266|d4a7c76c] (06+06/18) Accurately ripped
17 [7a00c04a|e3dfa62f] (06+06/18) Accurately ripped
18 [d89cf601|be53c1e3] (06+06/18) Accurately ripped
19 [b5bcc499|cec4c837] (06+06/18) Accurately ripped
20 [a8b10463|64e561b4] (06+06/18) Accurately ripped
21 [5b653ba6|5a030bd0] (06+06/18) Accurately ripped
22 [8a415bcc|9e8f4a5d] (06+05/17) Accurately ripped
23 [31bbb53f|626731f1] (06+06/18) Accurately ripped
24 [e37cc2cd|26d9e2cf] (06+06/18) Accurately ripped
25 [f69610ca|0342974b] (06+05/17) Accurately ripped
26 [59439404|dd2dd31f] (06+06/18) Accurately ripped
Offsetted by -6:
01 [9c55a113] (00/18) No match (V2 was not tested)
02 [415754cc] (02/20) Accurately ripped
03 [f8b79255] (02/20) Accurately ripped
04 [074680b3] (02/20) Accurately ripped
05 [01124bdb] (00/18) No match (V2 was not tested)
06 [defec5db] (02/20) Accurately ripped
07 [949864e8] (02/20) Accurately ripped
08 [243277d1] (02/20) Accurately ripped
09 [e906ffce] (00/18) No match (V2 was not tested)
10 [e7f99f9e] (00/18) No match (V2 was not tested)
11 [fc4d99dd] (00/18) No match (V2 was not tested)
12 [b9a0b3c5] (00/18) No match (V2 was not tested)
13 [9df4f3cf] (00/18) No match (V2 was not tested)
14 [a6d6c6d2] (00/18) No match (V2 was not tested)
15 [41902239] (00/18) No match (V2 was not tested)
16 [baf7920c] (00/18) No match (V2 was not tested)
17 [9db669f1] (00/18) No match (V2 was not tested)
18 [8617c377] (00/18) No match (V2 was not tested)
19 [d2c321f7] (00/18) No match (V2 was not tested)
20 [d2de049e] (00/18) No match (V2 was not tested)
21 [d89b9546] (00/18) No match (V2 was not tested)
22 [26a0af8a] (00/17) No match (V2 was not tested)
23 [7adb2d12] (00/18) No match (V2 was not tested)
24 [99af57cf] (00/18) No match (V2 was not tested)
25 [f06b06a9] (00/17) No match (V2 was not tested)
26 [b30ba93c] (00/18) No match (V2 was not tested)

Track Peak [ CRC32 ] [W/O NULL] [ LOG ]
– 78,4 [81A964A0] [0FF5ECD8] CRC32
01 70,3 [C5D8676F] [5DDC9045]
02 78,2 [CA4CCFC7] [40D0C2AC]
03 78,1 [45A05C33] [1A94E9A7]
04 78,2 [51F8DE68] [4D81FD1F]
05 78,4 [47007BBE] [CA981709]
06 78,2 [4D78900A] [0C8F5667]
07 78,1 [BC28EC84] [3309C451]
08 78,2 [EDBC1945] [4BD78EC8]
09 78,3 [824E7C29] [5A2B692F]
10 68,5 [FEFDC429] [3CE2F6E5]
11 71,1 [3E772D99] [F42AEE22]
12 74,8 [B038F90C] [6F5BB38E]
13 76,8 [6EBF7800] [92A7656D]
14 78,2 [3E8292D7] [AD0DCBD7]
15 78,2 [23347F35] [58AA5402]
16 78,2 [3D98BEEA] [92C3A365]
17 78,1 [D6BD8181] [E0F50AD4]
18 78,1 [519D86D4] [A4B6DEAC]
19 78,4 [DF24FBE9] [0CAFEC25]
20 78,2 [A59295E9] [E4D7A8DE]
21 78,2 [7C0FDDDC] [41F79D08]
22 78,1 [5C65F197] [25940BA6]
23 78,3 [51787268] [0B375DF1]
24 78,1 [AD953864] [BF6519E8]
25 76,8 [470395C2] [F674C1A3]
26 78,2 [70308CDE] [ACBBCB14]

foobar2000 1.2 / Dynamic Range Meter 1.1.1
log date: 2017-06-22 18:49:24

––––––––––––––––––––––––––––––––––––––––
Analyzed: Jeroen van Veen / Minimal Piano Collection Vol. V
––––––––––––––––––––––––––––––––––––––––

DR Peak RMS Duration Track
––––––––––––––––––––––––––––––––––––––––
DR11 -3.06 dB -16.80 dB 2:23 01-Tiersen - Comptine d'un autre ete; l'apres-midi
DR13 -2.13 dB -18.91 dB 3:14 02-Tiersen - Le moulin
DR11 -2.14 dB -18.45 dB 2:12 03-Tiersen - La dispute
DR10 -2.14 dB -17.21 dB 4:27 04-Tiersen - Sur le fil
DR10 -2.11 dB -16.03 dB 2:44 05-Tiersen - La valse d'Amelie
DR10 -2.13 dB -16.67 dB 2:57 06-Tiersen - Comptine d'ete no. 1
DR12 -2.14 dB -17.47 dB 2:42 07-Tiersen - Comptine d'ete no. 2
DR11 -2.14 dB -16.64 dB 2:47 08-Tiersen - Comptine d'ete no. 3
DR10 -2.12 dB -14.73 dB 1:41 09-Tiersen - Le vieux en veut encore
DR13 -3.27 dB -19.80 dB 1:14 10-Tiersen - Toujours la
DR11 -2.96 dB -18.38 dB 1:53 11-Tiersen - La piece vide
DR12 -2.52 dB -18.30 dB 3:52 12-Nyman - Big my Secret
DR13 -2.29 dB -18.23 dB 3:01 13-Nyman - Lost and Found
DR12 -2.13 dB -16.56 dB 3:03 14-Nyman - The mood that passes through you
DR9 -2.13 dB -13.68 dB 2:09 15-Nyman - Deep sleep playing
DR9 -2.13 dB -13.82 dB 3:38 16-Nyman - Silver-Fingered fling
DR11 -2.15 dB -16.15 dB 6:45 17-Nyman - The attraction of the pedalling ankle
DR10 -2.14 dB -13.52 dB 3:14 18-Nyman - The heart asks pleasure first
DR8 -2.11 dB -11.99 dB 3:17 19-Nyman - Time Lapse
DR9 -2.14 dB -13.38 dB 1:05 20-Nyman - Fly Drive
DR11 -2.13 dB -15.71 dB 4:23 21-Nyman - If
DR13 -2.15 dB -17.65 dB 3:33 22-Nyman - Love
DR10 -2.12 dB -14.85 dB 2:59 23-Nyman - Digital Tragedy
DR12 -2.14 dB -17.03 dB 2:41 24-Nyman - Sheep 'n Tides
DR13 -2.29 dB -18.15 dB 3:00 25-Nyman - Lost and Found
DR10 -2.13 dB -13.71 dB 3:24 26-Nyman - The heart asks pleasure first
––––––––––––––––––––––––––––––––––––––––

Number of tracks: 26
Official DR value: DR11

Samplerate: 44100 Hz
Channels: 2
Bits per sample: 16
Bitrate: 463 kbps
Codec: FLAC
================================================================================


Exact Audio Copy V0.99 prebeta 5 from 4. May 2009

Отчёт EAC об извлечении, выполненном 15. октября 2010, 23:02

Jeroen van Veen / Minimal Piano Collection Vol. VI

Дисковод: Optiarc DVD RW AD-7203A Adapter: 4 ID: 1

Режим чтения : Достоверность
Использование точного потока : Да
Отключение кэша аудио : Да
Использование указателей C2 : Нет

Коррекция смещения при чтении : 48
Способность читать области Lead-in и Lead-out : Нет
Заполнение пропущенных сэмплов тишиной : Да
Удаление блоков с тишиной в начале и конце : Нет
При вычислениях CRC использовались нулевые сэмплы : Да
Интерфейс : Встроенный Win32-интерфейс для Win NT/2000

Выходной формат : Пользовательский кодировщик
Выбранный битрейт : 128 kBit/s
Качество : Высокий
Добавление ID3-тэга : Нет
Утилита сжатия : C:\Program Files\FLAC\flac.exe
Дополнительные параметры : -5 -V %s


TOC извлечённого CD

Трек | Старт | Длительность | Начальный сектор | Конечный сектор
––––––––––––––––––––––––––––––––––-
1 | 0:00.00 | 5:40.45 | 0 | 25544
2 | 5:40.45 | 4:00.39 | 25545 | 43583
3 | 9:41.09 | 4:38.16 | 43584 | 64449
4 | 14:19.25 | 4:23.24 | 64450 | 84198
5 | 18:42.49 | 3:24.51 | 84199 | 99549
6 | 22:07.25 | 3:47.54 | 99550 | 116628
7 | 25:55.04 | 1:04.28 | 116629 | 121456
8 | 26:59.32 | 2:40.50 | 121457 | 133506
9 | 29:40.07 | 5:01.19 | 133507 | 156100
10 | 34:41.26 | 7:19.03 | 156101 | 189028
11 | 42:00.29 | 5:52.51 | 189029 | 215479
12 | 47:53.05 | 5:03.24 | 215480 | 238228


Характеристики диапазона извлечения и сообщения об ошибках

Выбранный диапазон

Имя файла D:\EAC\Jeroen van Veen - Minimal Piano Collection Vol. VI.wav

Пиковый уровень 78.4 %
Качество диапазона 100.0 %
CRC теста E00F6209
CRC копии E00F6209
Копирование… OK

Ошибок не произошло


AccurateRip: сводка

Трек 1 точное извлечение (доверие 5) [3368985C]
Трек 2 точное извлечение (доверие 5) [C0EBFDA6]
Трек 3 точное извлечение (доверие 5) [8CC8E5EF]
Трек 4 точное извлечение (доверие 5) [E8DC09C1]
Трек 5 точное извлечение (доверие 5) [7A893D21]
Трек 6 точное извлечение (доверие 5) [2EB6C32D]
Трек 7 точное извлечение (доверие 5) [1BF7265D]
Трек 8 точное извлечение (доверие 5) [CBEF39DC]
Трек 9 точное извлечение (доверие 5) [E72A3A41]
Трек 10 точное извлечение (доверие 5) [E58E2F46]
Трек 11 точное извлечение (доверие 5) [D7FC531B]
Трек 12 точное извлечение (доверие 5) [901A0232]

Все треки извлечены точно

Конец отчёта

[CUETools log; Date: 22.06.2017 19:02:54; Version: 2.1.4]
[CTDB TOCID: 9CJgM4QglsoH0jOSQHCOapRjhQ0-] found.
Track | CTDB Status
1 | (15/26) Accurately ripped, or (11/26) differs in 2151 samples @00:00:09-00:00:20
2 | (26/26) Accurately ripped
3 | (26/26) Accurately ripped
4 | (26/26) Accurately ripped
5 | (26/26) Accurately ripped
6 | (26/26) Accurately ripped
7 | (26/26) Accurately ripped
8 | (26/26) Accurately ripped
9 | (26/26) Accurately ripped
10 | (26/26) Accurately ripped
11 | (26/26) Accurately ripped
12 | (26/26) Accurately ripped
[AccurateRip ID: 0016b390-00d21f82-9d0c680c] found.
Track [ CRC | V2 ] Status
01 [3368985c|4a89f387] (06+06/23) Accurately ripped
02 [c0ebfda6|6b4886c8] (06+06/23) Accurately ripped
03 [8cc8e5ef|e4bec825] (06+06/23) Accurately ripped
04 [e8dc09c1|8f89c8bb] (06+06/25) Accurately ripped
05 [7a893d21|e93520d8] (06+06/25) Accurately ripped
06 [2eb6c32d|898169d7] (06+06/23) Accurately ripped
07 [1bf7265d|2c56a0c2] (06+06/25) Accurately ripped
08 [cbef39dc|32c5f959] (06+06/25) Accurately ripped
09 [e72a3a41|30fea4aa] (06+06/23) Accurately ripped
10 [e58e2f46|8b58dccb] (06+06/23) Accurately ripped
11 [d7fc531b|cfeba7e6] (06+06/25) Accurately ripped
12 [901a0232|14af84c7] (06+06/23) Accurately ripped
Offsetted by -12:
01 [f0667a1b] (00/23) No match (V2 was not tested)
02 [3de8a631] (00/23) No match (V2 was not tested)
03 [5caf45f8] (00/23) No match (V2 was not tested)
04 [ec3bcb97] (02/25) Accurately ripped
05 [e97e44aa] (02/25) Accurately ripped
06 [5cbc648a] (00/23) No match (V2 was not tested)
07 [ec2be539] (02/25) Accurately ripped
08 [da33c94a] (02/25) Accurately ripped
09 [f7d9dd61] (00/23) No match (V2 was not tested)
10 [2cca3dea] (00/23) No match (V2 was not tested)
11 [68255e09] (02/25) Accurately ripped
12 [689d7575] (00/23) No match (V2 was not tested)
Offsetted by -6:
01 [6c6c0eda] (00/23) No match (V2 was not tested)
02 [0f769b2f] (00/23) No match (V2 was not tested)
03 [d6de4379] (00/23) No match (V2 was not tested)
04 [139683a2] (00/25) No match (V2 was not tested)
05 [31f5588c] (00/25) No match (V2 was not tested)
06 [726a531a] (00/23) No match (V2 was not tested)
07 [74b22a34] (00/25) No match (V2 was not tested)
08 [9ff0c262] (00/25) No match (V2 was not tested)
09 [8a6be7d3] (00/23) No match (V2 was not tested)
10 [de312297] (00/23) No match (V2 was not tested)
11 [383b1cac] (00/25) No match (V2 was not tested)
12 [e84147c1] (00/23) No match (V2 was not tested)

Track Peak [ CRC32 ] [W/O NULL] [ LOG ]
– 78,4 [E00F6209] [7D706936] CRC32
01 62,9 [CCE2DE34] [8ED6D9DA]
02 78,1 [19EE6BC9] [7BBBA7F5]
03 78,3 [D41BD72A] [A6E7150A]
04 78,2 [E9EBD6D8] [17C60D85]
05 78,2 [09054170] [3DDC5B08]
06 78,1 [61AE637D] [55FEAFB8]
07 78,2 [C6EC5A39] [9D0D3F03]
08 78,4 [72ADBE1C] [32D3C066]
09 78,2 [34EBF1B7] [6EBA7141]
10 78,1 [7C94C5D4] [159A525F]
11 77,0 [CA434F62] [6A3193DC]
12 78,1 [991E4961] [530C13A2]

foobar2000 1.2 / Dynamic Range Meter 1.1.1
log date: 2017-06-22 18:49:41

––––––––––––––––––––––––––––––––––––––––
Analyzed: Jeroen van Veen / Minimal Piano Collection Vol. VI
––––––––––––––––––––––––––––––––––––––––

DR Peak RMS Duration Track
––––––––––––––––––––––––––––––––––––––––
DR15 -4.01 dB -22.77 dB 5:41 01-van Veen - Prelude nr.1 in C
DR10 -2.14 dB -15.47 dB 4:01 02-van Veen - Prelude nr.2 in A minor
DR8 -2.12 dB -14.45 dB 4:38 03-van Veen - Prelude nr.3 in G
DR10 -2.13 dB -13.59 dB 4:23 04-van Veen - Prelude nr.4 in E minor
DR9 -2.13 dB -13.01 dB 3:25 05-van Veen - Prelude nr.5 in D
DR10 -2.14 dB -13.78 dB 3:48 06-van Veen - Prelude nr.6 in B minor
DR10 -2.13 dB -14.62 dB 1:04 07-van Veen - Prelude nr.7 in A
DR11 -2.11 dB -14.72 dB 2:41 08-van Veen - Prelude nr.8 in F# minor
DR10 -2.13 dB -16.27 dB 5:01 09-van Veen - Prelude nr.9 in E
DR12 -2.14 dB -16.34 dB 7:19 10-van Veen - Prelude nr.10 in C# minor
DR12 -2.26 dB -18.68 dB 5:53 11-van Veen - Prelude nr.11 in B
DR11 -2.14 dB -15.83 dB 5:03 12-van Veen - Prelude nr.12 in G# minor
––––––––––––––––––––––––––––––––––––––––

Number of tracks: 12
Official DR value: DR11

Samplerate: 44100 Hz
Channels: 2
Bits per sample: 16
Bitrate: 407 kbps
Codec: FLAC
================================================================================


Exact Audio Copy V0.99 prebeta 5 from 4. May 2009

Отчёт EAC об извлечении, выполненном 15. октября 2010, 23:45

Jeroen van Veen / Minimal Piano Collection Vol. VII

Дисковод: Optiarc DVD RW AD-7203A Adapter: 4 ID: 1

Режим чтения : Достоверность
Использование точного потока : Да
Отключение кэша аудио : Да
Использование указателей C2 : Нет

Коррекция смещения при чтении : 48
Способность читать области Lead-in и Lead-out : Нет
Заполнение пропущенных сэмплов тишиной : Да
Удаление блоков с тишиной в начале и конце : Нет
При вычислениях CRC использовались нулевые сэмплы : Да
Интерфейс : Встроенный Win32-интерфейс для Win NT/2000

Выходной формат : Пользовательский кодировщик
Выбранный битрейт : 128 kBit/s
Качество : Высокий
Добавление ID3-тэга : Нет
Утилита сжатия : C:\Program Files\FLAC\flac.exe
Дополнительные параметры : -5 -V %s


TOC извлечённого CD

Трек | Старт | Длительность | Начальный сектор | Конечный сектор
––––––––––––––––––––––––––––––––––-
1 | 0:00.00 | 6:53.08 | 0 | 30982
2 | 6:53.08 | 5:18.07 | 30983 | 54839
3 | 12:11.15 | 2:36.12 | 54840 | 66551
4 | 14:47.27 | 2:56.17 | 66552 | 79768
5 | 17:43.44 | 4:34.22 | 79769 | 100340
6 | 22:17.66 | 10:39.53 | 100341 | 148318
7 | 32:57.44 | 3:23.58 | 148319 | 163601
8 | 36:21.27 | 4:13.12 | 163602 | 182588
9 | 40:34.39 | 4:37.55 | 182589 | 203418
10 | 45:12.19 | 6:04.53 | 203419 | 230771
11 | 51:16.72 | 6:07.35 | 230772 | 258331
12 | 57:24.32 | 9:54.09 | 258332 | 302890


Характеристики диапазона извлечения и сообщения об ошибках

Выбранный диапазон

Имя файла D:\EAC\Jeroen van Veen - Minimal Piano Collection Vol. VII.wav

Пиковый уровень 78.4 %
Качество диапазона 99.9 %
CRC теста 2F4DFD2F
CRC копии 2F4DFD2F
Копирование… OK

Ошибок не произошло


AccurateRip: сводка

Трек 1 точное извлечение (доверие 5) [9E63EB46]
Трек 2 точное извлечение (доверие 5) [A3E90A6C]
Трек 3 точное извлечение (доверие 5) [CACE87A0]
Трек 4 точное извлечение (доверие 5) [A09AAB71]
Трек 5 точное извлечение (доверие 5) [2BA8B1E4]
Трек 6 точное извлечение (доверие 5) [BB5CA66B]
Трек 7 точное извлечение (доверие 5) [C7DAE0C9]
Трек 8 точное извлечение (доверие 5) [4BF935DC]
Трек 9 точное извлечение (доверие 5) [8526CAE8]
Трек 10 точное извлечение (доверие 5) [5EC386D8]
Трек 11 точное извлечение (доверие 5) [5D3BBFD3]
Трек 12 точное извлечение (доверие 5) [46D09332]

Все треки извлечены точно

Конец отчёта

[CUETools log; Date: 22.06.2017 19:03:14; Version: 2.1.4]
[CTDB TOCID: 4mSAYlzsmeuH8gwqE70MXGXUdL8-] found.
Track | CTDB Status
1 | (16/26) Accurately ripped, or (10/26) differs in 1435 samples @00:00:09-00:00:14
2 | (26/26) Accurately ripped
3 | (26/26) Accurately ripped
4 | (26/26) Accurately ripped
5 | (26/26) Accurately ripped
6 | (26/26) Accurately ripped
7 | (26/26) Accurately ripped
8 | (26/26) Accurately ripped
9 | (25/26) Accurately ripped, or (1/26) differs in 2 samples @04:30:04
10 | (26/26) Accurately ripped
11 | (26/26) Accurately ripped
12 | (25/26) Accurately ripped
[AccurateRip ID: 001bcec9-0104d629-b60fc60c] found.
Track [ CRC | V2 ] Status
01 [9e63eb46|0add1a47] (06+06/25) Accurately ripped
02 [a3e90a6c|54a1732a] (06+06/23) Accurately ripped
03 [cace87a0|62026527] (06+06/25) Accurately ripped
04 [a09aab71|4fba8932] (06+06/25) Accurately ripped
05 [2ba8b1e4|f2b78559] (06+06/23) Accurately ripped
06 [bb5ca66b|106ea33d] (06+06/23) Accurately ripped
07 [c7dae0c9|5e66ef5c] (06+06/23) Accurately ripped
08 [4bf935dc|56cc4882] (06+06/25) Accurately ripped
09 [8526cae8|7c2aac26] (06+06/23) Accurately ripped
10 [5ec386d8|74378a93] (06+06/23) Accurately ripped
11 [5d3bbfd3|5d544998] (06+06/25) Accurately ripped
12 [46d09332|b9d7637f] (06+06/25) Accurately ripped
Offsetted by -12:
01 [7cf7bc76] (02/25) Accurately ripped
02 [b74b814d] (00/23) No match (V2 was not tested)
03 [b16027c2] (02/25) Accurately ripped
04 [3cc7fe7e] (02/25) Accurately ripped
05 [e40b15dd] (00/23) No match (V2 was not tested)
06 [2b45b43f] (00/23) No match (V2 was not tested)
07 [ee82506d] (00/23) No match (V2 was not tested)
08 [d2465a42] (02/25) Accurately ripped
09 [b2dec02d] (00/23) No match (V2 was not tested)
10 [9ed7fa80] (00/23) No match (V2 was not tested)
11 [f5636f6c] (02/25) Accurately ripped
12 [da18648b] (02/25) Accurately ripped
Offsetted by -6:
01 [7fc4e401] (00/25) No match (V2 was not tested)
02 [5a9184df] (00/23) No match (V2 was not tested)
03 [b34a6bf8] (00/25) No match (V2 was not tested)
04 [27589e18] (00/25) No match (V2 was not tested)
05 [6e098fd2] (00/23) No match (V2 was not tested)
06 [2425b47f] (00/23) No match (V2 was not tested)
07 [21a9b6fc] (00/23) No match (V2 was not tested)
08 [b84930ae] (00/25) No match (V2 was not tested)
09 [cbb4de9f] (00/23) No match (V2 was not tested)
10 [e56b6042] (00/23) No match (V2 was not tested)
11 [a91342c6] (00/25) No match (V2 was not tested)
12 [5258db86] (00/25) No match (V2 was not tested)

Track Peak [ CRC32 ] [W/O NULL] [ LOG ]
– 78,4 [2F4DFD2F] [D80C3064] CRC32
01 78,2 [0BCFDD8C] [838EDFDE]
02 78,3 [95F1B809] [9CEE4C59]
03 33,5 [9C7DB13F] [47E7A035]
04 74,1 [BDF7167B] [B20798F6]
05 78,3 [F9F7C0A4] [AC641F3F]
06 75,6 [CE7777D7] [06FBFF7E]
07 78,3 [68344C7A] [FC7659F7]
08 70,2 [AFCC01D5] [F43B77A9]
09 78,4 [21D7EA4F] [B1A0425B]
10 78,2 [5F344899] [36BBD51C]
11 56,3 [8C448322] [6A810049]
12 78,3 [B460F9DD] [F1E7D371]

foobar2000 1.2 / Dynamic Range Meter 1.1.1
log date: 2017-06-22 18:50:02

––––––––––––––––––––––––––––––––––––––––
Analyzed: Jeroen van Veen / Minimal Piano Collection Vol. VII
––––––––––––––––––––––––––––––––––––––––

DR Peak RMS Duration Track
––––––––––––––––––––––––––––––––––––––––
DR11 -2.13 dB -16.94 dB 6:53 01-van Veen - Prelude nr.13 in F sharp
DR8 -2.12 dB -11.78 dB 5:18 02-van Veen - Prelude nr.14 in E flat minor
DR13 -9.49 dB -28.50 dB 2:36 03-van Veen - Prelude nr.15 in D flat
DR12 -2.60 dB -18.72 dB 2:56 04-van Veen - Prelude nr.16 in B flat minor
DR10 -2.12 dB -14.81 dB 4:34 05-van Veen - Prelude nr.17 in A flat
DR12 -2.43 dB -17.77 dB 10:40 06-van Veen - Prelude nr.18 in F minor
DR10 -2.12 dB -15.54 dB 3:24 07-van Veen - Prelude nr.19 in E flat
DR10 -3.07 dB -15.36 dB 4:13 08-van Veen - Prelude nr.20 in C minor
DR15 -2.11 dB -21.62 dB 4:38 09-van Veen - Prelude nr.21 in B flat
DR8 -2.13 dB -12.74 dB 6:05 10-van Veen - Prelude nr.22 in G minor
DR16 -4.99 dB -28.58 dB 6:07 11-van Veen - Prelude nr.23 in F
DR7 -2.12 dB -13.73 dB 9:54 12-van Veen - Prelude nr.24 in D minor
––––––––––––––––––––––––––––––––––––––––

Number of tracks: 12
Official DR value: DR11

Samplerate: 44100 Hz
Channels: 2
Bits per sample: 16
Bitrate: 416 kbps
Codec: FLAC
================================================================================


Exact Audio Copy V0.99 prebeta 5 from 4. May 2009

Отчёт EAC об извлечении, выполненном 16. октября 2010, 1:08

Jeroen van Veen / Minimal Piano Collection Vol. VIII

Дисковод: Optiarc DVD RW AD-7203A Adapter: 4 ID: 1

Режим чтения : Достоверность
Использование точного потока : Да
Отключение кэша аудио : Да
Использование указателей C2 : Нет

Коррекция смещения при чтении : 48
Способность читать области Lead-in и Lead-out : Нет
Заполнение пропущенных сэмплов тишиной : Да
Удаление блоков с тишиной в начале и конце : Нет
При вычислениях CRC использовались нулевые сэмплы : Да
Интерфейс : Встроенный Win32-интерфейс для Win NT/2000

Выходной формат : Пользовательский кодировщик
Выбранный битрейт : 128 kBit/s
Качество : Высокий
Добавление ID3-тэга : Нет
Утилита сжатия : C:\Program Files\FLAC\flac.exe
Дополнительные параметры : -5 -V %s


TOC извлечённого CD

Трек | Старт | Длительность | Начальный сектор | Конечный сектор
––––––––––––––––––––––––––––––––––-
1 | 0:00.00 | 5:08.60 | 0 | 23159
2 | 5:08.60 | 59:22.50 | 23160 | 290359
3 | 64:31.35 | 9:34.21 | 290360 | 333430


Характеристики диапазона извлечения и сообщения об ошибках

Выбранный диапазон

Имя файла D:\EAC\Jeroen van Veen - Minimal Piano Collection Vol. VIII.wav

Пиковый уровень 78.8 %
Качество диапазона 100.0 %
CRC теста 8257A8E0
CRC копии 8257A8E0
Копирование… OK

Ошибок не произошло


AccurateRip: сводка

Трек 1 точное извлечение (доверие 5) [B999CDF0]
Трек 2 точное извлечение (доверие 5) [790A8E12]
Трек 3 точное извлечение (доверие 5) [BD413B4C]

Все треки извлечены точно

Конец отчёта

[CUETools log; Date: 22.06.2017 19:03:33; Version: 2.1.4]
[CTDB TOCID: GX7thFYXIOen_UYhFnb7ccJohvM-] found.
Track | CTDB Status
1 | (14/14) Accurately ripped
2 | (14/14) Accurately ripped
3 | (14/14) Accurately ripped
[AccurateRip ID: 0009df27-00225975-1b115d03] found.
Track [ CRC | V2 ] Status
01 [b999cdf0|9b1eface] (06+06/20) Accurately ripped
02 [790a8e12|ac2f7e73] (06+06/18) Accurately ripped
03 [bd413b4c|8f033f17] (06+06/20) Accurately ripped
Offsetted by -6:
01 [11110b51] (02/20) Accurately ripped
02 [116131f7] (00/18) No match (V2 was not tested)
03 [68ff9c3c] (02/20) Accurately ripped

Track Peak [ CRC32 ] [W/O NULL] [ LOG ]
– 78,8 [8257A8E0] [E76D7AE5] CRC32
01 78,2 [E93B5203] [C553D827]
02 78,3 [713B768F] [505E0277]
03 78,8 [04EE9EED] [42A11D5D]

foobar2000 1.2 / Dynamic Range Meter 1.1.1
log date: 2017-06-22 18:50:24

––––––––––––––––––––––––––––––––––––––––
Analyzed: Jeroen van Veen / Minimal Piano Collection Vol. VIII
––––––––––––––––––––––––––––––––––––––––

DR Peak RMS Duration Track
––––––––––––––––––––––––––––––––––––––––
DR8 -2.13 dB -12.79 dB 5:09 01-Mertens - Stuggle for Pleasure
DR13 -2.12 dB -18.87 dB 59:23 02-Johnson - An Hour for Piano
DR16 -2.07 dB -23.44 dB 9:34 03-ter Veldhuis - Postnuclear Winterscenario
––––––––––––––––––––––––––––––––––––––––

Number of tracks: 3
Official DR value: DR12

Samplerate: 44100 Hz
Channels: 2
Bits per sample: 16
Bitrate: 400 kbps
Codec: FLAC
================================================================================


Exact Audio Copy V0.99 prebeta 5 from 4. May 2009

Отчёт EAC об извлечении, выполненном 16. октября 2010, 2:05

Jeroen van Veen / Minimal Piano Collection Vol. IX

Дисковод: Optiarc DVD RW AD-7203A Adapter: 4 ID: 1

Режим чтения : Достоверность
Использование точного потока : Да
Отключение кэша аудио : Да
Использование указателей C2 : Нет

Коррекция смещения при чтении : 48
Способность читать области Lead-in и Lead-out : Нет
Заполнение пропущенных сэмплов тишиной : Да
Удаление блоков с тишиной в начале и конце : Нет
При вычислениях CRC использовались нулевые сэмплы : Да
Интерфейс : Встроенный Win32-интерфейс для Win NT/2000

Выходной формат : Пользовательский кодировщик
Выбранный битрейт : 128 kBit/s
Качество : Высокий
Добавление ID3-тэга : Нет
Утилита сжатия : C:\Program Files\FLAC\flac.exe
Дополнительные параметры : -5 -V %s


TOC извлечённого CD

Трек | Старт | Длительность | Начальный сектор | Конечный сектор
––––––––––––––––––––––––––––––––––-
1 | 0:00.00 | 7:02.44 | 0 | 31693
2 | 7:02.44 | 3:05.30 | 31694 | 45598
3 | 10:07.74 | 11:12.01 | 45599 | 95999
4 | 21:20.00 | 57:56.67 | 96000 | 356766


Характеристики диапазона извлечения и сообщения об ошибках

Выбранный диапазон

Имя файла D:\EAC\Jeroen van Veen - Minimal Piano Collection Vol. IX.wav

Пиковый уровень 79.4 %
Качество диапазона 99.9 %
CRC теста CF81000B
CRC копии CF81000B
Копирование… OK

Ошибок не произошло


AccurateRip: сводка

Трек 1 точное извлечение (доверие 5) [E5B9F513]
Трек 2 точное извлечение (доверие 5) [DC78EC76]
Трек 3 точное извлечение (доверие 5) [173D75B0]
Трек 4 нет в базе данных

3 трек(и) скопированы точно
1 трек(и) не содержатся в базе AccurateRip

Некоторые треки не прошли проверку на точность

Конец отчёта

[CUETools log; Date: 22.06.2017 19:04:02; Version: 2.1.4]
[CTDB TOCID: jQRwGMfxdWdcI0NIBXqlFTnMccE-] found.
Track | CTDB Status
1 | (14/23) Accurately ripped, or (9/23) differs in 1086 samples @00:00:09-00:00:12
2 | (23/23) Accurately ripped
3 | (23/23) Accurately ripped
4 | (19/23) Accurately ripped
[AccurateRip ID: 0008168c-00242215-28129404] found.
Track [ CRC | V2 ] Status
01 [e5b9f513|d554f2aa] (06+04/20) Accurately ripped
02 [dc78ec76|c79de1ba] (06+04/21) Accurately ripped
03 [173d75b0|b458b98d] (06+04/21) Accurately ripped
04 [fca7ef7b|e63e7b8d] (00+02/13) Accurately ripped
Offsetted by -12:
01 [ca0419ad] (00/20) No match (V2 was not tested)
02 [ea36d7ce] (00/21) No match (V2 was not tested)
03 [a16da628] (00/21) No match (V2 was not tested)
04 [39d86d1b] (00/13) No match (V2 was not tested)
Offsetted by -6:
01 [81fff893] (00/20) No match (V2 was not tested)
02 [78629f27] (00/21) No match (V2 was not tested)
03 [78ad25b9] (00/21) No match (V2 was not tested)
04 [437c4754] (00/13) No match (V2 was not tested)

Track Peak [ CRC32 ] [W/O NULL] [ LOG ]
– 79,4 [CF81000B] [CE339734] CRC32
01 69,0 [1F79651E] [0E9358BE]
02 55,4 [B1EE9AE7] [62CEAC12]
03 78,2 [1B161151] [D22C2E1F]
04 79,4 [2D94F99D] [DDEDCED5]

foobar2000 1.2 / Dynamic Range Meter 1.1.1
log date: 2017-06-22 18:50:52

––––––––––––––––––––––––––––––––––––––––
Analyzed: Jeroen van Veen / Minimal Piano Collection Vol. IX
––––––––––––––––––––––––––––––––––––––––

DR Peak RMS Duration Track
––––––––––––––––––––––––––––––––––––––––
DR10 -3.22 dB -17.42 dB 7:03 01-de Vries - Toccata Americana
DR13 -5.12 dB -25.92 dB 3:05 02-de Vries - Echo
DR10 -2.13 dB -14.80 dB 11:12 03-Michans - Three Minimal Preludes
DR11 -1.99 dB -14.84 dB 57:57 04-Riley - In C
––––––––––––––––––––––––––––––––––––––––

Number of tracks: 4
Official DR value: DR11

Samplerate: 44100 Hz
Channels: 2
Bits per sample: 16
Bitrate: 748 kbps
Codec: FLAC
================================================================================

Jeroen van Veen - Minimal Piano Collection, Volumes I-IX (2006) 9CD Box Set [Re-Up]